#TITLE:Morning Glory;
#SUBTITLE:;
#ARTIST:BeForU;
#TITLETRANSLIT:;
#SUBTITLETRANSLIT:;
#ARTISTTRANSLIT:;
#GENRE:;
#CREDIT:;
#BANNER:Morning Glory.png;
#BACKGROUND:Morning Glory-bg.png;
#LYRICSPATH:;
#CDTITLE:;
#MUSIC:Morning Glory.ogg;
#OFFSET:0.000000;
#SAMPLESTART:39.020000;
#SAMPLELENGTH:15.000000;
#SELECTABLE:YES;
#DISPLAYBPM:160.000000;
#BPMS:0.000000=157.899994
,4.000000=160.000000
;
#STOPS:
;
#BGCHANGES:;
#KEYSOUNDS:;
#ATTACKS:;

//---------------dance-single - ----------------
#NOTES:
     dance-single:
     :
     Beginner:
     3:
     0.171997,0.194030,0.000000,0.000000,0.000000,121.000000,121.000000,0.000000,0.000000,0.000000,0.000000,0.171997,0.194030,0.000000,0.000000,0.000000,121.000000,121.000000,0.000000,0.000000,0.000000,0.000000:
0000
0000
0000
0000
,
0000
0000
0000
0000
,
0000
0000
0000
0000
,
0000
0000
0000
0000
,
0000
0000
0000
0000
,
0010
0000
0010
0000
,
1000
0000
1000
0000
,
0100
0000
0100
0000
,
0001
0000
0001
0000
,
0100
0000
0100
0000
,
0010
0000
0010
0000
,
0001
0000
0001
0000
,
0100
0000
0100
0000
,
0001
0000
0100
0000
,
1000
0000
0100
0000
,
0001
0000
1000
0000
,
0010
0000
0100
0000
,
0001
0000
0010
0000
,
0100
0000
1000
0000
,
0001
0000
0100
0000
,
0010
0000
0001
0000
,
0100
0000
1000
0000
,
0100
0000
0001
0000
,
0100
0000
1000
0000
,
0001
0000
0100
0000
,
0010
0000
0000
0000
,
0100
0000
1000
0000
,
0010
0010
0010
0000
,
0001
0000
0100
0000
,
1000
1000
1000
0000
,
0100
0000
0010
0000
,
0001
0001
0001
0000
,
0100
0000
0001
0000
,
0010
0010
0010
0000
,
0001
0000
0000
0000
,
0100
0000
0000
0000
,
1000
0000
0000
0000
,
0100
0000
0000
0000
,
0010
0000
1000
0000
,
0001
0001
0001
0000
,
0100
0000
1000
0000
,
0010
0010
0010
0000
,
1000
0000
0001
0000
,
0100
0100
0100
0000
,
0010
0000
0001
0000
,
1000
1000
1000
0000
,
0010
0000
1000
0000
,
0001
0001
0000
0000
,
0001
0000
0100
0000
,
0010
0010
0000
0000
,
0001
0000
1000
0000
,
0010
0010
0000
0000
,
0100
0000
1000
0000
,
0100
0000
0010
0000
,
0100
0000
0100
0000
,
0001
0000
0100
0000
,
0010
0000
0010
0000
,
0100
0000
0010
0000
,
1000
0000
1000
0000
,
0100
0000
0001
0000
,
1000
0000
1000
0000
,
0100
0000
0010
0000
,
0001
0000
0000
0000
,
0100
0000
0000
0000
,
1000
0000
0000
0000
,
0010
0000
0000
0000
,
0000
0000
0000
0000
;

//---------------dance-single - ----------------
#NOTES:
     dance-single:
     :
     Easy:
     4:
     0.181947,0.196269,0.000000,0.089552,0.000000,128.000000,128.000000,0.000000,9.000000,0.000000,0.000000,0.181947,0.196269,0.000000,0.089552,0.000000,128.000000,128.000000,0.000000,9.000000,0.000000,0.000000:
0000
0000
0000
0000
,
0000
0000
0000
0000
,
0000
0000
0000
0000
,
0000
0000
0000
0000
,
0000
0000
0000
0000
,
0010
0000
0010
0000
,
1000
0000
1000
0000
,
0100
0000
0100
0000
,
0001
0000
0001
0000
,
0100
0000
0100
0000
,
0010
0000
0010
0000
,
0001
0000
0001
0000
,
0100
0000
0100
0000
,
0001
0000
0100
0000
,
1000
0000
0100
0000
,
0001
0000
1000
0000
,
0010
0000
0100
0000
,
0001
0000
0010
0000
,
0100
0000
1000
0000
,
0001
0000
0100
0000
,
0010
0000
0001
0000
,
0100
0000
1000
0000
,
0100
0000
0001
0000
,
0100
0000
1000
0000
,
0001
0000
0100
0000
,
0020
0000
0000
0030
,
0100
0000
1000
0000
,
0010
0010
0010
0000
,
0001
0000
0100
0000
,
1000
1000
1000
0000
,
0100
0000
0010
0000
,
0001
0001
0001
0000
,
0100
0000
0001
0000
,
0010
0010
0010
0000
,
0002
0000
0000
0003
,
0200
0000
0000
0300
,
2000
0000
0000
3000
,
0200
0000
0000
0300
,
0010
0000
1000
0000
,
0001
0001
0001
0000
,
0100
0000
1000
0000
,
0010
0010
0010
0000
,
1000
0000
0001
0000
,
0100
0100
0100
0000
,
0010
0000
0001
0000
,
1000
1000
1000
0000
,
0010
0000
1000
0000
,
0001
0001
0100
0000
,
0001
0000
0100
0000
,
0010
0010
1000
0000
,
0001
0000
1000
0000
,
0010
0010
0001
0000
,
0100
0000
1000
0000
,
0100
0000
0010
0000
,
0100
0001
0100
0000
,
0001
0000
0100
0000
,
0010
1000
0010
0000
,
0100
0000
0010
0000
,
1000
0001
1000
0000
,
0100
0000
0001
0000
,
1000
0010
1000
0000
,
0100
0000
0010
0000
,
0002
0000
0000
0003
,
0200
0000
0000
0300
,
2000
0000
0000
3000
,
0020
0000
0000
0030
,
0000
0000
0000
0000
;

//---------------dance-single - ----------------
#NOTES:
     dance-single:
     :
     Medium:
     6:
     0.358209,0.392537,0.129353,0.069652,0.004975,252.000000,239.000000,13.000000,7.000000,0.000000,0.000000,0.358209,0.392537,0.129353,0.069652,0.004975,252.000000,239.000000,13.000000,7.000000,0.000000,0.000000:
0000
0000
0000
0000
,
0000
0000
0000
0000
,
0000
0000
0000
0000
,
0000
0000
0000
0000
,
0000
0000
0000
0000
,
0100
0001
1000
0010
,
1000
0100
0010
0001
,
0100
1000
0010
0001
,
1000
0010
0100
1001
,
0010
1000
0100
1000
,
0010
0001
0100
0001
,
0001
0010
0100
1000
,
0010
0100
0010
1001
,
0001
0100
0010
0100
,
1000
0001
0010
0100
,
0001
0010
1000
0010
,
0100
1000
0010
1001
,
0100
0001
0010
1000
,
0010
0100
1000
0010
,
1000
0001
0010
1000
,
0100
0010
0001
1001
,
0010
0100
1000
1001
,
0010
1000
0001
1001
,
0010
1000
0010
0100
,
0001
0010
0100
1001
,
0010
0000
0000
0010
0000
0000
0010
0000
0000
0000
0000
0000
1001
0000
0000
0000
,
0010
1000
0010
0001
,
0100
0001
1000
0000
,
0100
1000
0010
0001
,
0010
0100
0010
1001
,
0010
1000
0100
1000
,
0001
1000
0100
0000
,
0010
0100
0001
0100
,
0010
1000
0100
1001
,
0002
1000
1000
1003
,
0020
0100
0100
0130
,
2000
0001
0001
3001
,
0010
0000
0000
0002
0000
0000
0003
0000
,
0010
0001
1000
0010
,
0100
0001
0010
0100
,
0010
0100
1000
0001
,
0100
0010
0100
1001
,
0100
1000
0001
0010
,
0001
1000
0010
1000
,
0100
0010
0001
0100
,
1000
0010
0100
1001
,
0100
0010
1000
0010
,
0001
1000
0010
0100
,
0001
0100
0010
1000
,
0100
0010
0100
1000
,
0001
0010
1000
0010
,
0100
0010
0001
0100
,
0010
0100
1000
0100
,
0010
0001
0100
1001
,
0100
1000
0010
0100
,
0001
1000
0100
0010
,
1000
0010
0100
0001
,
0010
0100
1000
0100
,
0001
0010
1000
0100
,
0010
0100
0001
1000
,
0100
0010
1000
0010
,
0100
0001
0100
1000
,
0002
1000
1000
1003
,
0020
0100
0100
0130
,
2000
0001
0001
3001
,
0100
0000
0000
0010
0000
0000
0100
0000
,
0000
0000
0000
0000
;

//---------------dance-single - ----------------
#NOTES:
     dance-single:
     :
     Hard:
     9:
     0.488984,0.523383,0.278607,0.059701,0.179104,344.000000,316.000000,28.000000,6.000000,0.000000,0.000000,0.488984,0.523383,0.278607,0.059701,0.179104,344.000000,316.000000,28.000000,6.000000,0.000000,0.000000:
0000
0000
0000
0000
,
0000
0000
0000
0000
,
0000
0000
0000
0000
,
0000
0000
0000
0000
,
0000
0000
0000
0000
,
0010
0000
0000
1000
0000
0000
0001
0000
0100
0000
0000
0010
0000
0000
0100
0000
,
0001
0000
0000
0010
0000
0000
0100
0000
1000
0000
0000
0000
0101
0000
0000
0000
,
0010
0000
0000
0001
0000
0000
0100
0000
1000
0000
0000
0100
0000
0000
0001
0000
,
1000
0000
0000
0100
0000
0000
0010
0000
0100
0000
0000
0000
1001
0000
0000
0000
,
0100
0000
0001
0000
0010
0001
0100
0000
,
0010
0000
1000
0000
0100
1000
0001
0000
,
0100
0001
0100
0000
0010
0100
0001
0000
,
0010
0000
0100
1000
0010
0000
0101
0000
,
1000
0000
0010
0000
0100
0001
1000
0000
,
0100
0000
0010
0000
0100
1000
0010
0000
,
1000
0100
1000
0000
0001
0100
0001
0000
,
0010
0000
0001
0100
0010
0000
1001
0000
,
0010
0000
0000
0001
0000
0000
1000
0000
0100
0000
0000
0000
1010
0000
0000
0000
,
0100
0000
0000
0001
0000
0000
0010
0000
0001
0000
0000
0000
1100
0000
0000
0000
,
0001
0000
0000
1000
0000
0000
0010
0000
0100
0000
0000
0000
0001
0000
1000
0000
,
0001
0000
0000
0100
0000
0000
0010
0000
1000
0000
0000
0000
0101
0000
0000
0000
,
0010
0000
0000
0001
0000
0000
0100
0000
1000
0000
0000
0000
0110
0000
0000
0000
,
0001
0000
0000
1000
0000
0000
0010
0000
0001
0000
0000
0000
1010
0000
0000
0000
,
0100
0000
0000
0001
0000
0000
0010
0000
0100
0000
0000
1000
0000
0000
0010
0000
,
1000
0000
0000
0100
0000
0000
0010
0000
0001
0000
0000
0000
1010
0000
0000
0000
,
0110
0000
0000
0101
0000
0000
1100
0000
0000
0000
0001
0000
1000
0000
0000
0000
,
0100
0000
0000
0001
0000
0000
1000
0000
0100
0000
0000
0000
0101
0000
0000
0000
,
0010
0000
0000
1000
0000
0000
0001
0000
0010
0000
0000
0000
1100
0000
0000
0000
,
0010
0000
0000
0001
0000
0000
0100
0000
0001
0000
0000
1000
0000
0000
0010
0000
,
0100
0000
0000
0010
0000
0000
1000
0000
0100
0000
0000
0000
1001
0000
0000
0000
,
0100
0000
0000
0001
0000
0000
1000
0000
0010
0000
0000
0000
0101
0000
0000
0000
,
1000
0000
0000
0001
0000
0000
0100
0000
0010
0000
0000
0000
1001
0000
0000
0000
,
0100
0000
0000
0010
0000
0000
0001
0000
1000
0000
0000
0010
0000
0000
0100
0000
,
0001
0000
0000
0010
0000
0000
0001
0000
0100
0000
0000
0000
1010
0000
0000
0000
,
2100
0000
0010
0000
0001
0001
3001
0000
,
0210
0000
0001
0000
1000
1000
1300
0000
,
0102
0000
1000
0000
0010
0010
0013
0000
,
0100
1000
0020
2000
0000
0000
3030
0000
,
0100
0000
0000
1000
0000
0000
0001
0000
0010
0000
0000
0000
0110
0000
0000
0000
,
0100
0000
0000
1000
0000
0000
0001
0000
0100
0000
0000
0000
1010
0000
0000
0000
,
0100
0000
0000
0001
0000
0000
0010
0000
0001
0000
0000
1000
0000
0000
0100
0000
,
0010
0000
0000
0100
0000
0000
1000
0000
0010
0000
0000
0000
1001
0000
0000
0000
,
0010
0000
0000
0001
0000
0000
1000
0000
0010
0000
0000
0000
0101
0000
0000
0000
,
1000
0000
0000
0001
0000
0000
0010
0000
0100
0000
0000
0000
1001
0000
0000
0000
,
0010
0000
0000
0100
0000
0000
0001
0000
1000
0000
0000
0100
0000
0000
0010
0000
,
0001
0000
0000
0100
0000
0000
0001
0000
0010
0000
0000
0000
1100
0000
0000
0000
,
0010
0001
0100
0000
0010
1000
0100
0000
,
1000
0000
0001
0100
0000
0010
0000
0100
,
0000
0001
0010
0000
0100
1000
0001
0000
,
0010
0000
0100
0010
0000
0001
0000
0100
,
0000
1000
0100
0000
0001
1000
0100
0000
,
0010
0000
0100
1000
0000
0010
0000
0100
,
0000
0001
0010
0000
0001
1000
0010
0000
,
0100
0000
1000
0010
0000
1000
0100
0000
,
0010
0001
0010
0000
0100
1000
0010
0000
,
1000
0000
0001
0010
0000
0100
0000
0010
,
0000
0001
0100
0000
0010
1000
0001
0000
,
0100
0000
0010
0100
0000
0001
0000
0010
,
0000
1000
0010
0000
0001
1000
0010
0000
,
0100
0000
0010
1000
0000
0100
0000
0010
,
0000
0001
0100
0000
0001
1000
0100
0000
,
0010
0100
1000
0000
0010
0100
0001
0000
,
0010
0000
0001
0000
0100
0001
0000
1000
,
0000
0100
0010
0000
0100
1000
0000
0001
,
0000
0100
0010
0000
1000
0100
0000
0001
,
0000
0100
1000
0002
0000
0000
0103
0000
,
0000
0000
0000
0000
;

//---------------dance-double - ----------------
#NOTES:
     dance-double:
     :
     Easy:
     4:
     0.213220,0.228980,0.000000,0.089552,0.000000,150.000000,150.000000,0.000000,9.000000,0.000000,0.000000,0.213220,0.228980,0.000000,0.089552,0.000000,150.000000,150.000000,0.000000,9.000000,0.000000,0.000000:
00000000
00000000
00000000
00000000
,
00000000
00000000
00000000
00000000
,
00000000
00000000
00000000
00000000
,
00000000
00000000
00000000
00000000
,
00000000
00000000
00000000
00000000
,
00000010
00000000
00001000
00000000
,
00000010
00000000
00000001
00000000
,
00000100
00000000
00001000
00000000
,
00000001
00000000
00000010
00000000
,
00000100
00000100
00000100
00000000
,
00001000
00001000
00001000
00000000
,
00010000
00010000
00010000
00000000
,
01000000
01000000
01000000
00000000
,
10000000
10000000
10000000
00000000
,
00100000
00100000
00100000
00000000
,
00010000
00010000
00010000
00000000
,
00100000
00100000
00100000
00000000
,
10000000
00000000
01000000
00000000
,
00010000
00000000
01000000
00000000
,
00100000
00000000
00010000
00000000
,
00001000
00000000
00000010
00000000
,
00000100
00000100
00001000
00000000
,
00000001
00000001
00000010
00000000
,
00000100
00000000
00001000
00000000
,
00000001
00000000
00000100
00000000
,
00000020
00000000
00000000
00000030
,
00000100
00000100
00001000
00000000
,
00000010
00000010
00000010
00000000
,
00000001
00000001
00000100
00000000
,
00001000
00001000
00001000
00000000
,
00010000
00010000
00100000
00000000
,
00010000
00010000
00010000
00000000
,
01000000
01000000
10000000
00000000
,
00100000
00100000
00100000
00000000
,
00020000
00000000
00000000
00030000
,
02000000
00000000
00000000
03000000
,
20000000
00000000
00000000
30000000
,
02000000
00000000
00000000
03000000
,
00010000
00010000
00001000
00000000
,
00000010
00001000
00000010
00000000
,
00000100
00000100
00001000
00000000
,
00000010
00000100
00000010
00000000
,
00001000
00001000
00000001
00000000
,
00000100
00000001
00000100
00000000
,
00000010
00000010
00000001
00000000
,
00001000
00000001
00001000
00000000
,
00000010
00000000
00001000
00000000
,
00010000
00010000
01000000
00000000
,
10000000
00000000
01000000
00000000
,
00100000
00100000
10000000
00000000
,
00010000
00000000
10000000
00000000
,
00100000
00100000
00010000
00000000
,
00001000
00000000
00000100
00000000
,
00000010
00000000
00000001
00000000
,
00000001
00000100
00000001
00000000
,
00000001
00000001
00000010
00000000
,
00001000
00000010
00001000
00000000
,
00000100
00000100
00001000
00000000
,
00000001
00001000
00000001
00000000
,
00000100
00000100
00001000
00000000
,
00010000
00001000
00010000
00000000
,
00100000
00100000
01000000
00000000
,
00020000
00000000
00000000
00030000
,
02000000
00000000
00000000
03000000
,
20000000
00000000
00000000
30000000
,
00200000
00000000
00000000
00300000
,
00000000
00000000
00000000
00000000
;

//---------------dance-double - ----------------
#NOTES:
     dance-double:
     :
     Medium:
     5:
     0.324094,0.327114,0.069652,0.059701,0.004975,228.000000,221.000000,7.000000,6.000000,0.000000,0.000000,0.324094,0.327114,0.069652,0.059701,0.004975,228.000000,221.000000,7.000000,6.000000,0.000000,0.000000:
00000000
00000000
00000000
00000000
,
00000000
00000000
00000000
00000000
,
00000000
00000000
00000000
00000000
,
00000000
00000000
00000000
00000000
,
00000000
00000000
00000000
00000000
,
01000000
10000000
00010000
00100000
,
00010000
01000000
00100000
00000000
,
10000000
01000000
00010000
00001000
,
00000010
00000100
00001000
00011000
,
00100000
00001000
01000000
00001000
,
00010000
00001000
01000000
00001000
,
00100000
00001000
01000000
00001000
,
00010000
00001000
00010000
00011000
,
00000010
00010000
00000100
00010000
,
00001000
00010000
00000010
00010000
,
00000100
00010000
00000010
00010000
,
00001000
00010000
00001000
00011000
,
00000100
00000001
00000010
00000000
,
00000010
00000100
00000001
00000000
,
00001000
00000001
00000010
00000100
,
00001000
00000010
00000100
00000000
,
00001000
00010000
00100000
00000000
,
01000000
00010000
10000000
00000000
,
00100000
00010000
00100000
01000000
,
10000000
00100000
01000000
10010000
,
00100000
00000000
00000000
00100000
00000000
00000000
00200000
00000000
00000000
00000000
00000000
00000000
00300000
00000000
00000000
00000000
,
10000000
01000000
00010000
00001000
,
00000100
00001000
00000010
00000000
,
00000100
00000001
00000010
00001000
,
00000010
00000001
00000100
00000000
,
00000010
00001000
00010000
00100000
,
10000000
00010000
01000000
00000000
,
00100000
01000000
10000000
01000000
,
00100000
00010000
01000000
00011000
,
00010000
00001000
00010000
00001000
,
00000010
00000001
00000010
00000001
,
00000100
00001000
00000100
00001000
,
00020000
00000000
00000000
00002000
00000000
00000000
00033000
00000000
,
00100000
10000000
00010000
00100000
,
01000000
10000000
00100000
00000000
,
00100000
01000000
00010000
10000000
,
01000000
00010000
00001000
00011000
,
00000100
00000001
00001000
00000010
,
00001000
00000001
00000010
00000000
,
00000100
00000010
00000001
00000100
,
00001000
00010000
00001000
00011000
,
00100000
01000000
00010000
00000000
,
10000000
00010000
00100000
01000000
,
10000000
01000000
00100000
00000000
,
00010000
10000000
00100000
00010000
,
00001000
00000010
00000001
00000000
,
00000100
00000010
00001000
00000100
,
00000010
00000100
00000001
00000000
,
00000010
00001000
00000100
00000001
,
00000100
00000010
00001000
00000000
,
00001000
00010000
01000000
00100000
,
00010000
00100000
01000000
00000000
,
00100000
01000000
00010000
01000000
,
10000000
00100000
00010000
00000000
,
00001000
00000100
00000010
00001000
,
00000100
00000010
00000001
00000000
,
00001000
00000010
00001000
00000100
,
00020000
00001000
00001000
00031000
,
00002000
00010000
00010000
00013000
,
00020000
00001000
00001000
00031000
,
00010000
00000000
00000000
01000000
00000000
00000000
10000000
00000000
,
00000000
00000000
00000000
00000000
;

//---------------dance-double - ----------------
#NOTES:
     dance-double:
     :
     Hard:
     9:
     0.506041,0.523383,0.268657,0.029851,0.029851,356.000000,329.000000,27.000000,3.000000,0.000000,0.000000,0.506041,0.523383,0.268657,0.029851,0.029851,356.000000,329.000000,27.000000,3.000000,0.000000,0.000000:
00000000
00000000
00000000
00000000
,
00000000
00000000
00000000
00000000
,
00000000
00000000
00000000
00000000
,
00000000
00000000
00000000
00000000
,
00000000
00000000
00000000
00000000
,
00000100
00000000
00000000
00001000
00000000
00000000
00000001
00000000
00000010
00000000
00000000
00000000
00001100
00000000
00000000
00000000
,
00000001
00000000
00000000
00000100
00000000
00000000
00001000
00000000
00010000
00000000
00000000
00000000
01010000
00000000
00000000
00000000
,
00100000
00000000
00000000
10000000
00000000
00000000
01000000
00000000
10000000
00000000
00000000
00100000
00000000
00000000
01000000
00000000
,
00010000
00000000
00000000
00100000
00000000
00000000
01000000
00000000
00100000
00000000
00000000
00000000
10010000
00000000
00000000
00000000
,
10000000
00100000
10000000
00000000
01000000
00010000
01000000
00000000
,
00010000
00001000
00010000
00000000
00001000
00000100
00001000
00000000
,
00000100
00000010
00000100
00000000
00000001
00000010
00000001
00000000
,
00001000
00000001
00000010
00000100
00001000
00000000
00000101
00000000
,
00000010
00000001
00000010
00000000
00000100
00001000
00000100
00000000
,
00001000
00000010
00001000
00000000
00010000
00001000
00010000
00000000
,
01000000
00010000
01000000
00000000
00100000
10000000
00100000
00000000
,
01000000
00010000
10000000
01000000
00100000
00000000
10010000
00000000
,
10100000
00000000
01010000
00000000
00100000
01000000
10000000
00000000
,
01010000
00000000
11000000
00000000
00100000
00010000
01000000
00000000
,
00100000
00000000
00010000
00001000
00000100
00000000
00000010
00000000
,
00000001
00000000
00000100
00000010
00001000
00000000
00000101
00000000
,
00001000
00000000
00000001
00000010
00000100
00000000
00001001
00000000
,
00000100
00000000
00001000
00010000
00100000
00000000
11000000
00000000
,
00010000
10000000
00100000
00000000
01000000
10000000
00010000
00000000
,
10000000
00000000
01000000
00010000
00001000
00000000
00011000
00000000
,
00000010
00000000
00000000
00000100
00000000
00000000
00001000
00000000
00000000
00000000
00000010
00000000
00010000
00000000
00000000
00000000
,
00001000
00000000
00000100
00000001
00000010
00000001
00001000
00000000
,
00000100
00000000
00000010
00000001
00000100
00000010
00001000
00000000
,
00000100
00011000
01000000
00011000
,
00100000
00000000
01000000
00010000
00100000
00000000
11000000
00000000
,
00100000
00000000
00010000
10000000
01000000
00100000
00010000
00000000
,
01000000
00000000
00100000
01000000
00001000
00100000
00010000
00000000
,
01000000
00011000
00000100
00011000
,
00000010
00000000
00000001
00001000
00000100
00000000
00000101
00000000
,
00001000
00000001
00000010
00000000
00000100
00001000
00000000
00000010
,
00000000
00001000
00000001
00000000
00000100
00001000
00000000
00010000
,
00000000
00100000
10000000
00000000
00010000
00100000
00000000
01000000
,
00000000
00010000
00002000
00020000
00000000
00000000
00033000
00000000
,
00001000
00000000
00000100
00000001
00000010
00000001
00001000
00000000
,
00000100
00000000
00000010
00000001
00000100
00000010
00001000
00000000
,
00000100
00011000
01000000
00011000
,
00100000
00000000
01000000
00010000
00100000
00000000
11000000
00000000
,
00100000
00000000
00010000
10000000
01000000
00100000
00010000
00000000
,
01000000
00000000
00100000
01000000
00001000
00100000
00010000
00000000
,
01000000
00011000
00000100
00011000
,
00000010
00000000
00000001
00001000
00000100
00000000
00000101
00000000
,
00000001
00000010
00001000
00000000
00010000
00001000
00000100
00000000
,
00000010
00001000
00010000
01000000
00000000
00100000
10000000
01000000
,
00000000
00100000
01000000
00000000
10000000
00010000
01000000
00000000
,
00100000
00000000
01000000
00001000
00000000
00010000
00000100
00001000
,
00000000
00000010
00001000
00000000
00000100
00010000
00001000
00000000
,
00000010
00000000
00000001
00000100
00000000
00000010
00001000
00000001
,
00000000
00000010
00000100
00000000
00001000
00000001
00000100
00000000
,
00001000
00000000
00010000
00100000
00000000
10000000
00100000
01000000
,
00010000
00000000
00100000
00000000
01000000
10000000
00010000
00000000
,
10000000
00000000
00010000
01000000
00000000
00100000
10000000
01000000
,
00000000
00010000
00001000
00000000
00000100
00000010
00001000
00000001
,
00000010
00000000
00000100
00000010
00000000
00000001
00001000
00000100
,
00000000
00000010
00001000
00000000
00010000
01000000
00100000
01000000
,
00010000
00000000
01000000
10000000
00000000
01000000
00100000
10000000
,
00000000
01000000
00100000
00000000
00010000
10000000
00100000
00000000
,
00010000
00001000
00000100
00000000
00000010
00001000
00000100
00000000
,
00000011
00000000
00001100
00000000
00000001
00000010
00000000
00000001
,
00000000
00000100
00001000
00000000
00010000
00001000
00000000
00000010
,
00000000
00000100
00001000
00000000
00010000
00100000
00000000
01000000
,
00000000
10000000
00100000
00020000
00000000
00000000
00031000
00000000
,
00000000
00000000
00000000
00000000
;

//---------------dance-single - ----------------
#NOTES:
     dance-single:
     :
     Challenge:
     16:
     0.898365,1.341169,0.318408,0.159204,1.094527,632.000000,600.000000,32.000000,16.000000,0.000000,0.000000,0.898365,1.341169,0.318408,0.159204,1.094527,632.000000,600.000000,32.000000,16.000000,0.000000,0.000000:
// measure 0
0000
0000
0000
0000
,  // measure 1
0000
0000
0000
0000
,  // measure 2
0000
0000
0000
0000
,  // measure 3
0000
0000
0000
0000
,  // measure 4
0000
0000
0000
0000
,  // measure 5
0010
0000
1000
0010
0000
0001
0010
0000
0010
0000
0001
0010
0000
1000
0010
0000
,  // measure 6
0100
0000
0001
0100
0000
1000
0100
0010
0002
0000
0000
0000
1003
0000
0000
0000
,  // measure 7
0010
0000
1000
0010
0000
0001
0010
0000
0010
0000
0001
0010
0000
1000
0010
0000
,  // measure 8
0100
0000
0001
0010
0000
0100
0010
0001
2000
0000
0000
0000
3100
0000
0000
0000
,  // measure 9
0010
0000
1000
0100
0000
0010
0001
0000
0020
0000
0000
0000
0031
0000
0000
0000
,  // measure 10
0010
0000
0001
0010
0000
0100
1000
0000
0020
0000
0000
0000
0130
0000
0000
0000
,  // measure 11
0010
0000
1000
0001
0000
0010
0100
0000
0010
0000
1000
0100
0010
0001
0010
0000
,  // measure 12
0100
0000
0010
0001
0000
1000
0100
0000
0020
0000
0000
0000
1030
0000
0000
0000
,  // measure 13
0010
0000
0001
0010
0000
1000
0010
0000
0200
0000
0000
0000
0301
0000
0000
0000
,  // measure 14
0010
0000
0001
0010
0000
1000
0100
0000
0020
0000
0000
0000
1030
0000
0000
0000
,  // measure 15
0010
0000
0001
0010
0000
0100
1000
0000
0010
0000
1000
0100
0001
0010
0001
0000
,  // measure 16
0100
0000
1000
0010
0000
0100
0001
0010
2000
0000
0000
0000
3001
0000
0000
0000
,  // measure 17
1000
0100
0000
0100
1000
0000
0100
1000
0100
0000
0000
0000
0101
0000
0000
0000
,  // measure 18
0010
0001
0000
0001
0010
0000
0001
0010
0001
0000
0000
0000
1010
0000
0000
0000
,  // measure 19
0100
0010
0000
0010
0100
0000
0010
0100
0010
0000
0000
0000
1010
0000
0000
0000
,  // measure 20
0100
0010
0000
0010
0001
0000
0010
1000
0001
0000
0000
0000
1001
0000
0000
0000
,  // measure 21
1000
0000
0100
0010
0000
0010
0001
0010
0100
0000
0000
0000
1100
0000
0000
0000
,  // measure 22
0010
0000
0001
0010
0000
0010
0100
0010
1000
0000
0000
0000
1010
0000
0000
0000
,  // measure 23
1010
0000
0011
0000
0101
0000
1100
0000
1010
0000
0101
0000
,  // measure 24
0011
0000
0110
0000
1001
0000
0110
0000
0000
0000
0000
0000
,  // measure 25
0110
0000
0000
1001
0000
0000
0110
0010
0100
0001
1000
0100
0010
0001
0100
0010
,  // measure 26
1000
0000
0100
1000
0000
0100
1000
0000
0010
0000
0001
0010
0000
0001
0010
0100
,  // measure 27
1000
0000
0001
1000
0000
1000
0100
0010
0001
0000
0000
0000
0101
0000
0000
0000
,  // measure 28
0010
0000
0001
0010
0000
0100
1000
0000
0010
0000
1000
0100
0000
0010
0001
0100
,  // measure 29
0010
0000
1000
0001
0000
0100
0010
0100
0001
0000
0000
0000
1001
0000
0000
0000
,  // measure 30
0010
0000
0001
0100
0000
0010
1000
0000
0001
0000
1000
0100
0000
0010
0001
0000
,  // measure 31
0010
0000
1000
0100
0000
0001
0010
0100
1000
0000
0000
0000
1010
0000
0000
0000
,  // measure 32
0010
0000
0001
1000
0000
0100
0010
0000
1000
0000
0100
1000
0000
0010
0001
0000
,  // measure 33
0100
0000
0010
0001
0000
0100
0010
1000
0001
0000
0000
0000
0010
0001
1000
0100
,  // measure 34
0020
0001
0100
0001
0100
0001
0100
0001
,  // measure 35
0230
1000
0010
1000
0010
1000
0010
1000
,  // measure 36
0301
0010
1000
0100
0010
0001
0100
0010
,  // measure 37
1000
0001
0010
2200
0000
0000
0000
3300
,  // measure 38
1000
0000
0100
1000
0000
0010
0100
0000
0100
0010
0001
0000
0011
0000
0001
0000
,  // measure 39
0100
0000
0001
0100
0000
0001
0100
0010
1000
0000
0000
0000
1010
0000
0000
0000
,  // measure 40
0100
0000
0010
1000
0000
0001
0010
0000
0100
0010
1000
0000
1001
0000
0001
0000
,  // measure 41
0100
0000
0010
0001
0000
1000
0100
0010
0001
0000
0000
0000
0011
0000
0000
0000
,  // measure 42
0010
0000
0001
0010
0000
1000
0010
0000
0001
0100
0010
0000
1010
0000
1000
0000
,  // measure 43
0010
0000
1000
0100
0000
0010
0001
0100
0010
0000
0000
0000
0110
0000
0000
0000
,  // measure 44
0010
0000
0001
0010
0000
0100
1000
0000
0010
1000
0001
0000
1001
0000
1000
0000
,  // measure 45
0100
0000
0010
1000
0000
0100
1000
0100
0010
0000
0000
0000
0011
0000
0000
0000
,  // measure 46
0001
0100
0001
0100
0001
0100
0001
0100
0010
0000
1000
0010
0100
0000
0001
0000
,  // measure 47
1000
0100
1000
0100
0010
0000
0001
0010
0001
0000
0100
0000
0010
0000
1000
0000
,  // measure 48
0010
1000
0010
1000
0010
1000
0010
1000
0100
0000
0010
0001
0010
0000
0001
0000
,  // measure 49
0100
0010
0100
0010
1000
0000
0010
0100
0010
0000
0001
0000
1000
0000
0100
0000
,  // measure 50
0010
0001
0010
0001
0010
0001
0010
0001
1000
0000
0010
1000
0010
0000
0100
0000
,  // measure 51
0001
0010
0001
0010
0100
0000
1000
0010
1000
0000
0100
0000
0001
0000
0010
0000
,  // measure 52
0100
1000
0100
1000
0100
1000
0200
1000
0310
0000
0001
0100
0001
0000
0010
0000
,  // measure 53
1000
0010
1000
0010
0100
0000
0001
0010
0001
0000
0100
0000
0010
0000
1000
0000
,  // measure 54
0010
0001
1000
0010
0001
1000
0100
0010
0001
0000
0100
0010
1000
0000
0001
0000
,  // measure 55
1000
0001
0010
0100
1000
0000
0010
1000
0001
0000
0100
0000
0010
0000
1000
0000
,  // measure 56
0100
1000
0010
0100
0001
0010
1000
0100
0010
0000
0001
0010
0100
0000
1000
0000
,  // measure 57
0010
0100
0001
1000
0100
0000
0010
1000
0100
0000
0010
0000
0001
0000
0100
0000
,  // measure 58
0001
0010
1000
0100
0001
0100
1000
0010
0100
0000
0001
1000
0100
0000
0010
0000
,  // measure 59
0001
0010
0100
1000
0010
0000
1000
0100
0010
0000
0001
0000
0100
0000
0010
0000
,  // measure 60
1000
0010
0100
0001
1000
0100
0010
0001
0100
0010
1000
0001
0010
0001
0100
0010
,  // measure 61
1000
0010
0100
0001
0202
0000
0303
0000
,  // measure 62
1000
0100
1000
0000
0100
0000
0010
0000
0001
0010
0001
0000
0010
0000
0100
0000
1000
0010
1000
0000
0010
0000
0100
0000
0001
0010
0001
0000
0010
0000
0001
0000
,  // measure 63
0100
0010
0100
0000
0010
0000
1000
0000
0010
0100
0010
0000
0100
0000
0010
0000
0001
1000
0001
0000
1000
0000
0010
0000
1000
0001
1000
0000
0001
0000
0100
0000
,  // measure 64
0010
0001
0100
0010
1000
0001
0100
0010
1000
0001
0100
0010
1000
0001
0100
0010
,  // measure 65
0001
0010
1000
0001
0100
0010
2000
0000
0000
0000
0000
0000
3000
0000
0000
0000
;
