#TITLE:Monkey Punk;
#SUBTITLE:;
#ARTIST:Big Idea;
#TITLETRANSLIT:;
#SUBTITLETRANSLIT:;
#ARTISTTRANSLIT:;
#GENRE:;
#CREDIT:;
#BANNER:Monkey Punk.png;
#BACKGROUND:Monkey Punk-bg.png;
#LYRICSPATH:;
#CDTITLE:;
#MUSIC:Monkey Punk.ogg;
#OFFSET:0.000000;
#SAMPLESTART:48.060001;
#SAMPLELENGTH:15.000000;
#SELECTABLE:YES;
#DISPLAYBPM:180.000000;
#BPMS:0.000000=138.000000
,4.000000=180.000000
;
#STOPS:
;
#BGCHANGES:0.000=Monkey Punk.avi=1.000=0=0=0=StretchNoLoop====,
99999=-nosongbg-=1.000=0=0=0 // don't automatically add -songbackground-
;
#KEYSOUNDS:;
#ATTACKS:;

//---------------dance-single - ----------------
#NOTES:
     dance-single:
     :
     Beginner:
     4:
     0.207308,0.298880,0.000000,0.153765,0.000000,151.000000,151.000000,0.000000,16.000000,0.000000,0.000000,0.207308,0.298880,0.000000,0.153765,0.000000,151.000000,151.000000,0.000000,16.000000,0.000000,0.000000:
0000
0000
0000
0000
,
0000
0000
0000
0000
,
0000
0000
0000
0000
,
0000
0000
0000
0000
,
0002
0003
0001
0000
,
0010
0010
0010
0000
,
2000
3000
1000
0000
,
0010
0010
0010
0000
,
0200
0300
0100
0000
,
0001
0001
0001
0000
,
0020
0030
0020
0030
,
0010
0010
0010
0010
,
0000
1000
0000
1000
,
0000
1000
0000
1000
,
0000
0100
0000
0100
,
0000
0100
0000
0100
,
0000
0001
0000
0001
,
0000
0001
0000
0000
,
0001
0001
0001
0001
,
0001
0001
0001
0001
,
0000
1000
0000
0010
,
0000
1000
0000
0010
,
0000
0001
0000
0010
,
0000
0001
0000
0010
,
0000
0100
0000
0001
,
0000
0001
0000
1000
,
0000
0001
0000
0100
,
0000
0100
0000
0010
,
0000
0001
0000
0001
,
0000
1000
1000
1000
,
0000
0001
0000
0001
,
0000
0010
0010
0010
,
0000
0001
0000
0001
,
0000
0100
0000
1000
,
2000
3000
2000
3000
,
1000
1000
1000
1000
,
0000
0010
0000
1000
,
0000
0010
0000
0100
,
0000
0001
0000
0100
,
0000
0001
0000
1000
,
0000
0010
0000
0001
,
0000
0100
0000
0001
,
0002
0000
0000
0003
,
0000
0000
0000
0000
,
2000
3000
1000
0000
,
0100
0100
0100
0000
,
0002
0003
0001
0000
,
0100
0100
0100
0000
,
0020
0030
0010
0000
,
1000
1000
1000
0000
,
0200
0300
0200
0300
,
0100
0100
0100
0100
,
0000
0001
0000
0001
,
0000
0010
0000
0010
,
0000
1000
0000
1000
,
0000
0100
0000
0100
,
0000
0001
0000
0100
,
0000
1000
0000
0010
,
0000
0100
0000
0001
,
0000
0010
0000
1000
,
1000
0000
0000
0000
,
0001
0000
0000
0000
,
2000
0000
0000
3000
,
0000
0000
0000
0000
,
0010
0000
0000
0000
,
0100
0000
0000
0000
,
0020
0000
0000
0030
,
0000
0000
0000
0000
,
0000
1000
0000
1000
,
0000
0001
0000
0001
,
0000
0100
0000
0100
,
0000
0010
0000
0010
,
0000
1000
0000
0100
,
0000
0001
0000
0010
,
0000
0001
0000
0100
,
0000
1000
0000
0010
,
0010
0000
0000
0100
,
0200
0000
0000
0300
;

//---------------dance-single - ----------------
#NOTES:
     dance-single:
     :
     Easy:
     5:
     0.339106,0.448321,0.240258,0.374802,0.000000,247.000000,222.000000,25.000000,39.000000,0.000000,0.000000,0.339106,0.448321,0.240258,0.374802,0.000000,247.000000,222.000000,25.000000,39.000000,0.000000,0.000000:
0000
0000
0000
0000
,
0000
0000
0000
0000
,
0000
0000
0000
0000
,
0000
0000
0000
0000
,
0020
0030
1001
0000
,
0010
0010
0001
1000
,
0001
0001
0100
0100
,
2002
0000
0000
3003
,
0020
0030
1001
0000
,
0100
0010
0100
0010
,
0220
0330
2002
3003
,
1000
1000
0001
0001
,
2000
3000
0110
0000
,
1000
1000
0002
0003
,
2000
3000
0101
0000
,
0001
0001
2000
3000
,
0002
0003
1100
0000
,
0010
0010
0100
0000
,
0020
0030
1100
0000
,
0010
1000
1000
0000
,
0001
1001
1000
1001
,
0001
1000
0001
1000
,
0010
0110
0100
0110
,
0010
0100
0010
0100
,
0001
0001
0100
0001
,
1000
1000
0001
1000
,
0010
1000
0100
0001
,
0100
1000
0010
0010
,
0100
1000
0100
0001
,
0100
1000
0100
0001
,
0010
0010
0100
1000
,
0100
0001
0100
1000
,
0100
0100
0010
0001
,
1000
0001
1000
0001
,
2002
3003
0220
0330
,
0001
0001
1000
1000
,
0001
0010
0100
1000
,
0100
0010
0001
0000
,
1000
0001
0010
0100
,
1000
0010
0100
0000
,
1000
1000
0001
0001
,
1000
0001
0001
1000
,
0002
0000
0000
0003
,
0000
0000
0000
0000
,
0200
0300
0101
0000
,
1000
0100
1000
0000
,
0020
0030
1100
0000
,
0001
1000
0001
0000
,
0002
0003
1001
0000
,
0010
0001
0010
0000
,
2200
3300
0202
0303
,
1000
1000
0001
0001
,
1000
0200
0000
0300
,
0010
0010
0100
0100
,
1000
0002
0000
0003
,
0100
0100
0001
0001
,
0010
0200
0000
0300
,
0010
0010
0001
0001
,
1000
0200
0000
0300
,
1000
1000
0010
1000
,
0200
0000
0000
0300
,
0020
0000
0000
0030
,
2002
0000
0000
3003
,
0000
0000
0000
0000
,
0010
0001
0100
1000
,
0100
0001
0010
0010
,
0001
0100
1000
0100
,
0001
0010
0001
0001
,
1000
0200
0000
0300
,
0010
0010
0001
1000
,
0100
0020
0000
0030
,
1000
1000
0100
0010
,
0001
0002
0000
0003
,
1000
0001
1000
0100
,
0010
0100
1000
0010
,
0010
0100
0100
0010
,
0110
0000
0000
1001
0000
0000
0110
0000
,
0220
0000
0000
0330
;

//---------------dance-single - ----------------
#NOTES:
     dance-single:
     :
     Medium:
     8:
     0.472278,0.597761,0.730383,0.269088,0.000000,344.000000,268.000000,76.000000,28.000000,0.000000,0.000000,0.472278,0.597761,0.730383,0.269088,0.000000,344.000000,268.000000,76.000000,28.000000,0.000000,0.000000:
0000
0000
0000
0000
,
0000
0000
0000
0000
,
0000
0000
0000
0000
,
0000
0000
0000
0000
,
1001
0000
0001
2000
0000
0000
3000
0000
,
0010
0110
1000
1001
,
0110
0000
0010
0100
0000
0000
0100
0020
,
0000
0000
0000
0030
,
1001
0010
0100
0010
,
0110
0001
1000
0001
,
2020
3030
0202
0303
,
1010
0011
1100
0101
,
0001
0001
1000
1000
,
0100
0100
0010
0010
,
1001
0110
0100
0010
,
0110
1001
1000
0001
,
1010
0101
2002
0000
,
3003
1000
0001
1000
,
1000
0001
2002
0000
,
0000
0000
0000
3003
,
0110
0100
1000
0100
,
0010
0001
0010
0010
,
1001
0001
1000
0100
,
0010
0010
0001
1000
,
0110
0100
1000
0010
,
0100
0100
0001
0010
,
1001
0100
0001
1000
,
0010
0010
0100
1001
,
1000
0100
1000
0000
1100
0000
0101
0000
,
0001
0100
0001
0000
0101
0000
1100
0000
,
0010
0100
0010
0000
0110
0000
1001
0000
,
0001
1000
0001
0000
1001
0000
0110
0000
,
1000
0001
1000
0000
1100
0000
0101
0000
,
0001
1000
0001
0000
1100
0000
0101
0000
,
2002
3003
0220
0330
,
1100
0101
1001
0110
,
1000
0100
1000
0000
0100
0000
0100
0000
,
1000
0100
0010
0001
,
0001
0100
0001
0000
0100
0000
0100
0000
,
0001
0100
0010
1000
,
0011
1010
1000
0001
,
1100
0101
0001
1000
,
2002
0000
0000
3003
,
0000
0000
0000
0000
,
0010
1000
0001
0000
0100
0000
1000
0000
,
0100
0001
1000
0000
0100
0000
1000
0000
,
0100
0001
0100
0000
1000
0000
0100
0000
,
0010
0100
0010
0000
0001
0000
1000
0000
,
0001
1000
0001
0000
1000
0000
0010
0000
,
1000
0100
1000
0000
0010
0000
0100
0000
,
1001
0000
0110
0000
,
0011
1100
1010
0101
,
1100
1000
0100
1000
,
0101
0001
0100
0001
,
1010
1000
0010
1000
,
0011
0001
0010
0001
,
0110
0100
0010
0100
,
1001
1000
0001
1000
,
0110
0100
0110
0010
,
1001
1000
1001
0001
,
0002
0000
0000
0003
,
0200
0000
0000
0300
,
2002
0000
0000
3003
,
0000
0000
0000
0000
,
0010
0001
0010
0000
0001
0000
1000
0000
,
0100
1000
0100
0000
1000
0000
0001
0000
,
1000
1000
0001
1000
,
0010
0010
0100
1100
,
0101
0202
0000
0303
,
1000
0001
1000
1001
,
0110
2002
0000
3003
,
0010
0001
0010
0011
,
1100
2200
0000
3300
,
0100
0001
0100
1000
,
1000
1000
0001
1000
,
0100
0100
0010
0100
,
1001
0000
1000
0001
0000
1000
0001
1000
,
2002
0000
0000
3003
;

//---------------dance-single - ----------------
#NOTES:
     dance-single:
     :
     Hard:
     10:
     0.465413,0.517995,0.163375,0.172985,0.000000,339.000000,322.000000,17.000000,18.000000,0.000000,0.000000,0.465413,0.517995,0.163375,0.172985,0.000000,339.000000,322.000000,17.000000,18.000000,0.000000,0.000000:
0000
0000
0000
0000
,
0000
0000
0000
0000
,
0000
0000
0000
0000
,
0000
0000
0000
0000
,
1000
0100
1000
0002
0000
0000
0000
0013
,
0000
0100
0000
1000
0000
0100
0000
0000
,
0001
0100
0001
2000
0000
0000
0000
3010
,
0000
0100
0000
0001
0000
0100
0000
0000
,
1000
0001
1000
0002
0000
0000
1000
0000
,
0000
0100
0000
0013
,
1001
0000
0110
0000
,
1000
1001
0001
1001
,
0010
0000
0100
1000
0000
0000
1000
0010
,
0000
0010
0000
0100
0001
0000
0010
0000
,
0001
1000
0000
0001
0000
0000
0100
0010
,
0000
1000
0100
0000
0010
0000
0001
1000
,
0000
0001
0000
1000
0000
0010
0000
0100
,
0000
0001
0010
0100
0010
0000
0001
1000
,
0000
0001
0000
1000
0000
0001
0000
0000
,
1001
0110
0110
1001
,
0010
1000
0001
0020
0000
0000
1000
0000
,
0000
0100
0000
0031
,
0001
1000
0100
0020
0000
0000
0001
0000
,
0000
0100
0000
1030
,
1000
0010
0001
0200
0000
0000
0001
0000
,
0000
0010
0000
1300
,
1000
0100
0001
0020
0000
0000
0001
0000
,
0000
0100
0000
1030
,
1000
0010
1000
0000
0001
0010
0001
0000
,
0001
0100
0001
0000
1000
0100
1000
0000
,
0001
1000
0001
0000
0100
0010
0100
0000
,
1000
0001
1000
0000
0010
0100
0010
0000
,
1000
0100
0000
0001
0000
0100
0000
1000
,
0000
0010
0000
0001
0000
0010
0000
0001
,
2000
3000
0002
0003
,
1001
1001
1001
1001
,
0001
0100
0000
1000
0000
0100
0000
0001
,
0000
0010
0000
1000
0000
0010
0000
0000
,
0001
0100
0000
1000
0000
0100
0001
0000
,
0010
1000
0000
0010
0000
0000
0001
0000
,
0001
1000
0000
0001
0000
1000
0001
1000
,
0010
0000
0100
0010
0000
0000
0100
0020
,
1000
0100
0001
1000
,
0001
0100
1000
0031
,
1000
0100
1000
0002
0000
0000
0000
0013
,
0000
0100
0000
1000
0000
0100
0000
0000
,
0001
0100
0001
2000
0000
0000
0000
3010
,
0000
0100
0000
0001
0000
0100
0000
0000
,
1000
0001
1000
0002
0000
0000
1000
0000
,
0000
0100
0000
0013
,
1001
0000
0110
0000
,
1000
1001
0001
1001
,
1000
0000
0001
0000
0010
0001
0100
0000
,
0010
1000
0100
0000
0010
0001
0100
0000
,
0001
0000
1000
0000
0100
1000
0010
0000
,
0100
0001
0010
0000
0100
1000
0010
0000
,
0100
0000
0010
0000
1000
0010
0001
0000
,
1000
0100
0001
0000
1000
0010
0001
0000
,
0010
0000
0100
0000
0001
0100
1000
0000
,
0001
0010
1000
0000
0001
0100
1000
0000
,
2002
0000
0000
0000
,
0000
0000
0000
3003
,
0001
1000
0001
1000
0000
0001
0000
1000
,
0000
0001
0000
1000
0001
1000
0001
1000
,
0001
0100
0000
0010
0000
1000
0100
0010
,
0001
0000
0100
0010
0000
0000
1000
0100
,
0010
0100
0010
0100
0000
0001
0000
0100
,
0000
1000
0000
0010
0100
0000
0001
0000
,
1000
0002
1000
0103
,
0001
0100
0000
1000
0000
0100
0001
0000
,
0010
0200
0010
1300
,
0100
1000
0000
0010
0000
1000
0100
1000
,
0010
0200
0010
0301
,
0100
0001
0000
0010
0000
0001
0100
0000
,
0001
1000
0000
0001
0000
1000
0001
1000
,
0010
0000
0100
0010
0000
0000
0010
0100
,
1000
0100
0001
0010
0000
1000
0010
0001
,
0100
0000
0000
0000
;

//---------------dance-double - ----------------
#NOTES:
     dance-double:
     :
     Easy:
     5:
     0.336361,0.448321,0.211427,0.326750,0.000000,245.000000,223.000000,22.000000,34.000000,0.000000,0.000000,0.336361,0.448321,0.211427,0.326750,0.000000,245.000000,223.000000,22.000000,34.000000,0.000000,0.000000:
00000000
00000000
00000000
00000000
,
00000000
00000000
00000000
00000000
,
00000000
00000000
00000000
00000000
,
00000000
00000000
00000000
00000000
,
00022000
00033000
00001000
00000000
,
00010000
01000000
00010000
01000000
,
10000000
01000000
10000000
01000000
,
20000000
00000000
00000000
30000000
,
20020000
30030000
01000000
00000000
,
00010000
00001000
00010000
00001000
,
00011000
00000000
00011000
00000000
,
00001000
00001000
00010000
00010000
,
00022000
00033000
00000100
00000000
,
00001000
00000001
00000100
00000000
,
00000022
00000033
00000100
00000000
,
00000001
00001000
00000100
00000000
,
00002002
00003003
00000100
00000000
,
00001000
00010000
01000000
00000000
,
20020000
30030000
00100000
00000000
,
00100000
10000000
10000000
00000000
,
10010000
10000000
10000000
01000000
,
00010000
00001000
00010000
00001000
,
00010000
00001000
00001000
00000100
,
00000001
00000010
00000001
00000010
,
00000100
00001000
00000100
00000010
,
00000001
00000100
00001000
00010000
,
01000000
10000000
00010000
10000000
,
01000000
00100000
00010000
00010000
,
00100000
01000000
00010000
00001000
,
00000100
00001000
00000100
00001000
,
00001000
00010000
01000000
10000000
,
01000000
00010000
01000000
10000000
,
01000000
00100000
00010000
01000000
,
00100000
10000000
00100000
10000000
,
10010000
00000000
01100000
00000000
,
10000000
10000000
00010000
10000000
,
01000000
00010000
00001000
00001000
,
00000100
00000001
00000100
00000001
,
00000001
00001000
00000100
00000100
,
00001000
00000100
00000100
00000000
,
00010000
00001000
00010000
00010000
,
00001000
00010000
00001000
00001000
,
00022000
00000000
00000000
00033000
,
00000000
00000000
00000000
00000000
,
00002002
00003003
00000100
00000000
,
00000010
00000001
00000010
00000000
,
00002200
00003300
00000100
00000000
,
00010000
00001000
00010000
00000000
,
20020000
30030000
01000000
00000000
,
00100000
10000000
00100000
00000000
,
01010000
00000000
11000000
00000000
,
00100000
00100000
10000000
00100000
,
10000000
02000000
00000000
03000000
,
00010000
00001000
00010000
00001000
,
00001000
00020000
00000000
00030000
,
00001000
00000100
00001000
00000100
,
00000100
00000002
00000000
00000003
,
00000010
00000001
00000010
00000001
,
00000001
00000200
00000000
00000300
,
00001000
00010000
00001000
00010000
,
00020000
00000000
00000000
00030000
,
00002000
00000000
00000000
00003000
,
00022000
00000000
00000000
00033000
,
00000000
00000000
00000000
00000000
,
00000010
00000010
00000100
00000010
,
00000001
00000001
00000010
00000001
,
00000100
00000100
00001000
00000100
,
00001000
00001000
00010000
00001000
,
00010000
00020000
00000000
00030000
,
01000000
01000000
10000000
01000000
,
10000000
20000000
00000000
30000000
,
01000000
01000000
00100000
01000000
,
00100000
00200000
00000000
00300000
,
01000000
00010000
00001000
00001000
,
00000100
00001000
00000100
00000001
,
00000001
00001000
00001000
00000001
,
00001001
00000000
00000000
00000110
00000000
00000000
00001001
00000000
,
00002002
00000000
00000000
00003003
;

//---------------dance-double - ----------------
#NOTES:
     dance-double:
     :
     Medium:
     8:
     0.470905,0.560401,0.816876,0.230647,0.000000,343.000000,258.000000,85.000000,24.000000,0.000000,0.000000,0.470905,0.560401,0.816876,0.230647,0.000000,343.000000,258.000000,85.000000,24.000000,0.000000,0.000000:
00000000
00000000
00000000
00000000
,
00000000
00000000
00000000
00000000
,
00000000
00000000
00000000
00000000
,
00000000
00000000
00000000
00000000
,
10010000
01100000
01000000
00010000
,
00001000
00000100
00001000
00000100
,
00001100
00000101
00000100
00000010
,
00001000
00000100
00000010
00000001
,
00001100
00000101
00000100
00001000
,
00010000
01000000
00010000
01000000
,
01010000
00000000
00001100
00000000
,
00010100
00011000
01001000
00011000
,
00011000
00000100
00000001
00001000
,
00000100
00000010
00001000
00000000
,
00110000
00010000
00100000
01000000
,
00010000
00001000
00000100
00000000
,
00001001
00000100
00001000
00000001
,
00000100
00001000
00010000
00000000
,
10010000
00100000
10000000
01000000
,
00100000
00010000
10000000
00000000
,
01000000
00010000
01000000
00000000
01010000
00000000
00011000
00000000
,
00010000
00001000
00010000
00001000
,
00001000
00000100
00001000
00000000
00001100
00000000
00011000
00000000
,
00001000
00010000
00001000
00010000
,
00001000
00010000
00001000
00000000
00011000
00000000
00011000
00000000
,
00010000
00010000
01000000
10000000
,
00100000
10000000
00100000
00000000
10100000
00000000
01010000
00000000
,
00100000
00100000
10000000
00010000
,
00100000
01000000
00100000
00000000
10010000
00000000
01100000
00000000
,
00100000
00010000
00001000
00000100
,
00000001
00000100
00000001
00000000
00000101
00000000
00001100
00000000
,
00000010
00000001
00000010
00000001
,
00000010
00000001
00000000
00000100
00000000
00001000
00000000
00010000
,
00000000
01000000
00000000
10010000
00000000
10010000
00000000
00000000
,
01010000
00000000
00001100
00000000
,
00010100
00011000
01001000
00011000
,
00010000
01000000
00000000
01010000
00000000
11000000
00000000
00100000
,
00000000
00010000
00000000
10000000
00000000
01000000
00000000
00000000
,
01100000
10010000
10000000
01000000
,
00010000
00001000
00000100
00001000
,
00010000
00001000
00000100
00000001
,
00000010
00000001
00000100
00001000
,
00022000
00000000
00000000
00033000
,
00000000
00000000
00000000
00000000
,
00000001
00001000
00000001
00000000
00000110
00000000
00001001
00000000
,
00001000
00000100
00000010
00000001
,
00000100
00001000
00000100
00000000
00001001
00000000
00000110
00000000
,
00000010
00001000
00010000
01000000
,
10000000
00010000
10000000
00000000
10100000
00000000
01010000
00000000
,
00100000
10000000
01000000
00010000
,
01010000
00000000
00001100
00000000
,
00010100
00011000
01001000
00011000
,
00001100
00002200
00000000
00003300
,
00001000
00000001
00001000
00000011
,
00001100
00002200
00000000
00003300
,
00000010
00000001
00000100
00001100
,
00011000
00022000
00000000
00033000
,
00010000
01000000
10000000
01100000
,
10010000
20020000
00000000
30030000
,
10000000
10000000
00010000
10000000
,
20020000
00000000
00000000
30030000
,
02200000
00000000
00000000
03300000
,
20020000
00000000
00000000
30030000
,
00000000
00000000
00000000
00000000
,
00011000
00011000
00000100
00000010
,
00001000
00000100
00000010
00000001
,
00000011
00001100
00000010
00001000
,
00010000
00100000
10000000
10100000
,
00110000
00220000
00000000
00330000
,
00010000
01000000
00010000
01001000
,
00011000
00022000
00000000
00033000
,
00001000
00000100
00000010
00001010
,
00000101
00000202
00000000
00000303
,
00000100
00001000
00000100
00001000
,
00010000
00001000
00010000
01000000
,
00010000
01000000
10000000
01000000
,
11000000
01010000
01100000
10010000
,
20020000
00000000
00000000
30030000
;

//---------------dance-double - ----------------
#NOTES:
     dance-double:
     :
     Hard:
     10:
     0.407751,0.591995,0.355581,0.221037,0.000000,297.000000,260.000000,37.000000,23.000000,0.000000,0.000000,0.407751,0.591995,0.355581,0.221037,0.000000,297.000000,260.000000,37.000000,23.000000,0.000000,0.000000:
00000000
00000000
00000000
00000000
,
00000000
00000000
00000000
00000000
,
00000000
00000000
00000000
00000000
,
00000000
00000000
00000000
00000000
,
00010000
00000000
00010000
00020000
00000000
00000000
00000000
00000000
,
00000000
00000000
00000000
00030000
,
01000000
00000000
01000000
02000000
00000000
00000000
00000000
00000000
,
00000000
00000000
00000000
03000000
,
10000000
00010000
10000000
20000000
00000000
00000000
00000000
00000000
,
00010000
00000000
30010000
00000000
,
10010000
00000000
00011000
00000000
,
00001001
00001001
00000110
00000110
,
00000001
00000000
00000100
00000010
00000000
00000000
00001000
00000010
,
00000000
00000010
00000100
00000010
,
00001000
00010000
00000000
00100000
00000000
00000000
01000000
00010000
,
00000000
10000000
00100000
00000000
00010000
00000000
00000000
00000000
,
10010000
00010000
11000000
00000000
,
00000000
00000000
10000000
01000000
10000000
00000000
00100000
10000000
,
00000000
00100000
00000000
20000000
00000000
00000000
00000000
00000000
,
00010000
00010000
30010000
00000000
,
10000000
01000000
00000000
02020000
00000000
00000000
00030000
00000000
,
00000000
00010000
00010000
03010000
,
00010000
00010000
00000000
00220000
00000000
00000000
00300000
00000000
,
00000000
00100000
00100000
00130000
,
01000000
00010000
00001000
00022000
00000000
00000000
00003000
00000000
,
00000000
00001000
00001000
00031000
,
00000010
00000001
00000100
00002020
00000000
00000000
00003000
00000000
,
00000000
00001000
00001000
00001030
,
00000010
00001000
00000100
00000000
00000001
00000100
00001000
00000000
,
00000010
00001000
00000100
00000000
00010000
00001000
00000010
00000000
,
00001000
00010000
00100000
00000000
00010000
00001000
01000000
00000000
,
00010000
10000000
01000000
00000000
11000000
00000000
00000000
00000000
,
10000000
01000000
00000000
01010000
00000000
11000000
00000000
00110000
,
00000000
10100000
00000000
01100000
00000000
10010000
00000000
00000000
,
10010000
00000000
00011000
00000000
,
00001001
00000101
00001100
00001001
,
00001000
00000100
00000000
00010000
00000000
00001000
00000000
00100000
,
00000000
01000000
00000000
00100000
00000000
01100000
00000000
00000000
,
01000000
10000000
00000000
10000000
00000000
00100000
01000000
00000000
,
00010000
00100000
00000000
01000000
00000000
10010000
00000000
00000000
,
00010000
10000000
00000000
10000000
00000000
00010000
00100000
01000000
,
00100000
00000000
00010000
00100000
00000000
00100000
00002000
00000000
,
00000000
00000000
00000000
00000000
,
00000000
00000000
00000000
00003000
,
00100000
00010000
00100000
00200000
00000000
00000000
00000000
00000000
,
00000000
00010000
00010000
00310000
,
10000000
01000000
10000000
20000000
00000000
00000000
00000000
00000000
,
00000000
01000000
01000000
31000000
,
01000000
00100000
01000000
02000000
00000000
00000000
00000000
00000000
,
00000000
00100000
00100000
03100000
,
00110000
00000000
00011000
00000000
,
00000011
00000101
00011000
01010000
,
01000000
00100000
10000000
00000000
01000000
00100000
00010000
00000000
,
01000000
00100000
10000000
00000000
00010000
00000000
00010000
00000000
,
10000000
00000000
10010000
00000000
10000000
01000000
00010000
00000000
,
10000000
01000000
00100000
00000000
10000000
01000000
00010000
00000000
,
10000000
00000000
10010000
00000000
00100000
00001000
00010000
00000000
,
00010000
00001000
00100000
00000000
00010000
01000000
10000000
00000000
,
01000000
00000000
01100000
00000000
00100000
01000000
00010000
00000000
,
00100000
01000000
10000000
00000000
00100000
01000000
00010000
00000000
,
02002000
00000000
00000000
00000000
,
00000000
00000000
00000000
00000000
,
00000000
00000000
00000000
03003000
00000000
00000000
00000000
00000000
,
00000000
00001000
01000000
00001000
01000000
00001000
01000000
00000000
,
00010000
01000000
00000000
00010000
00000000
00100000
00010000
00100000
,
00010000
00000000
01000000
00010000
00000000
00000000
00001000
00020000
,
00000000
00000000
00000000
00000000
,
00030000
00000000
00000000
00000100
,
00000001
00000020
00000000
00000030
,
00000001
00000010
00000000
00000010
00000000
00000100
00001000
00000000
,
00001000
00000002
00000000
00000003
,
00001000
00000010
00000000
00000010
00000000
00000100
00001000
00000000
,
00001000
00200000
00000000
00300000
,
00010000
00100000
00000000
00100000
00000000
01000000
00010000
00000000
,
00010000
00002000
00000000
00000000
,
00010000
00000000
00013000
00000000
,
00100000
10000000
01000000
00010000
00000000
00001000
00000010
00000001
,
00000100
00000000
00000000
00000000
;

//---------------dance-single - ----------------
#NOTES:
     dance-single:
     :
     Challenge:
     18:
     1.313866,1.220989,0.509346,0.057662,1.662582,957.000000,904.000000,53.000000,6.000000,0.000000,0.000000,1.313866,1.220989,0.509346,0.057662,1.662582,957.000000,904.000000,53.000000,6.000000,0.000000,0.000000:
// measure 0
0000
0000
0000
0000
,  // measure 1
0000
0000
0000
0000
,  // measure 2
0000
0000
0000
0000
,  // measure 3
0000
0000
0000
0000
,  // measure 4
1000
0100
1000
0100
1000
0100
1000
0000
1001
0000
1001
0000
1000
0000
0001
0100
,  // measure 5
0001
0000
0010
1000
0010
0000
0001
0100
0010
1000
0100
0000
0010
0000
0001
0000
,  // measure 6
1000
0010
1000
0010
0100
0000
0001
0010
0100
1000
0100
0010
0001
0000
0100
0000
,  // measure 7
0010
0000
1000
0000
0010
0000
0100
0000
0001
0000
1000
0000
1001
0000
0001
1000
,  // measure 8
0001
0000
0100
0000
0010
1000
0010
0000
0011
0000
0001
0000
0100
0001
1000
0001
,  // measure 9
0100
0010
1000
0010
0100
0010
1000
0100
0010
0000
0000
0000
0011
0000
0000
0000
,  // measure 10
1000
0100
0010
0001
0100
0000
0000
0000
0001
0010
0100
1000
0100
0000
0000
0000
,  // measure 11
1000
0010
0100
0000
0001
0100
0010
0000
1001
0000
1000
0001
0100
0001
1000
0000
,  // measure 12
0100
0010
1000
0010
0100
0000
1000
0100
0010
0100
1000
0000
0010
0001
0100
0001
,  // measure 13
0010
0000
0100
1000
0010
0000
0010
1000
0100
0000
1000
0000
1100
0000
0000
0000
,  // measure 14
1000
0100
0001
0100
1000
0010
0100
1000
0001
0000
0100
0001
1000
0000
0010
1000
,  // measure 15
0100
0000
0010
0001
1000
0000
0001
1000
0100
0000
0010
0000
0110
0000
0010
1000
,  // measure 16
0001
0000
0001
0100
1000
0000
0100
0010
1000
0010
0100
0010
1000
0010
0100
0000
,  // measure 17
0010
0000
0001
0000
0100
0000
0001
0010
0100
1000
0100
0010
0001
0000
0100
0001
,  // measure 18
1000
0000
0100
0001
0010
0000
0100
1000
0010
1000
0100
1000
0010
1000
0100
1000
,  // measure 19
0010
0100
0001
0000
0010
1000
0100
0000
0010
0001
1000
0001
0100
0000
0010
0000
,  // measure 20
0001
0010
0001
0010
0100
0000
1100
0000
1100
0000
1000
0100
1000
0010
1000
0010
,  // measure 21
1000
0000
0010
0001
0100
0000
0001
0010
0100
1000
0100
0010
0001
0000
0100
0001
,  // measure 22
1000
0001
0100
0010
1000
0010
0100
0010
0001
0010
0100
1000
0010
0100
0001
1000
,  // measure 23
0100
0000
0010
1000
0100
0000
0010
0001
0100
0000
0010
1000
0001
1000
0001
0000
,  // measure 24
0101
0000
1100
0000
1010
0000
0011
0000
0001
0010
0100
1000
0100
0010
0001
1000
,  // measure 25
0100
0000
0010
1000
0100
0000
0010
0001
0100
1000
0010
0100
0001
0010
0100
1000
,  // measure 26
0100
0000
0010
1000
0100
0000
0001
0010
0100
1000
0100
0010
1001
0000
0010
1000
,  // measure 27
0100
0000
0001
0010
0100
0000
1000
0100
0010
0000
0011
0000
0001
0010
0001
0000
,  // measure 28
0100
0001
1000
0000
0001
1000
0100
1000
0010
1000
0010
1000
0100
0000
0010
0001
,  // measure 29
0100
0000
0010
1000
0100
0000
0010
0001
1000
0001
0100
0000
0001
0010
0100
1000
,  // measure 30
0010
0000
0110
0000
0101
0000
0110
0000
0010
1000
0010
0100
0001
0010
0100
1000
,  // measure 31
0010
0000
0100
0001
0010
0000
0100
1000
0010
0000
0100
0001
0010
0100
1000
0010
,  // measure 32
1000
0010
1000
0010
1000
0000
0010
1000
0010
1000
0010
1000
0010
1000
0001
1000
,  // measure 33
0001
1000
0100
1000
0100
1000
0010
1000
0010
0100
0001
0000
1000
0000
0100
0010
,  // measure 34
0001
0010
0100
0000
1000
0000
0100
0001
1000
0001
0100
0000
0010
0000
0010
1000
,  // measure 35
0100
0000
0010
0001
0100
0000
1000
0100
0010
0001
0100
0000
0010
0001
0100
0001
,  // measure 36
1000
0100
0010
0100
1000
0000
0010
0100
0001
0100
0010
0000
0001
0100
0001
1000
,  // measure 37
0100
0000
0010
0001
1000
0000
0010
1000
0001
0000
0100
0001
1000
0001
0100
0000
,  // measure 38
0010
0001
0100
0010
1000
0100
0010
0001
0100
0000
0010
0000
1000
0010
1000
0010
,  // measure 39
0001
0010
0100
1000
0010
0000
0011
0000
0001
0000
1000
0100
0010
0001
0100
0000
,  // measure 40
0010
1000
0010
1000
0100
0000
0010
0001
0010
0001
0100
0000
0001
0010
0100
1000
,  // measure 41
0010
0000
1000
0100
0010
0000
0001
0010
0100
0000
1000
0001
0100
0001
1000
0001
,  // measure 42
0100
0010
0100
0001
0100
0010
0100
0001
0100
0010
0100
0001
0100
0010
0100
0000
,  // measure 43
0000
0000
1100
0000
0000
0000
1010
0000
1001
0000
0011
0000
0001
0010
0100
1000
,  // measure 44
0010
0100
0001
0100
0010
0000
1000
0100
1000
0100
0010
0000
0001
0010
0100
1000
,  // measure 45
0100
0000
0010
1000
0100
0000
0010
0001
1000
0001
0100
0001
1000
0000
0001
0000
,  // measure 46
0100
0001
1000
0001
0100
0001
1000
0001
0100
0000
0010
0000
1000
0010
0100
0010
,  // measure 47
0001
0000
0100
0010
1000
0000
0010
0100
0001
0000
1000
0100
0010
0001
0100
0000
,  // measure 48
0010
1000
0100
1000
0010
0000
0100
1000
0010
1000
0100
0010
0001
0010
0100
1000
,  // measure 49
0010
0100
0010
0001
0010
0000
0001
0000
0010
0001
0010
0100
0010
0000
1000
0010
,  // measure 50
0100
0001
1000
0001
0100
0001
1000
0100
0010
0001
0010
0100
1000
0001
0100
0010
,  // measure 51
1000
0100
0010
0001
0010
0100
1000
0001
0100
0000
0110
0000
0110
0000
0000
0000
,  // measure 52
1000
0100
1000
0100
1000
0100
1000
0100
1000
0100
1000
0100
1000
0100
1000
0100
,  // measure 53
1000
0010
1000
0010
1000
0010
1000
0010
1000
0010
1000
0010
1000
0010
1000
0000
,  // measure 54
0001
0010
0001
0010
0001
0010
0001
0010
0001
0010
0001
0010
0001
0010
0001
0010
,  // measure 55
0001
0100
0001
0100
0001
0100
0001
0100
0001
0100
0001
0100
0001
0100
0001
0000
,  // measure 56
0100
1000
0100
1000
0100
1000
0100
1000
0100
1000
0100
1000
0100
1000
0100
0000
,  // measure 57
0100
0001
0100
0001
0100
0001
0100
0001
0100
0001
0100
0001
0100
0001
0100
0000
,  // measure 58
0010
0001
0010
0001
0010
0001
0010
0001
0010
0001
0010
0001
0010
0001
0010
0000
,  // measure 59
0010
1000
0010
1000
0010
1000
0010
1000
0010
1000
0010
1000
0010
1000
0010
0000
,  // measure 60
1010
1100
0000
1100
0000
1001
0101
1100
,  // measure 61
1010
0000
1100
0101
0000
0101
1100
0101
,  // measure 62
0100
0010
0100
0010
0100
0010
0100
0010
0100
0010
0100
0010
0100
0010
0100
0010
,  // measure 63
1000
0001
1000
0001
1000
0001
1000
0001
1000
0001
1000
0001
1000
0001
1000
0001
,  // measure 64
1000
0100
0010
0100
1000
0100
0010
0100
1000
0100
0010
0100
1000
0100
0010
0100
,  // measure 65
1000
0010
0100
0010
1000
0010
0100
0010
1000
0010
0100
0010
1000
0010
0100
0000
,  // measure 66
0001
0010
0100
1000
0100
0010
0001
0010
0100
0000
0010
1000
0100
0000
0010
0001
,  // measure 67
0100
0000
1000
0100
0010
0000
0001
0010
0100
0000
0001
0010
0100
1000
0100
0010
,  // measure 68
0002
0000
0010
0010
0000
0100
0103
0000
,  // measure 69
0201
0000
0001
0000
0000
0000
0010
0000
0000
0000
1000
0000
1300
0100
0010
0100
,  // measure 70
2000
0000
0100
0100
0000
0010
3010
0000
,  // measure 71
1020
1000
0000
0001
0000
0100
0130
0110
,  // measure 72
2010
0000
0001
0001
0000
0010
3010
1010
,  // measure 73
0012
0010
0000
0100
0000
1000
1003
1001
,  // measure 74
1000
0001
1000
0001
1000
0000
0001
1000
0001
1000
0001
1000
0001
1000
0001
1000
,  // measure 75
0001
1000
0100
0010
0001
1000
0010
0100
0001
1000
0100
0010
0001
0010
1000
0000
,  // measure 76
1010
1010
0011
1010
0000
1100
0101
1100
,  // measure 77
1001
0000
0000
0000
;
