#VERSION:0.83;
#TITLE:Midnite Blaze;
#SUBTITLE:;
#ARTIST:U1 Jewel Style;
#TITLETRANSLIT:;
#SUBTITLETRANSLIT:;
#ARTISTTRANSLIT:;
#GENRE:;
#ORIGIN:;
#CREDIT:;
#BANNER:Midnite Blaze.png;
#BACKGROUND:Midnite Blaze-bg.png;
#PREVIEWVID:;
#JACKET:Midnite Blaze-jacket.png;
#CDIMAGE:;
#DISCIMAGE:;
#LYRICSPATH:;
#CDTITLE:;
#MUSIC:Midnite Blaze.ogg;
#OFFSET:0.000000;
#SAMPLESTART:26.503000;
#SAMPLELENGTH:15.000000;
#SELECTABLE:YES;
#DISPLAYBPM:150.000000;
#BPMS:0.000=150.000,
4.000=150.150;
#STOPS:;
#DELAYS:;
#WARPS:;
#TIMESIGNATURES:0.000=4=4;
#TICKCOUNTS:0.000=4;
#COMBOS:0.000=1;
#SPEEDS:0.000=1.000=0.000=0;
#SCROLLS:0.000=1.000;
#FAKES:;
#LABELS:0.000=Song Start;
#BGCHANGES:;
#KEYSOUNDS:;
#ATTACKS:
;

//---------------dance-single - ----------------
#NOTEDATA:;
#CHARTNAME:;
#STEPSTYPE:dance-single;
#DESCRIPTION:;
#CHARTSTYLE:;
#DIFFICULTY:Beginner;
#METER:3;
#RADARVALUES:0.173323,0.238469,0.156887,0.000000,0.000000,116.000000,101.000000,15.000000,0.000000,0.000000,0.000000,0.000000,0.000000,0.000000,0.173323,0.238469,0.156887,0.000000,0.000000,116.000000,101.000000,15.000000,0.000000,0.000000,0.000000,0.000000,0.000000,0.000000;
#CREDIT:;
#DISPLAYBPM:150.000000;
#NOTES:
0000
0000
0000
0000
,
0000
0000
0000
0000
,
0000
0000
0000
0000
,
0000
0000
0000
0000
,
0000
0000
0010
0000
,
0001
0000
0010
0000
,
0010
0000
1000
0000
,
0001
0000
0010
0000
,
0010
0000
1000
0000
,
0001
0000
1000
0000
,
1000
0000
0001
0000
,
0001
0000
1000
0000
,
1000
0000
0001
0000
,
0010
0000
0010
0000
,
0001
0000
1001
0000
,
0010
0000
0010
0000
,
1000
0000
1001
0000
,
0010
0000
0100
0000
,
0010
0010
0010
0000
,
0010
0000
0010
0000
,
0110
0000
0110
0000
,
1000
0000
1000
0000
,
0001
0000
0001
0000
,
0010
0010
0010
0000
,
0010
0010
0010
0000
,
1001
0000
0000
0000
,
0000
0000
0000
0000
,
0110
0000
0000
0000
,
0000
0000
0000
0000
,
0010
0000
0010
0000
,
0010
0000
0010
0000
,
0100
0000
0100
0000
,
0100
0000
0100
0000
,
0001
0000
1000
0000
,
1000
0000
0001
0000
,
0001
0000
1000
0000
,
1000
0000
0001
0000
,
1001
0000
0000
0000
,
0110
0000
1001
0000
,
0010
0000
0010
0000
,
0010
0000
1001
0000
,
0010
0000
0100
0000
,
0010
0010
0010
0000
,
0010
0000
0010
0000
,
0110
0000
0110
0000
,
1000
0000
1000
0000
,
0001
0000
0001
0000
,
0010
0010
0010
0000
,
0010
0010
0010
0000
,
1001
0000
0000
0000
,
0000
0000
0000
0000
,
1001
0000
0000
0000
,
0010
0000
0100
0000
,
0010
0000
0010
0000
,
0010
0000
0010
0000
,
0100
0000
0100
0000
,
0100
0000
0100
0000
,
1001
0000
0000
0000
;

//---------------dance-single - ----------------
#NOTEDATA:;
#CHARTNAME:;
#STEPSTYPE:dance-single;
#DESCRIPTION:;
#CHARTSTYLE:;
#DIFFICULTY:Easy;
#METER:5;
#RADARVALUES:0.286880,0.387512,0.167347,0.000000,0.000000,192.000000,176.000000,16.000000,0.000000,0.000000,0.000000,0.000000,0.000000,0.000000,0.286880,0.387512,0.167347,0.000000,0.000000,192.000000,176.000000,16.000000,0.000000,0.000000,0.000000,0.000000,0.000000,0.000000;
#CREDIT:;
#DISPLAYBPM:150.000000;
#NOTES:
0000
0000
0000
0000
,
0000
0000
0000
0000
,
0000
0000
0000
0000
,
0000
0000
0000
0000
,
0000
0000
0010
1000
,
0001
0000
0010
0000
,
0010
0001
0100
1000
,
0010
0000
0010
0000
,
0010
0000
0100
0100
,
0010
0001
0100
1000
,
0010
1000
0100
0001
,
0010
0010
1000
1000
,
0001
0001
0100
0100
,
0010
1000
0100
0001
,
0010
0001
0100
1001
,
0010
1000
0100
1000
,
0110
0000
0000
0000
,
0010
0001
0100
0000
,
0010
0001
1000
0100
,
0010
0001
0010
1000
,
0110
1001
0110
1001
,
1000
1000
0100
0000
,
0001
0001
0100
0000
,
1000
1000
0001
0001
,
0010
0010
0110
1001
,
0010
0000
0010
0000
,
0010
0001
1000
0100
,
1000
0000
1000
0000
,
0010
1000
0100
0001
,
0010
0000
0010
0000
,
0010
1000
0010
0001
,
0100
0000
0100
0000
,
0010
0010
0010
0100
,
0010
0001
0100
1001
,
0010
0001
1000
0000
,
1000
1000
0100
0100
,
0001
0001
1000
0001
,
1000
0001
0000
0000
0000
0000
0000
0000
,
0010
1000
0001
0100
,
0010
1000
0100
0001
,
0110
0000
0000
0000
,
0010
0001
0100
0000
,
0010
0001
1000
0100
,
0010
0001
0010
1000
,
0110
1001
0110
1001
,
0001
0000
0001
0000
0100
0100
0000
0000
,
1000
1000
0100
0000
,
1000
1000
0001
0001
,
0010
0010
0110
1001
,
0010
0000
0010
0000
,
0010
0001
1000
0100
,
1000
0000
1000
0000
,
0010
0001
0100
1000
,
0010
0000
0010
0000
,
0010
1000
0100
0001
,
0100
0000
0100
0000
,
0001
1000
0001
1000
,
0100
0000
0000
0000
;

//---------------dance-single - ----------------
#NOTEDATA:;
#CHARTNAME:;
#STEPSTYPE:dance-single;
#DESCRIPTION:;
#CHARTSTYLE:;
#DIFFICULTY:Medium;
#METER:7;
#RADARVALUES:0.333199,0.417320,0.282397,0.000000,0.000000,223.000000,196.000000,27.000000,0.000000,0.000000,0.000000,0.000000,0.000000,0.000000,0.333199,0.417320,0.282397,0.000000,0.000000,223.000000,196.000000,27.000000,0.000000,0.000000,0.000000,0.000000,0.000000,0.000000;
#CREDIT:;
#DISPLAYBPM:150.000000;
#NOTES:
0000
0000
0000
0000
,
0000
0000
0000
0000
,
0000
0000
0000
0000
,
0000
0000
0000
0000
,
0000
0000
0000
0000
0010
0001
1000
0000
,
0010
0000
0010
0000
,
0010
0001
0100
1000
,
0010
1000
0100
0001
,
0100
0010
1000
0000
0001
0000
1000
0000
,
0010
0001
0100
1100
,
0010
0001
0100
0101
,
1000
1000
0100
0100
,
0001
0000
0001
0000
1000
0001
0100
0000
,
0010
1000
0100
0101
,
0010
0001
0100
1100
,
0010
0010
0100
1000
,
0110
0000
0000
0000
,
0010
0101
1100
0000
,
0010
0000
0001
0000
0100
0010
1000
0000
,
0010
0001
0100
0000
0011
0000
1000
0000
,
0100
0001
1000
0001
,
0010
0100
0001
0000
1000
1000
0000
0000
,
0010
0010
0100
0000
,
0010
1100
0010
0101
,
0110
1001
0110
0100
,
0010
0000
0010
0000
,
0010
0001
1000
0100
,
1000
0000
1000
0000
,
0010
1000
0100
0001
,
0010
0000
0010
0000
,
0010
1000
0100
0001
,
0100
0000
0100
0000
,
0010
0100
0010
0000
0001
0000
1000
0000
,
0010
0001
0100
1100
,
0010
0001
0100
0101
,
1000
1000
0100
0100
,
0001
0000
0001
0000
1000
0001
0100
0000
,
1000
0001
0000
0000
0000
1001
0000
0000
,
0000
0110
0000
1010
0000
1001
0000
0000
,
0010
0001
0100
1000
,
0110
0000
0000
0000
,
0010
1100
0101
0000
,
0010
0000
1000
0000
0100
0010
0001
0000
,
0010
0100
1001
0100
,
0010
0001
0100
1000
,
0010
1000
0100
0000
0001
0001
0000
0000
,
0001
0000
1000
0000
0010
0100
0001
0000
,
1000
1000
0001
0001
,
0110
1001
0110
0100
,
0010
0000
0010
0000
,
0010
1000
0100
0001
,
0010
0000
0010
0000
,
0010
0001
0100
1000
,
0010
1000
0100
0001
,
0010
0001
0100
1100
,
0100
0000
0100
0000
,
0100
0000
0000
1000
0000
0100
1000
0001
,
0100
0000
0000
0000
;

//---------------dance-single - ----------------
#NOTEDATA:;
#CHARTNAME:;
#STEPSTYPE:dance-single;
#DESCRIPTION:;
#CHARTSTYLE:;
#DIFFICULTY:Hard;
#METER:10;
#RADARVALUES:0.522958,0.506746,0.177806,0.000000,0.151658,350.000000,333.000000,17.000000,0.000000,0.000000,0.000000,0.000000,0.000000,0.000000,0.522958,0.506746,0.177806,0.000000,0.151658,350.000000,333.000000,17.000000,0.000000,0.000000,0.000000,0.000000,0.000000,0.000000;
#CREDIT:;
#DISPLAYBPM:150.000000;
#NOTES:
0000
0000
0000
0000
,
0000
0000
0000
0000
,
0000
0000
0000
0000
,
0000
0000
0000
0000
,
0000
0000
0000
0000
0010
0001
1000
0001
,
1000
0000
0010
0000
1000
0010
0000
1000
0010
0000
0000
0100
0000
0000
0010
0000
,
0000
1000
0000
0000
0010
0000
0000
1000
0000
0000
0001
0000
1000
0000
0010
0000
,
0100
0000
0010
0000
0100
0000
0000
0000
0001
0000
0000
0100
0000
0000
0001
0000
,
1000
0100
1000
0010
0100
0010
1000
0001
,
0010
0100
0001
0000
0010
1000
0100
0000
,
0010
0001
0100
0010
1000
0100
1000
0000
,
0010
0001
0100
0000
0010
1000
0100
0010
,
0000
0010
0000
0010
0100
0010
0001
1000
,
0001
0100
0001
0100
0010
0100
0001
1000
,
0010
1000
0001
0000
0100
0001
0010
0000
,
0100
1000
0010
0100
0001
0010
0001
1000
,
0000
1000
0000
1000
0010
0100
0001
1000
,
0010
0000
0101
0000
1100
0000
0000
0010
,
0000
1000
0001
0100
0010
1000
1000
0000
,
1000
0010
0100
0000
1100
0000
0101
0000
,
0010
0100
0001
1000
0010
1000
0100
0001
,
1000
0001
1000
0001
0100
0100
0000
0010
,
0000
1000
0001
0100
1000
0001
0001
0000
,
0010
0100
0001
0100
0010
1000
0001
1000
,
0010
0000
0001
0100
0000
1000
0001
1000
,
0010
0000
1000
0000
0010
1000
0000
0010
1000
0000
0010
0000
0000
0000
0100
0000
,
0000
0001
0000
0000
0010
0000
0000
0100
0000
0000
0001
0000
1000
0000
0010
0000
,
0100
0000
0001
0000
0100
0000
0000
0000
0010
0000
0000
0100
0000
0000
0001
0000
,
1000
0100
1000
0001
0100
0010
1000
0100
,
0001
0000
0010
0000
0001
0010
0000
0001
0010
0000
0000
0100
0000
0000
0010
0000
,
0000
1000
0000
0000
0010
0000
0000
0100
0000
0000
1000
0000
0001
0000
0100
0000
,
0010
0000
1000
0000
0010
0000
0000
0000
1000
0000
0000
0100
0000
0000
1000
0000
,
0001
0100
0001
1000
0010
0100
0001
0100
,
0010
1000
0001
0000
1000
0100
1000
0000
,
0010
1000
0001
0100
0001
1000
0100
0000
,
1000
1000
0100
0100
,
0001
0000
0001
0000
0001
0001
1000
1000
,
0101
1100
0000
0000
0000
1001
0000
0000
,
0000
0110
0000
1010
0000
1001
0000
0000
,
0010
0001
0100
1000
,
0110
0000
0000
0000
0010
0100
0001
1000
,
0010
0000
0101
0000
1100
0000
0000
0010
,
0000
0001
1000
0001
0010
0001
1000
0000
,
1100
0101
0011
1010
,
0010
0100
0001
1000
0010
1000
0100
0001
,
1000
0001
1000
0001
0100
0100
0000
0010
,
0000
1000
0001
0100
1000
0010
0010
0000
,
1000
1000
0010
0100
0001
0001
0100
0010
,
0100
0000
0000
0010
0000
0001
1000
0100
,
1000
0000
0010
0000
1000
0010
0000
1000
0010
0000
0000
0100
0000
0000
0010
0000
,
0000
0001
0000
0000
0010
0000
0000
0100
0000
0000
0001
0000
1000
0000
0001
0000
,
1000
0000
0010
0000
0100
0000
0000
0000
0001
0000
0000
0100
0000
0000
0001
0000
,
1000
0100
1000
0001
0100
0010
1000
0100
,
0001
0000
0010
0000
0001
0010
0000
0001
0010
0000
0000
0100
0000
0000
0001
0000
,
0000
1000
0000
0000
0010
0000
0000
0100
0000
0000
1000
0000
0001
0000
1000
0000
,
0010
0000
0100
0000
0010
0000
0000
0000
1000
0000
0000
0001
0000
0000
0100
0000
,
0001
0100
0000
1000
0000
0100
1000
0001
,
0100
0000
0000
0000
;

//---------------dance-double - ----------------
#NOTEDATA:;
#CHARTNAME:;
#STEPSTYPE:dance-double;
#DESCRIPTION:;
#CHARTSTYLE:;
#DIFFICULTY:Easy;
#METER:5;
#RADARVALUES:0.289868,0.387512,0.167347,0.000000,0.000000,194.000000,178.000000,16.000000,0.000000,0.000000,0.000000,0.000000,0.000000,0.000000,0.289868,0.387512,0.167347,0.000000,0.000000,194.000000,178.000000,16.000000,0.000000,0.000000,0.000000,0.000000,0.000000,0.000000;
#CREDIT:;
#DISPLAYBPM:150.000000;
#NOTES:
00000000
00000000
00000000
00000000
,
00000000
00000000
00000000
00000000
,
00000000
00000000
00000000
00000000
,
00000000
00000000
00000000
00000000
,
00000000
00000000
00100000
01000000
,
00001000
00000000
00000100
00000000
,
00000001
00000100
00010000
01000000
,
00010000
00000000
00010000
00000000
,
00010000
00000000
00100000
00100000
,
10000000
00010000
00001000
00000100
,
00000010
00000001
00000100
00010000
,
00100000
00100000
01000000
01000000
,
10000000
10000000
00010000
00010000
,
01000000
00010000
00001000
00000100
,
00000001
00001000
00000010
00011000
,
01000000
00010000
10000000
01000000
,
01100000
00000000
00000000
00000000
,
00100000
01000000
00010000
00000000
,
00001000
00000100
00000001
00001000
,
00000010
00000100
00001000
00010000
,
01100000
10010000
01100000
10010000
,
00100000
00100000
01000000
00000000
,
00010000
00010000
00000100
00000000
,
00000010
00000100
00000001
00001000
,
00000010
00000100
00001000
00011000
,
01000000
00000000
00010000
00000000
,
10000000
01000000
00010000
00001000
,
00000100
00000000
00000010
00000000
,
00000001
00000100
00010000
01000000
,
00100000
00000000
00100000
00000000
,
00100000
01000000
00001000
00000100
,
00000010
00000000
00000010
00000000
,
00000010
00001000
00000001
00000100
,
00000010
00010000
00100000
10010000
,
01000000
00010000
00001000
00000110
,
00000001
00000001
00000100
00000100
,
00000001
00001000
00000010
00001000
,
00000100
00001000
00000000
00000000
00000000
00000000
00000000
00000000
,
00010000
10000000
00100000
10000000
,
00010000
01000000
00100000
01000000
,
00011000
00000000
00000000
00000000
,
00000010
00000100
00000001
00000000
,
00001000
00010000
01000000
00100000
,
10000000
01000000
00010000
00001000
,
00000110
00001001
00000110
00001001
,
00000100
00000000
00000100
00000000
00000010
00001000
00000000
00000000
,
00000010
00000100
00000010
00001000
,
00010000
01000000
00100000
10000000
,
01000000
00001000
00000110
00001001
,
00000100
00000000
00000010
00000000
,
00000010
00001000
00010000
01000000
,
00100000
00000000
00100000
00000000
,
00100000
00010000
00001000
00000100
,
00000010
00000000
00000010
00000000
,
00000010
00000001
00000100
00001000
,
00010000
00000000
00010000
00000000
,
00100000
10000000
00010000
10000000
,
01000000
00000000
00000000
00000000
;

//---------------dance-double - ----------------
#NOTEDATA:;
#CHARTNAME:;
#STEPSTYPE:dance-double;
#DESCRIPTION:;
#CHARTSTYLE:;
#DIFFICULTY:Medium;
#METER:7;
#RADARVALUES:0.375035,0.476938,0.282397,0.000000,0.000000,251.000000,224.000000,27.000000,0.000000,0.000000,0.000000,0.000000,0.000000,0.000000,0.375035,0.476938,0.282397,0.000000,0.000000,251.000000,224.000000,27.000000,0.000000,0.000000,0.000000,0.000000,0.000000,0.000000;
#CREDIT:;
#DISPLAYBPM:150.000000;
#NOTES:
00000000
00000000
00000000
00000000
,
00000000
00000000
00000000
00000000
,
00000000
00000000
00000000
00000000
,
00000000
00000000
00000000
00000000
,
00000000
00000000
00000000
00000000
00100000
00010000
01000000
00010000
,
01000000
00000000
01000000
00000000
,
00010000
00001000
00000100
00000010
,
00000001
00001000
00010000
01000000
,
00100000
01000000
00010000
01000000
00001000
00010000
00000010
00000000
,
00001000
00000001
00000100
00000110
,
00000010
00001000
00010000
01010000
,
00100000
10000000
00010000
00010000
,
01000000
00000000
01000000
00000000
00010000
10000000
01000000
00000000
,
00100000
00010000
00001000
00001100
,
00000010
00000001
00000100
00001010
,
00010000
00010000
00100000
01000000
,
01100000
00000000
00000000
00000000
01000000
00100000
01000000
00000000
,
00010000
00011000
00001100
00000000
,
00000010
00000000
00001000
00000000
00000001
00000100
00000010
00000000
,
00010000
01000000
00100000
00000000
00010000
00000000
01000000
00000000
,
00100000
10000000
00010000
01000000
00001000
00010000
00000010
00000100
,
00000010
00001000
00000001
00000100
00000010
00000010
00000000
00000000
,
00000010
00000000
00000001
00000000
00001000
00000010
00000100
00000000
,
00001000
00011000
01000000
00110000
,
01100000
10010000
01100000
00100000
,
01000000
00000000
01000000
00000000
,
01000000
00010000
00001000
00000100
,
00000010
00000000
00000010
00000000
,
00000001
00000100
00001000
00010000
,
01000000
00000000
01000000
00000000
,
01000000
00100000
00010000
00001000
,
00000100
00000010
00000001
00001000
,
00000010
00001000
00000010
00010000
00001000
01000000
00010000
00000000
,
00100000
00010000
01000000
11000000
,
00100000
01000000
00010000
00011000
,
00000010
00000010
00000100
00000100
,
00000001
00000000
00000001
00000000
00001000
00010000
01000000
00000000
,
00100000
00100000
00000000
00000000
00000000
01100000
00000000
00000000
,
00000000
00110000
00000000
00011000
00000000
00001010
00000000
00000000
,
00000010
00000100
00001000
00011000
,
01100000
00000000
00000000
00000000
00010000
10000000
00010000
00000000
,
00100000
00110000
00011000
00000000
,
00000100
00000000
00000010
00000000
00001000
00000001
00000100
00000000
,
00000010
00001000
00000100
00000000
00011000
00000000
01000000
00000000
,
00100000
10000000
00010000
01000000
00001000
00010000
00000010
00001000
,
00000010
00000100
00000010
00000100
00000001
00000001
00000000
00000000
,
00000010
00000000
00010000
00000000
00001000
01000000
00100000
00000000
,
01000000
11000000
00100000
01010000
,
00100000
00011000
00000010
00001010
,
00000010
00000000
00000010
00000000
,
00000010
00000100
00001000
00010000
,
01000000
00000000
01000000
00000000
,
01000000
00010000
00001000
00000100
,
00000001
00000010
00001000
01000000
,
00100000
00000000
10000000
00000000
00100000
01000000
00001000
00010000
,
00000100
00000000
00000100
00000000
,
00000100
00000000
00000000
00000010
00000000
00001000
00000001
00001000
,
00000100
00000000
00000000
00000000
;

//---------------dance-double - ----------------
#NOTEDATA:;
#CHARTNAME:;
#STEPSTYPE:dance-double;
#DESCRIPTION:;
#CHARTSTYLE:;
#DIFFICULTY:Hard;
#METER:10;
#RADARVALUES:0.522958,0.506746,0.167347,0.000000,0.146428,350.000000,334.000000,16.000000,0.000000,0.000000,0.000000,0.000000,0.000000,0.000000,0.522958,0.506746,0.167347,0.000000,0.146428,350.000000,334.000000,16.000000,0.000000,0.000000,0.000000,0.000000,0.000000,0.000000;
#CREDIT:;
#DISPLAYBPM:150.000000;
#NOTES:
00000000
00000000
00000000
00000000
,
00000000
00000000
00000000
00000000
,
00000000
00000000
00000000
00000000
,
00000000
00000000
00000000
00000000
,
00000000
00000000
00000000
00000000
00100000
01000000
00100000
01000000
,
00001000
00000000
00010000
00000000
00000010
00000100
00000000
00000001
00001000
00000000
00000000
00000010
00001000
00000000
00000100
00000000
,
00000000
00000010
00000000
00000000
00000100
00000000
00001000
00000000
00000000
00010000
00000000
00000000
01000000
00000000
00100000
00000000
,
01000000
00000000
00100000
00000000
01000000
00000000
00000000
00000000
00100000
00000000
00000000
00010000
10000000
00000000
00000000
00000000
,
00100000
10000000
00100000
01000000
00001000
00010000
00001000
00000100
,
00000010
00001000
00000100
00000000
00000001
00000100
00001000
00000000
,
00010000
00001000
01000000
00100000
10000000
00100000
01000000
00000000
,
00100000
01000000
00010000
00000000
01000000
00000100
00001000
00000010
,
00000000
00000010
00000000
00000010
00000100
00000010
00000001
00001000
,
00000010
00000100
00000010
00000100
00000001
00001000
00000010
00001000
,
00000010
00010000
00001000
00000000
01000000
00010000
10000000
00000000
,
00010000
10000000
00100000
01000000
00010000
00100000
00010000
01000000
,
00000000
01000000
00000000
01000000
00100000
10000000
00010000
01000000
,
00001000
00000000
00011000
00000000
00001100
00000000
00000000
00000010
,
00000000
00001000
00000001
00000100
00000010
00001000
00001000
00000000
,
00000010
00000100
00001000
00000000
00010000
00000000
01010000
00000000
,
00100000
01000000
00010000
10000000
00100000
01000000
00001000
01000000
,
00000010
00000100
00000010
00001000
00000100
00000100
00000000
00000010
,
00000000
00000001
00001000
00000100
00000010
00000100
00000100
00000000
,
00000010
00000001
00001000
00000100
00010000
00001000
00100000
00010000
,
01000000
00000000
00010000
10000000
00000000
00100000
10000000
01000000
,
10000000
00000000
01000000
00000000
10000000
01000000
00000000
10000000
01000000
00000000
00000000
00100000
00000000
00000000
00010000
00000000
,
00000000
01000000
00000000
00000000
00001000
00000000
00000000
00000100
00000000
00000000
00000001
00000000
00001000
00000000
00000010
00000000
,
00000100
00000010
00000100
00000000
00000010
00000100
00000000
00000001
,
00000100
00001000
00010000
01000000
10000000
00100000
00010000
01000000
,
00010000
00000000
01000000
00000000
00010000
01000000
00000000
00010000
01000000
00000000
00000000
00100000
00000000
00000000
01000000
00000000
,
00000000
00001000
00000000
00000000
00010000
00000000
00000000
00000010
00000000
00000000
00000100
00000000
00000010
00000000
00001000
00000000
,
00000001
00000000
00000100
00000000
00001000
00000000
00000000
00000000
00010000
00000000
00000000
01000000
00000000
00000000
00100000
00000000
,
00010000
10000000
00010000
01000000
00001000
00010000
00000010
00000100
,
00000001
00001000
00000010
00000000
00000100
00000010
00000100
00000000
,
00000010
00001000
01000000
00100000
00010000
10000000
01000000
00000000
,
10000000
10000000
00100000
00100000
,
00010000
00000000
00010000
00000000
10000000
10000000
00010000
00010000
,
10010000
00110000
00000000
00000000
00000000
00011000
00000000
00000000
,
00000000
00001100
00000000
00000110
00000000
00001001
00000000
00000000
,
00000010
00000001
00000100
00001000
,
01100000
00000000
10000000
00000000
00100000
01000000
00010000
10000000
,
00100000
00000000
00011000
00000000
00001100
00000000
00000000
00000010
,
00000000
00001000
00000001
00000100
00000010
00000100
00000001
00000000
,
00000110
00011000
01010000
10010000
,
00100000
01000000
00010000
01000000
00000010
00010000
00000010
00000100
,
00000010
00000100
00000010
00000000
00001000
00001000
00000000
00010000
,
00000000
01000000
00100000
01000000
00100000
10000000
10000000
00000000
,
00100000
01000000
00010000
10000000
00100000
01000000
00010000
00000100
,
00000010
00000000
00000000
00001000
00000000
00000001
00001000
00000100
,
00001000
00000000
00000100
00000000
00001000
00000100
00000000
00001000
00000100
00000000
00000000
00010000
00000000
00000000
01000000
00000000
,
00000000
00100000
00000000
00000000
00010000
00000000
10000000
00000000
00000000
00000000
00100000
00000000
10000000
00000000
00010000
00000000
,
01000000
00000000
00010000
00000000
00000100
00000000
00000000
00000000
00000010
00000000
00000000
00001000
00000000
00000000
00000010
00000000
,
00000100
00000010
00001000
00000100
00010000
01000000
00100000
00010000
,
10000000
00000000
00100000
00000000
01000000
00100000
00000000
01000000
00100000
00000000
00000000
10000000
00000000
00000000
01000000
00000000
,
00000000
00010000
00000000
00000000
00000100
00000000
00000000
00000010
00000000
00000000
00001000
00000000
00000001
00000000
00000100
00000000
,
00000010
00000000
00001000
00000000
00000001
00000000
00000000
00000000
00000100
00000000
00000000
00001000
00000000
00000000
01000000
00000000
,
00100000
10000000
00000000
00010000
00000000
01000000
00010000
10000000
,
01000000
00000000
00000000
00000000
;

//---------------dance-solo - ----------------
#NOTEDATA:;
#CHARTNAME:;
#STEPSTYPE:dance-solo;
#DESCRIPTION:;
#CHARTSTYLE:;
#DIFFICULTY:Easy;
#METER:4;
#RADARVALUES:0.286880,0.387512,0.167347,0.000000,0.000000,192.000000,176.000000,16.000000,0.000000,0.000000,0.000000,0.000000,0.000000,0.000000,0.286880,0.387512,0.167347,0.000000,0.000000,192.000000,176.000000,16.000000,0.000000,0.000000,0.000000,0.000000,0.000000,0.000000;
#CREDIT:;
#DISPLAYBPM:150.000000;
#NOTES:
000000
000000
000000
000000
,
000000
000000
000000
000000
,
000000
000000
000000
000000
,
000000
000000
000000
000000
,
000000
000000
000100
010000
,
000001
000000
000100
000000
,
000100
000010
001000
000100
,
100000
000000
100000
000000
,
000100
000000
001000
001000
,
000100
000010
001000
010000
,
000100
100000
001000
000001
,
000100
000100
010000
010000
,
000010
000010
001000
001000
,
000100
100000
001000
000001
,
000100
000010
001000
100001
,
000100
010000
001000
000001
,
001100
000000
000000
000000
,
000100
000010
001000
000000
,
000100
000001
010000
001000
,
000100
000001
000100
100000
,
010010
100001
001100
100001
,
100000
100000
001000
000000
,
000010
000010
001000
000000
,
010000
010000
001000
001000
,
000001
000001
001100
100001
,
000100
000000
000100
000000
,
000100
000010
010000
000001
,
001000
000000
001000
000000
,
000100
010000
001000
000001
,
000100
000000
000100
000000
,
000100
000010
001000
100000
,
001000
000000
001000
000000
,
000100
000100
000100
001000
,
000100
000010
001000
100001
,
000100
000001
100000
000000
,
010000
010000
001000
001000
,
000010
000010
010000
000001
,
001000
000010
000000
000000
000000
000000
000000
000000
,
000100
100000
001000
000001
,
000100
000001
001000
100000
,
001100
000000
000000
000000
,
000100
000010
001000
000000
,
000100
000001
010000
001000
,
000100
000001
000100
100000
,
010010
100001
001100
100001
,
000001
000000
000001
000000
001000
001000
000000
000000
,
100000
100000
001000
000000
,
010000
010000
000010
000010
,
000100
000100
001100
100001
,
000100
000000
000100
000000
,
000100
000010
100000
001000
,
100000
000000
100000
000000
,
000100
000001
001000
010000
,
000100
000000
000100
000000
,
000100
100000
001000
000001
,
001000
000000
001000
000000
,
000010
010000
000001
100000
,
001000
000000
000000
000000
;

//---------------dance-solo - ----------------
#NOTEDATA:;
#CHARTNAME:;
#STEPSTYPE:dance-solo;
#DESCRIPTION:;
#CHARTSTYLE:;
#DIFFICULTY:Medium;
#METER:5;
#RADARVALUES:0.333199,0.417320,0.282397,0.000000,0.000000,223.000000,196.000000,27.000000,0.000000,0.000000,0.000000,0.000000,0.000000,0.000000,0.333199,0.417320,0.282397,0.000000,0.000000,223.000000,196.000000,27.000000,0.000000,0.000000,0.000000,0.000000,0.000000,0.000000;
#CREDIT:;
#DISPLAYBPM:150.000000;
#NOTES:
000000
000000
000000
000000
,
000000
000000
000000
000000
,
000000
000000
000000
000000
,
000000
000000
000000
000000
,
000000
000000
000000
000000
000100
000010
001000
000000
,
000100
000000
000100
000000
,
000100
000001
001000
100000
,
000100
010000
001000
000010
,
001000
000100
100000
000000
000001
000000
010000
000000
,
001000
000001
010000
100100
,
000100
001000
000010
000101
,
010000
010000
001000
001000
,
000010
000000
000010
000000
100000
000001
001000
000000
,
000100
010000
001000
001001
,
000100
000010
001000
101000
,
000100
000100
001000
100000
,
001100
000000
000000
000000
,
000100
010010
100001
000000
,
000100
000000
000001
000000
001000
000100
100000
000000
,
000100
000001
001000
000000
000101
000000
100000
000000
,
001000
000010
010000
000001
,
001000
000100
100000
000000
000001
000001
000000
000000
,
000100
000100
001000
000000
,
001000
100100
001000
000101
,
010010
100001
001100
001000
,
000100
000000
000100
000000
,
000100
000010
010000
001000
,
100000
000000
100000
000000
,
000100
100000
001000
000010
,
000100
000000
000100
000000
,
000100
010000
001000
000001
,
001000
000000
001000
000000
,
000100
001000
000100
000000
000001
000000
100000
000000
,
000100
000010
001000
101000
,
000100
010000
001000
001001
,
100000
100000
001000
001000
,
000001
000000
000001
000000
010000
000010
001000
000000
,
100000
000001
000000
000000
000000
010010
000000
000000
,
000000
001100
000000
100100
000000
100001
000000
000000
,
000100
000010
001000
010000
,
001100
000000
000000
000000
,
000100
101000
001001
000000
,
000100
000000
100000
000000
001000
000100
000001
000000
,
000100
001000
100001
001000
,
000100
000010
001000
010000
,
000100
001000
000001
000000
100000
100000
000000
000000
,
000001
000000
100000
000000
000100
001000
000010
000000
,
010000
010000
000010
000010
,
010010
100001
001100
001000
,
000100
000000
000100
000000
,
000100
010000
001000
000001
,
000100
000000
000100
000000
,
000100
000010
001000
100000
,
000100
010000
001000
000001
,
000100
000010
001000
101000
,
001000
000000
001000
000000
,
001000
000000
000000
010000
000000
001000
100000
000001
,
001000
000000
000000
000000
;

//---------------dance-solo - ----------------
#NOTEDATA:;
#CHARTNAME:;
#STEPSTYPE:dance-solo;
#DESCRIPTION:;
#CHARTSTYLE:;
#DIFFICULTY:Hard;
#METER:7;
#RADARVALUES:0.521464,0.506746,0.177806,0.000000,0.151658,349.000000,332.000000,17.000000,0.000000,0.000000,0.000000,0.000000,0.000000,0.000000,0.521464,0.506746,0.177806,0.000000,0.151658,349.000000,332.000000,17.000000,0.000000,0.000000,0.000000,0.000000,0.000000,0.000000;
#CREDIT:;
#DISPLAYBPM:150.000000;
#NOTES:
000000
000000
000000
000000
,
000000
000000
000000
000000
,
000000
000000
000000
000000
,
000000
000000
000000
000000
,
000000
000000
000000
000000
000100
000010
010000
000010
,
010000
000000
000100
000000
100000
000100
000000
100000
000100
000000
000000
001000
000000
000000
000100
000000
,
000000
100000
000000
000000
000100
000000
000000
010000
000000
000000
000010
000000
100000
000000
000100
000000
,
001000
000000
000100
000000
001000
000000
000000
000000
000001
000000
000000
001000
000000
000000
000010
000000
,
010000
000100
100000
000100
001000
000100
100000
000001
,
001000
000100
000010
000000
000100
010000
001000
000000
,
000100
000010
001000
000100
100000
001000
100000
000000
,
000100
000010
001000
000000
000100
010000
001000
000100
,
000000
000100
000000
000100
001000
000100
000010
010000
,
000010
001000
000001
001000
000100
001000
000010
010000
,
000100
100000
000010
000000
001000
000001
001000
000000
,
000100
100000
000100
001000
000010
000100
000010
100000
,
000000
100000
000000
100000
000100
001000
000001
100000
,
000100
000000
011000
000000
001010
000000
000000
000100
,
000000
100000
000010
001000
000100
010000
010000
000000
,
100000
000100
001000
000000
001010
000000
011000
000000
,
000010
100000
000100
001000
000100
100000
000001
000100
,
010000
000010
010000
000010
100000
100000
000000
000100
,
000000
100000
000001
001000
100000
000010
000010
000000
,
000100
001000
000001
001000
000100
010000
000010
100000
,
000100
000000
001000
000010
000000
010000
000010
100000
,
000100
000000
100000
000000
000100
100000
000000
000100
100000
000000
000100
000000
000000
000000
001000
000000
,
000000
000010
000000
000000
010000
000000
000000
000100
000000
000000
000001
000000
100000
000000
000100
000000
,
001000
000000
000010
000000
001000
000000
000000
000000
000100
000000
000000
001000
000000
000000
000010
000000
,
010000
000100
100000
000001
001000
000100
001000
000000
,
000001
000000
000100
000000
000001
000100
000000
000001
000100
000000
000000
001000
000000
000000
000100
000000
,
000000
100000
000000
000000
000100
000000
000000
001000
000000
000000
010000
000000
000010
000000
001000
000000
,
000100
000000
100000
000000
000001
000000
000000
000000
100000
000000
000000
001000
000000
000000
010000
000000
,
000010
001000
000001
100000
000100
001000
000001
001000
,
000100
010000
000010
000000
100000
001000
100000
000000
,
000010
010000
000001
001000
000001
100000
001000
000000
,
010000
010000
000010
000010
,
000001
000000
000001
000000
000001
000001
100000
100000
,
001001
101000
000000
000000
000000
001100
000000
000000
,
000000
010010
000000
100010
000000
100001
000000
000000
,
000100
000010
001000
010000
,
010010
000000
000000
000000
000100
001000
000010
010000
,
000100
000000
001001
000000
101000
000000
000000
000100
,
000000
000010
010000
000010
000100
000001
100000
000000
,
010010
100001
001100
100001
,
000100
001000
000010
010000
000100
100000
000010
000001
,
010000
000010
010000
000001
001000
001000
000000
000100
,
000000
100000
000010
010000
000100
000010
000010
000000
,
010000
010000
000100
001000
000001
000001
001000
000100
,
001000
000000
000000
000100
000000
000001
010000
001000
,
010000
000000
000100
000000
100000
000100
000000
100000
000100
000000
000000
001000
000000
000000
000100
000000
,
000000
000001
000000
000000
000100
000000
000000
001000
000000
000000
000010
000000
010000
000000
000001
000000
,
100000
000000
000100
000000
001000
000000
000000
000000
000001
000000
000000
100000
000000
000000
000010
000000
,
010000
000001
100000
000010
001000
000100
001000
100000
,
000001
000000
000100
000000
000001
000100
000000
000001
000100
000000
000000
001000
000000
000000
000010
000000
,
000000
100000
000000
000000
000100
000000
000000
001000
000000
000000
010000
000000
000001
000000
100000
000000
,
000100
000000
001000
000000
000100
000000
000000
000000
010000
000000
000000
000010
000000
000000
001000
000000
,
000001
001000
000000
100000
000000
000010
100000
000001
,
001000
000000
000000
000000
;

//---------------dance-single - ----------------
#NOTEDATA:;
#CHARTNAME:;
#STEPSTYPE:dance-single;
#DESCRIPTION:;
#CHARTSTYLE:;
#DIFFICULTY:Challenge;
#METER:16;
#RADARVALUES:0.859145,0.996627,0.167347,0.188265,0.951783,575.000000,559.000000,16.000000,18.000000,0.000000,0.000000,0.000000,0.000000,0.000000,0.859145,0.996627,0.167347,0.188265,0.951783,575.000000,559.000000,16.000000,18.000000,0.000000,0.000000,0.000000,0.000000,0.000000;
#CREDIT:;
#DISPLAYBPM:150.000000;
#NOTES:
// measure 0
0000
0000
0000
0000
,  // measure 1
0000
0000
0000
0000
,  // measure 2
0000
0000
0000
0000
,  // measure 3
0000
0000
0000
0000
,  // measure 4
0000
0000
0000
0000
0000
0000
0000
0000
0010
0000
0001
0000
1000
0001
1000
0000
,  // measure 5
0001
0000
0100
0000
0010
1000
0010
1000
0001
0000
0001
1000
0000
0100
1000
0000
,  // measure 6
0000
0000
0100
1000
0100
1000
0010
0100
0010
0100
0001
0010
0001
0000
0010
0000
,  // measure 7
0100
1000
0100
1000
0001
0100
0001
0100
0010
0000
1000
0010
0000
0100
0001
0000
,  // measure 8
0000
0000
0001
0010
0001
0010
0100
1000
0100
1000
0001
1000
0001
1000
0100
1000
,  // measure 9
0100
1000
0100
0001
0100
1000
0100
0001
,  // measure 10
0100
1000
0100
0001
0100
1000
0100
0001
,  // measure 11
0100
1000
0100
0001
0100
1000
0100
0001
,  // measure 12
0100
1000
0100
0001
0100
1000
0200
0300
,  // measure 13
0001
0100
1000
0000
0100
0000
0001
0000
0100
0000
1000
0000
0100
0000
0001
0000
,  // measure 14
1000
0100
0001
0000
0100
0000
1000
0000
0100
0000
0001
0000
0100
0000
1000
0000
,  // measure 15
0001
0100
1000
0000
0100
0000
0001
0000
0100
0000
1000
0000
0100
0000
0001
0000
,  // measure 16
1000
0100
0001
0000
0100
0000
1000
0100
0001
0000
0100
0000
1000
0000
0100
0000
,  // measure 17
0010
0001
0010
0000
0001
0100
0001
0000
1000
0100
1000
0000
0000
0000
2200
0000
,  // measure 18
3300
0000
1000
0000
0100
0000
0001
0000
0100
0000
1000
0000
0010
0000
0010
0100
,  // measure 19
0001
0010
0001
0010
0100
1000
0010
0001
,  // measure 20
0000
0000
0010
0000
0100
0000
0000
0000
0110
0000
0010
0100
0010
0100
0001
0000
,  // measure 21
0100
0010
0100
0000
0010
1000
0010
0000
0001
0100
0001
0000
0000
0000
0202
0000
,  // measure 22
0303
0000
0001
0000
1000
0000
0100
0000
0010
0001
0010
0001
0020
0000
0030
0000
,  // measure 23
0001
0010
0100
1000
0100
1000
0001
0100
,  // measure 24
0010
1000
0000
0010
1000
0000
0002
0000
0000
0000
1003
0000
0100
0000
0010
0000
,  // measure 25
0001
0010
0001
0010
0001
0100
0001
0100
0010
0000
1000
0010
0000
0100
0001
0010
,  // measure 26
0000
0000
0010
0001
0010
0001
0100
0010
0100
0010
1000
0100
1000
0000
0100
0000
,  // measure 27
1000
0010
0100
0001
0100
0010
1000
0010
0100
0000
0001
0010
0000
0001
0010
0100
,  // measure 28
0000
0000
0100
1000
0100
1000
0001
0100
0001
0100
0010
1000
0010
1000
0001
1000
,  // measure 29
0100
0000
1000
0000
0001
0100
0010
1000
0001
0000
1000
0001
0000
1000
0001
0000
,  // measure 30
0000
0000
1000
0001
0100
0001
1000
0001
0010
0001
0100
0010
1000
0000
0100
0000
,  // measure 31
1000
0100
1000
0100
1000
0010
0100
0001
0010
0000
0001
0010
0000
0001
0010
0000
,  // measure 32
0000
0000
0001
0010
0001
0100
0010
1000
0100
1000
0001
1000
0100
1000
0010
0100
,  // measure 33
0001
0000
0010
0100
1000
0000
0100
0000
0010
0000
0001
0010
0001
0000
1000
0000
,  // measure 34
0010
0100
0010
0100
0001
1000
0100
1000
0100
1000
0000
0200
0000
0000
0000
0300
,  // measure 35
1000
0100
0010
0001
0010
0001
0010
0000
0001
0000
1000
0000
0001
0000
0100
0010
,  // measure 36
1000
0010
0100
0010
1000
0010
0100
0001
0010
0001
0000
0020
0000
0000
0000
0000
,  // measure 37
0001
0002
0000
0000
0030
0200
0000
0000
,  // measure 38
0003
0000
0020
0000
0300
0000
2000
0000
0030
0000
3100
1000
0001
0100
0010
0000
,  // measure 39
1000
0010
0100
0001
1000
0001
0010
0001
,  // measure 40
1000
0000
0001
0000
0100
0000
0010
0000
1000
0000
0100
1000
0001
0100
0010
0100
,  // measure 41
0001
0100
0010
0000
0100
0010
1000
0000
0010
1000
0100
0010
0002
0000
0013
0000
,  // measure 42
0000
0000
0010
0000
0001
0000
1000
0000
0100
0000
0010
0000
0001
0010
1000
0010
,  // measure 43
0001
0100
0010
1000
0001
1000
0100
0010
,  // measure 44
0000
0000
0010
0000
0001
0000
0100
0000
0101
0000
0100
0010
1000
0010
0100
0001
,  // measure 45
1000
0100
1000
0000
0010
0001
0010
0000
0100
0001
1000
0100
2000
0000
3100
0000
,  // measure 46
0000
0000
0100
1000
0001
0100
0010
1000
0020
0000
0100
0000
0130
0000
0000
0000
,  // measure 47
0010
0001
0010
0001
0100
0010
0100
0010
1000
0100
1000
0100
1000
0001
1000
0001
,  // measure 48
1000
0100
0010
0100
1000
0001
1000
0001
0100
0001
0100
0001
0010
0001
0010
0001
,  // measure 49
1000
0001
0100
0010
1000
0100
1000
0100
0010
0000
0010
0100
0000
0100
1000
0100
,  // measure 50
0000
0000
0100
1000
0100
0010
0100
1000
0100
0010
0100
1000
0100
0000
1000
0000
,  // measure 51
0010
0100
0001
0100
0010
1000
0100
1000
0001
0000
0010
0100
0000
0010
0001
0010
,  // measure 52
0000
0000
0010
0001
0010
0001
0100
0010
0100
0010
1000
0100
1000
0100
0010
0000
,  // measure 53
0001
0000
0100
0000
0010
1000
0100
0000
1100
0000
1010
0000
0110
0000
0101
0000
,  // measure 54
0001
0000
1000
0000
0001
0010
0100
0000
0110
0000
0011
0000
0101
0000
0110
0000
,  // measure 55
0010
0000
1000
0000
0001
1000
0001
0000
1001
0000
1100
0000
1001
0000
0101
0000
,  // measure 56
0100
0000
0000
0001
0000
0000
0100
0000
0000
0001
0000
0000
1000
0000
0000
0100
0000
0000
1000
0000
0000
0100
0000
0000
1000
0000
0000
0010
0000
0000
0100
0000
0000
0010
0000
0000
1000
0000
0100
0000
1000
0000
0100
0000
1000
0000
0200
0000
,  // measure 57
2000
0000
0000
3300
;
