#VERSION:0.83;
#TITLE:Mean;
#SUBTITLE:(Taylor's Version);
#ARTIST:Taylor Swift;
#TITLETRANSLIT:;
#SUBTITLETRANSLIT:;
#ARTISTTRANSLIT:;
#GENRE:;
#ORIGIN:;
#CREDIT:;
#BANNER:;
#BACKGROUND:Mean (Taylor's Version)-bg.png;
#PREVIEWVID:;
#JACKET:Mean (Taylor's Version)-jacket.png;
#CDIMAGE:;
#DISCIMAGE:;
#LYRICSPATH:;
#CDTITLE:;
#MUSIC:Mean (Taylor's Version).mp3;
#OFFSET:0.000000;
#SAMPLESTART:100.000000;
#SAMPLELENGTH:12.000000;
#SELECTABLE:YES;
#BPMS:0.000=168.000,
4.000=164.000,
158.500=41.000,
160.500=164.000,
336.500=41.000,
338.500=164.000,
414.500=41.000,
419.500=82.000,
460.500=164.000,
558.500=82.000,
560.000=41.000;
#STOPS:;
#DELAYS:;
#WARPS:;
#TIMESIGNATURES:0.000=4=4;
#TICKCOUNTS:0.000=4;
#COMBOS:0.000=1;
#SPEEDS:0.000=1.000=0.000=0;
#SCROLLS:0.000=1.000;
#FAKES:;
#LABELS:0.000=Song Start;
#BGCHANGES:0.000=Mean (Taylor's Version).mp4=1.000=0=0=0=StretchNoLoop====,
568.500=Mean (Taylor's Version)-bg.png=1.000=0=0=1=====,
99999=-nosongbg-=1.000=0=0=0 // don't automatically add -songbackground-
;
#KEYSOUNDS:;
#ATTACKS:
;

//---------------dance-single - ----------------
#NOTEDATA:;
#CHARTNAME:;
#STEPSTYPE:dance-single;
#DESCRIPTION:;
#CHARTSTYLE:;
#DIFFICULTY:Hard;
#METER:16;
#RADARVALUES:0.426436,0.787988,0.474800,0.375712,0.090831,723.000000,608.000000,115.000000,91.000000,0.000000,0.000000,0.000000,0.000000,0.000000,0.426436,0.787988,0.474800,0.375712,0.090831,723.000000,608.000000,115.000000,91.000000,0.000000,0.000000,0.000000,0.000000,0.000000;
#CREDIT:;
#NOTES:
0000
0000
0000
0000
,
0000
0000
0000
0000
,
0000
0000
0000
0000
,
0000
0000
0000
0000
,
0000
0000
0000
0000
0000
1000
0000
0000
,
0000
0000
0000
0000
0001
0100
0010
0000
,
1000
0000
0001
0000
0100
0000
0000
0100
,
0010
0000
1000
0010
1000
0100
0010
0001
,
0100
0010
0000
1001
0000
0200
0000
0010
,
0000
0000
0000
0310
0100
0010
0000
1000
,
0000
1001
0000
0001
0010
0001
0000
0101
,
0000
0100
0010
0100
0001
0000
0100
1000
,
0010
0100
0000
1001
0000
0020
0000
1030
,
0000
0000
0000
0000
0000
1000
0010
0100
,
0001
1000
0100
0020
0000
0000
0000
0000
,
0030
0000
0000
0000
,
0000
0000
0000
0000
0000
0100
0000
0110
,
0000
0000
0100
0010
0100
0010
0000
1000
,
0000
0002
0000
0100
0103
0000
0000
0010
,
0100
0000
1000
0000
0000
0001
0000
0000
,
0010
0000
0000
0200
0000
0000
0000
0000
,
0300
0000
0000
0000
,
0000
0000
0000
0001
1000
0000
1100
0000
,
1010
0000
0100
0010
0001
0000
0101
0000
,
0011
0000
0000
0000
0000
0200
0000
0000
,
0000
0310
0000
0000
0000
2000
0000
0000
,
0000
3001
0000
0000
0000
1000
0001
0100
,
0001
0010
0000
0011
0000
0201
0000
0000
,
0310
0000
0100
0010
0100
0010
0000
1010
,
0000
1000
0000
1001
0000
0001
0010
0100
,
1000
0010
0000
0110
0000
2002
0000
0000
,
0000
0000
0000
3003
0000
0000
0000
0000
,
0000
0000
0000
0000
0100
0020
0000
0000
,
0000
1030
1010
0000
0000
0020
0000
0000
,
0000
0031
0011
0000
0000
0100
0100
0100
,
0001
1000
0000
1100
0000
2010
0000
0000
,
3001
0000
0000
1001
0000
1200
0000
0310
,
0000
0201
0000
0310
0000
1000
0010
0100
,
0001
1000
0000
1001
0000
0110
0100
0001
,
0010
0000
0000
0000
0001
0000
0000
0000
0100
0000
0000
0000
0010
0000
0000
0000
1000
0000
0000
0000
0100
0010
0100
0010
0100
0000
0010
0000
0000
0000
0220
0000
,
0000
0330
0000
0000
0000
0000
0000
0000
,
0000
0000
0000
0000
,
0000
0000
0000
0000
,
0000
0020
0000
1000
0000
0000
0000
0130
,
0010
0100
0000
1001
0000
0110
0000
0010
,
0001
0100
0000
0110
0000
1000
0100
0010
,
0001
0100
0010
0100
0010
1000
0000
1001
,
0000
0200
0000
0310
0000
0000
0000
0000
,
0100
0010
0100
0000
0101
0000
1100
0000
,
1001
0000
0000
0001
0010
0000
0001
0100
,
0010
1000
0100
0010
0001
1000
0000
1001
,
0000
0000
0000
0020
0000
0130
0000
0100
,
0010
0000
1001
0000
0110
0000
0000
0010
,
0100
0101
0000
1010
0000
0110
0000
0001
,
0010
0001
0100
0010
1000
0100
0000
1001
,
0000
0200
0000
0000
0000
0000
0000
0310
,
0000
0100
0010
0000
1000
0000
0010
0000
,
0002
0000
0000
0100
0203
0000
0000
0000
,
0300
0000
0000
0000
,
0000
0000
0000
0001
1000
0000
0100
0010
,
0100
0001
0000
1001
0000
1100
0000
1000
,
0010
0000
0000
0020
0000
0100
0130
0000
,
0000
0110
0000
0000
1001
0000
0000
0110
,
0000
0000
0000
0010
0001
0100
0001
1000
,
0001
0000
0101
0000
1010
1000
0001
0100
,
0110
0000
1010
0000
1100
0100
1000
0010
,
0011
0000
0101
0000
1001
0001
0010
0100
,
0110
0000
1001
0000
0110
0010
0100
0001
,
1001
0110
1001
0000
,
0000
2100
0000
0001
0000
3010
0001
0100
,
0000
0102
0000
1000
0000
0013
0100
1000
,
0000
1000
0100
0001
0100
1000
0000
1001
,
0000
0200
0000
0000
0310
0000
0000
0110
,
0000
0020
0000
0000
0000
0130
0000
0110
,
0000
0010
0001
0100
0010
1000
0000
1001
,
0000
0202
0000
0000
0000
0303
0000
0000
,
0000
0000
0000
0000
,
0000
0210
0000
0001
0000
0310
0100
0010
,
0000
0120
0000
1000
0000
0130
0010
0100
,
0000
1000
1000
1000
0001
0100
0000
0110
,
0000
0020
0000
1000
1030
0000
0001
1001
,
0000
2100
0000
3010
0000
2010
0000
3001
,
0000
1000
0100
0010
0001
0100
0000
0110
,
0000
0022
0000
0000
0000
0033
0000
0000
,
0000
0000
0000
0000
0001
0010
0001
0010
0001
0000
0100
0000
0000
0000
2002
0000
0000
0000
0000
0000
3003
0000
0000
0000
0000
0000
0000
0000
0000
0000
0000
0000
,
0000
0000
0000
0000
,
0000
0000
0000
0000
,
0000
0000
0000
0000
0000
0000
0010
1000
,
0001
1000
0100
1000
0010
1000
0001
1000
,
0100
0010
0001
0100
0020
0000
0000
1030
,
0000
1000
0001
0000
0001
1000
0000
1000
,
0100
0010
0001
0100
0000
0110
0000
0010
,
0001
0000
0000
0001
0100
0000
0100
0010
,
1000
0020
0000
0000
0030
0000
0000
0001
,
0010
0001
0100
0010
1000
1001
0000
0000
,
0101
0000
0000
1010
0000
0000
0001
1000
,
0000
1001
0000
1000
0010
0200
0000
0001
,
0301
0000
0010
0001
0100
0010
0000
1010
,
0000
1000
0001
0000
0000
0101
0000
0000
,
1010
0000
0000
1100
0000
0000
0000
0020
,
0000
0130
0000
0010
0100
0000
0101
0000
,
0001
1000
0000
1100
0000
2000
0000
0000
,
0000
3200
0000
0000
0000
0320
0000
0000
,
0000
0000
0032
0000
0000
0000
0000
0000
0000
0000
0203
0000
0000
0300
0000
0000
,
0000
0000
0000
0000
0010
0000
1000
0020
0000
0000
0130
0001
0000
0000
0010
0001
0000
0010
0000
0000
0200
0000
0000
0000
2300
0000
0000
0000
3002
0000
0000
0000
,
0000
0000
0000
0000
0003
0000
0000
0000
0000
0000
0000
0000
0000
0000
0000
0000
0100
0000
0010
0000
0100
0000
0000
0000
0000
0010
0000
0000
0000
0000
0000
0000
,
2000
3000
0000
0000
,
0000
0000
0000
0000
0000
0000
1000
0000
0001
0100
0000
0010
0000
0000
2000
0000
,
0000
0000
3000
0000
0001
0010
0100
2000
0000
0000
3000
0000
0001
0010
0100
2000
,
0000
0000
3000
0000
1000
0100
0020
0000
0031
0010
0000
0110
0000
0000
0200
0010
,
0310
0000
0020
0100
0130
0000
0002
1000
1003
0000
2000
0001
3001
0000
0002
1000
,
1003
0000
0200
0010
0310
0000
0020
0100
0130
0000
0000
0110
0000
0000
0200
0000
,
0010
0000
0301
0000
0000
0000
2000
0000
0010
0000
3001
0000
0000
0000
0001
0100
,
0010
1000
0100
0000
0110
0000
1001
0000
0000
0110
0000
0000
0010
0000
2010
0000
,
3100
0000
0102
0000
0013
0000
0010
0001
0100
0010
1000
0000
1001
0000
0220
0000
,
0000
0330
0000
0000
0010
0001
0100
0001
,
1000
0001
0100
0001
0010
0002
0000
0100
,
0000
1000
0000
0013
0001
0200
0000
0010
,
0000
0001
0000
1300
0000
0010
0001
1000
,
0001
0100
0000
0101
0000
0020
0000
1000
,
1030
0000
1000
0001
0100
0002
0000
0013
,
0000
0200
0000
0301
0000
1000
0100
0010
,
0001
0100
0000
0110
0000
2002
0000
0000
,
0000
3003
0000
0000
0000
1000
0001
0100
,
0010
0100
0000
0110
0000
0012
0000
0100
,
0000
1000
0000
0013
0100
2100
0000
0010
,
0000
0001
0000
3100
0001
0010
1000
0100
,
0010
0001
0000
0101
0000
0110
0010
0001
,
0100
0010
0000
1001
1000
0200
0000
0010
,
0000
0320
0000
1030
0000
1000
0100
0010
,
0001
0100
0000
0101
0000
2020
0000
0000
,
0000
3030
0000
0000
0000
1000
0100
0010
,
0001
0100
0000
1001
0000
1200
0000
0010
,
0000
1000
0000
0310
0001
0021
0000
0100
,
0000
0001
0000
0130
0010
1000
0100
0010
,
0001
0010
0000
0101
0000
1010
1000
0001
,
0100
0001
0000
0011
0010
0002
0000
0100
,
0000
2003
0000
3010
0000
1000
0010
0001
,
0010
1000
0000
1010
0000
0022
0000
0000
,
0000
0000
0033
0000
0000
0000
0000
0000
0000
0000
0010
0100
0010
1000
0010
0000
,
0101
0000
0000
0000
0000
0022
0000
0000
0000
0000
0000
0000
0000
0000
0000
0000
0000
0000
0000
0000
0000
0000
0000
0000
0000
0000
0000
0000
0000
0000
0000
0000
,
0000
0000
0000
0033
0000
0000
0000
0000
;

//---------------dance-single - ----------------
#NOTEDATA:;
#CHARTNAME:;
#STEPSTYPE:dance-single;
#DESCRIPTION:;
#CHARTSTYLE:;
#DIFFICULTY:Medium;
#METER:12;
#RADARVALUES:0.300215,0.583695,0.165148,0.313781,0.024772,509.000000,469.000000,40.000000,76.000000,0.000000,0.000000,0.000000,0.000000,0.000000,0.300215,0.583695,0.165148,0.313781,0.024772,509.000000,469.000000,40.000000,76.000000,0.000000,0.000000,0.000000,0.000000,0.000000;
#CREDIT:;
#NOTES:
// measure 0
0000
0000
0000
0000
,  // measure 1
0000
0000
0000
0000
,  // measure 2
0000
0000
0000
0000
,  // measure 3
0000
0000
0000
0000
,  // measure 4
0000
0000
0000
0000
0000
1000
0000
0000
,  // measure 5
0000
0000
0000
0000
1000
0001
2000
0000
,  // measure 6
0001
0000
0001
0000
3001
0000
0000
1000
,  // measure 7
0001
0000
0000
0100
0010
0100
0000
0010
,  // measure 8
0100
0010
0000
0110
0000
0020
0000
0000
,  // measure 9
0000
0030
0000
0100
0010
0100
0000
0010
,  // measure 10
1000
0010
0000
1000
0100
1000
0000
0001
,  // measure 11
0100
0001
0100
0010
0100
0000
0100
0010
,  // measure 12
0000
1010
0000
1010
0000
2000
0000
0000
,  // measure 13
0000
3000
0000
0000
0000
1000
0001
1000
,  // measure 14
0000
0100
0010
0200
0000
0000
0000
0000
,  // measure 15
0000
0000
0000
0300
0000
0000
0000
0000
,  // measure 16
0000
0000
0000
0000
,  // measure 17
0000
0000
0000
1000
0001
1000
0000
1001
,  // measure 18
0000
1001
0000
0001
1000
0000
1000
0100
,  // measure 19
1000
0000
0001
0000
0000
0200
0000
0000
,  // measure 20
0320
0000
0000
0230
0000
0000
0000
0300
,  // measure 21
0000
0000
0000
0000
,  // measure 22
0000
0000
0000
0002
1000
0000
1000
0000
,  // measure 23
1003
0000
0000
2000
0001
0000
0001
0000
,  // measure 24
3001
0000
0000
0000
0000
0110
0000
0000
,  // measure 25
0000
1001
0000
0000
0000
1001
0000
0000
,  // measure 26
0000
0110
0000
0000
0000
0010
0100
0010
,  // measure 27
0000
1000
0001
1000
0000
0001
0000
0000
,  // measure 28
1001
0000
0000
0100
0000
1010
0000
0000
,  // measure 29
0000
0101
0000
0000
0000
0010
0001
0010
,  // measure 30
0000
0001
1000
0001
0000
0202
0000
0000
,  // measure 31
0000
0303
0000
0000
0000
0000
0000
0000
,  // measure 32
0000
0000
0000
0000
0000
0110
0000
0000
,  // measure 33
0000
1001
0000
0000
0000
1001
0000
0000
,  // measure 34
0000
0110
0000
0000
0000
0010
0100
0020
,  // measure 35
0000
0100
0000
0230
0000
0001
0000
0000
,  // measure 36
0301
0000
0000
1001
0000
1100
0000
0000
,  // measure 37
0000
1010
0000
0000
0000
0100
0000
0001
,  // measure 38
0000
0010
0000
0001
0000
0200
0000
0000
,  // measure 39
0000
0000
0000
0000
0000
0300
0000
0000
,  // measure 40
0000
0000
0000
0000
,  // measure 41
0000
0020
0000
0000
0000
0000
0000
0030
,  // measure 42
0000
0000
0000
0000
,  // measure 43
0000
0200
0000
0000
0000
0300
0000
0010
,  // measure 44
0100
0010
0000
1000
0000
1001
0000
0001
,  // measure 45
1000
0001
0000
1000
0000
0001
0010
0001
,  // measure 46
0000
0100
1000
0010
0100
0001
0000
1001
,  // measure 47
0000
0020
0000
0000
0000
0030
0000
0000
,  // measure 48
0010
0100
0010
0000
1000
0000
0001
0000
,  // measure 49
0200
0000
0000
0010
0310
0000
0001
0010
,  // measure 50
0001
0100
0000
0000
0000
0000
0000
0000
,  // measure 51
0000
0000
0000
1000
0000
1000
0000
1000
,  // measure 52
0001
0000
0001
0000
0001
0000
0000
0001
,  // measure 53
0100
0001
0000
1000
0010
1000
0000
0010
,  // measure 54
0000
0010
0100
0010
0100
0010
0000
0110
,  // measure 55
0000
0200
0000
0000
0000
0300
0000
0010
,  // measure 56
0000
1000
0001
0000
0100
0000
0010
0000
,  // measure 57
2000
0000
0000
0001
3001
0000
0000
0000
,  // measure 58
0000
0000
0000
0000
,  // measure 59
0000
0000
0000
0010
0100
0000
0100
0001
,  // measure 60
0100
0010
0000
1000
0000
1001
0000
1100
,  // measure 61
0000
0000
0000
1000
0000
0001
1000
0000
,  // measure 62
0000
1100
0000
0000
1010
0000
0000
0101
,  // measure 63
0000
0000
0000
1000
0001
1000
0000
0001
,  // measure 64
0100
0001
0000
0010
0001
0010
0000
0100
,  // measure 65
0010
0000
1000
0000
0001
0000
0010
0001
,  // measure 66
0100
0000
1000
0000
0001
0000
0100
0010
,  // measure 67
0100
0000
0001
0000
1000
0000
0010
0100
,  // measure 68
0010
1000
0001
0000
,  // measure 69
0000
0020
0000
0000
0000
0130
0000
0000
,  // measure 70
0000
0200
0000
0000
0000
0310
0000
0000
,  // measure 71
0000
1000
0001
1000
0000
0001
1000
0001
,  // measure 72
0000
0200
0000
0000
0310
0000
0000
0000
,  // measure 73
0000
2000
0000
0000
0000
3001
0000
0000
,  // measure 74
0000
0001
0010
0001
0000
0100
0001
0100
,  // measure 75
0000
0020
0000
0000
0000
0030
0000
0000
,  // measure 76
0000
0000
0000
0000
,  // measure 77
0000
0200
0000
0000
0000
0301
0000
0000
,  // measure 78
0000
0020
0000
0000
0000
1030
0000
0000
,  // measure 79
0000
1000
0001
1000
0001
1000
0000
1001
,  // measure 80
0000
0120
0000
0000
0130
0000
0000
0010
,  // measure 81
0000
2000
0000
3100
0000
0002
0000
0103
,  // measure 82
0000
1000
0100
1000
0000
0001
0100
0001
,  // measure 83
0000
0020
0000
0000
0000
0000
0030
0000
,  // measure 84
0000
0000
0000
0000
,  // measure 85
0000
0000
0000
0000
,  // measure 86
0000
0000
0000
0000
,  // measure 87
0000
0000
0000
0000
,  // measure 88
0000
0000
0000
0000
,  // measure 89
0000
0000
0000
0000
,  // measure 90
0000
0000
0000
0000
0000
0000
0000
1000
,  // measure 91
0001
0000
0101
0000
0000
0200
0000
0000
,  // measure 92
0310
0000
0000
0100
0010
0000
1000
0000
,  // measure 93
0001
0200
0000
0000
0000
0300
0000
0010
,  // measure 94
0100
0010
0000
1000
0000
0002
0000
0000
,  // measure 95
1003
0000
0000
0001
0000
0000
0001
1000
,  // measure 96
0000
1001
0000
1000
0001
1000
0000
0010
,  // measure 97
0100
0000
0010
0100
0000
0000
0000
0010
,  // measure 98
0000
1000
0001
0000
0000
0101
0000
0000
,  // measure 99
1010
0000
0000
1100
0000
0000
0000
2000
,  // measure 100
0000
3001
0000
1000
0001
0000
0101
0000
,  // measure 101
0100
0010
0000
0110
0000
0200
0000
0000
,  // measure 102
0000
0320
0000
0000
0000
2030
0000
0000
,  // measure 103
0000
3002
0000
0000
0000
0013
0000
0000
,  // measure 104
0000
0000
0010
0001
0010
0000
0001
0100
0001
0000
1000
0100
1000
0000
1000
0000
,  // measure 105
0000
0000
0000
0000
,  // measure 106
0200
0300
0000
0000
,  // measure 107
0000
0000
0000
0000
0000
0000
0100
0000
0010
0100
0000
0010
0000
0000
2000
0000
,  // measure 108
3001
0000
1000
0000
0001
0010
0002
0000
0103
0000
0000
0000
0010
1000
0020
0000
,  // measure 109
0130
0010
0200
0000
0301
0000
1000
0000
0001
1000
0000
1001
0000
0000
0200
0000
,  // measure 110
0310
0002
1003
0020
0130
2000
3001
0020
,  // measure 111
0130
2000
3010
0002
0013
0200
0301
2000
,  // measure 112
0000
3100
0000
0002
0000
0013
0000
0010
,  // measure 113
0001
0000
0100
0000
1000
0000
0020
0000
0000
0130
0000
0000
0010
0000
0200
0000
,  // measure 114
0301
0020
1030
0001
0010
0100
1000
0001
,  // measure 115
0000
0000
0000
0000
0000
2000
0000
0000
,  // measure 116
0000
3001
0000
0000
0000
0020
0000
0000
,  // measure 117
0000
0130
0000
0000
0000
0200
0000
0000
,  // measure 118
0000
0301
0000
0000
0000
1000
0001
1000
,  // measure 119
0000
0001
0010
0001
0000
2000
0000
0000
,  // measure 120
3001
0000
0000
0100
0000
0020
0000
1030
,  // measure 121
0000
0200
0000
0301
0000
1000
0001
1000
,  // measure 122
0000
0001
0010
0001
0000
0020
0000
0100
,  // measure 123
0000
0100
0000
0130
0000
1000
0001
1000
,  // measure 124
0000
0001
1000
0001
0000
0200
0000
0000
,  // measure 125
0000
0310
0000
0000
0000
2000
0000
0000
,  // measure 126
0000
3001
0000
0000
0000
0010
0100
0010
,  // measure 127
0000
0001
1000
0001
0000
0100
0010
0100
,  // measure 128
0000
1000
0001
1000
0000
0020
0000
0000
,  // measure 129
0000
0130
0000
0000
0000
0001
0010
0001
,  // measure 130
0000
1000
0100
1000
0000
0002
0000
1000
,  // measure 131
0000
1000
0000
1003
0000
0001
0100
0001
,  // measure 132
0000
1000
0010
1000
0000
0200
0000
0000
,  // measure 133
0000
0301
0000
0000
0000
0020
0000
0000
,  // measure 134
0000
1030
0000
0000
0000
1000
0100
1000
,  // measure 135
0000
0001
0010
0001
0000
0100
0010
0100
,  // measure 136
0000
0010
0100
0010
0000
2000
0000
0000
,  // measure 137
0000
3002
0000
0000
0000
0103
0001
0100
,  // measure 138
0000
0010
1000
0010
0000
2002
0000
0000
,  // measure 139
0000
3003
0000
0000
0000
1000
0010
1000
,  // measure 140
0001
0000
0000
0000
0000
2002
0000
0000
0000
0000
0000
0000
0000
0000
0000
0000
0000
0000
0000
0000
0000
0000
0000
0000
0000
0000
0000
0000
0000
0000
0000
0000
,  // measure 141
0000
0000
0000
3003
0000
0000
0000
0000
;

//---------------dance-single - ----------------
#NOTEDATA:;
#CHARTNAME:;
#STEPSTYPE:dance-single;
#DESCRIPTION:;
#CHARTSTYLE:;
#DIFFICULTY:Easy;
#METER:6;
#RADARVALUES:0.191100,0.525325,0.045416,0.231207,0.004129,324.000000,313.000000,11.000000,56.000000,0.000000,0.000000,0.000000,0.000000,0.000000,0.191100,0.525325,0.045416,0.231207,0.004129,324.000000,313.000000,11.000000,56.000000,0.000000,0.000000,0.000000,0.000000,0.000000;
#CREDIT:;
#NOTES:
0000
0000
0000
0000
,
0000
0000
0000
0000
,
0000
0000
0000
0000
,
0000
0000
0000
0000
,
0000
0000
0000
0000
0000
1000
0000
0000
,
0000
0000
0000
0000
0000
0100
0000
0010
,
0000
0100
0000
0000
0000
0010
0000
0000
,
0000
0010
0000
0000
0000
0001
0000
1000
,
0000
0001
0000
1000
0000
0010
0000
0010
,
0000
0000
0000
0010
0000
0100
0000
0010
,
0000
1000
0000
0001
0000
0010
0000
0001
,
0000
0100
0000
0010
0000
1000
0000
0001
,
0000
1000
0000
0001
0000
1000
0000
0000
,
0000
0000
0000
0000
0000
0010
0000
0100
,
0000
0010
0000
0200
0000
0000
0000
0000
,
0000
0300
0000
0000
0000
0000
0000
0000
,
0000
0000
0000
0000
,
0000
0000
0000
0010
0000
0100
0000
0001
,
0000
1000
0000
0000
0000
0000
0000
1000
,
0000
0001
0000
1000
0000
0020
0000
0000
,
0100
0000
0000
0130
0000
0000
0000
0000
,
0000
0000
0000
0000
,
0000
0000
0001
0001
,
0001
0000
1000
1000
,
1000
0000
0000
0000
0000
0020
0000
0000
,
0000
0030
0000
0000
0000
0200
0000
0000
,
0000
0300
0000
0000
0000
1000
0000
0001
,
0000
1000
0000
0001
0000
0200
0000
0000
,
0300
0000
0000
0010
0000
2000
0000
0000
,
3000
0000
0000
0000
0000
0001
0000
0010
,
0000
0001
0000
0100
0000
0020
0000
0000
,
0000
0030
0000
0000
0000
0000
0000
0000
,
0000
0000
0000
0000
0000
0200
0000
0000
,
0000
0300
0000
0000
0000
0020
0000
0000
,
0000
0030
0000
0000
0000
1000
0000
0001
,
0000
0010
0000
0001
0000
0200
0000
0000
,
0300
0000
0000
0010
0000
2000
0000
3000
,
0000
0002
0000
0003
0000
0001
0000
1000
,
0000
0010
0000
0100
0000
0002
0000
0000
,
0000
0000
0000
0000
0000
0003
0000
0000
,
0000
0000
0000
0000
,
0000
0000
0000
0000
,
0000
0000
0000
0000
,
0000
0020
0000
0000
0000
0030
0000
0100
,
0000
0010
0000
0100
0000
0010
0000
0001
,
0000
1000
0000
0001
0000
1000
0000
0001
,
0000
1000
0000
0010
0000
0100
0000
0001
,
0000
0020
0000
0000
0000
0030
0000
0000
,
0000
0200
0000
0000
0010
0000
0010
0000
,
0310
0000
0000
1000
0000
0010
0000
0001
,
0000
1001
0000
0000
0000
0000
0000
0000
,
0000
0000
0000
0100
0000
0010
0000
0100
,
0000
0001
0000
1000
0000
0001
0000
0100
,
0000
0010
0000
1000
0000
0010
0000
0100
,
0000
0001
0000
0010
0000
0001
0000
1000
,
0000
0002
0000
0000
0000
0003
0000
0100
,
0000
0100
0000
0010
0000
1000
0000
0001
,
0000
0010
0000
0100
0000
0010
0000
0000
,
0000
0000
0000
0000
,
0000
1000
0000
0000
0001
0000
0000
0001
,
0000
0010
0000
0001
0000
0100
0000
0010
,
0000
0000
0000
1000
0000
0001
0000
0000
,
0000
0200
0000
0000
0010
0000
0000
0310
,
0000
0000
0000
1000
0000
0001
0000
0100
,
0000
0001
0000
0010
0000
0001
0000
0100
,
0000
0001
0000
1000
0000
0001
0000
0010
,
0000
0001
0000
0100
0000
0020
0000
0000
,
0100
0100
0130
2000
,
0001
0001
3001
0000
,
0000
0020
0000
0000
0000
0030
0000
0000
,
0000
2000
0000
0000
0000
3000
0000
0000
,
0000
0001
0000
0010
0000
0001
0000
0100
,
0000
0020
0000
0000
0030
0000
0000
0100
,
0000
0002
0000
0000
0000
0003
0000
0000
,
0000
1000
0000
0001
0000
0010
0000
0001
,
0000
2000
0000
0000
0000
3000
0000
0000
,
0000
0000
0000
0000
,
0000
0020
0000
0000
0000
0030
0000
0000
,
0000
0200
0000
0000
0000
0300
0000
0000
,
0000
1000
0000
0001
0000
1000
0000
0010
,
0000
0200
0000
0000
0300
0000
0000
0010
,
0000
0002
0000
0003
0000
2000
0000
3000
,
0000
0010
0000
0100
0000
0001
0000
1000
,
0000
0200
0000
0000
0000
0000
0000
0000
,
0300
0000
0000
0000
,
0000
0000
0000
0000
,
0000
0000
0000
0000
,
0000
0000
0000
0000
0000
0000
0000
1000
,
0000
0000
0000
1000
0000
0000
0000
0001
,
0000
0000
0000
0001
0000
0000
0000
0010
,
0000
0000
0000
0010
0000
0000
0000
0100
,
0000
0010
0000
0100
0000
1000
0000
0001
,
0000
0010
0000
0001
0000
0010
0000
0100
,
0000
2000
0000
0000
0000
3000
0000
0010
,
0000
1000
0000
0100
0000
0020
0000
0000
,
0001
0000
0000
0031
0000
0000
0000
0001
,
0000
1000
0000
0001
0000
1000
0000
0010
,
0000
0100
0000
0010
0000
0000
0000
0010
,
0000
0100
0000
0001
0000
2000
0000
0000
,
0001
0000
0000
3001
0000
0000
0000
1000
,
0000
0001
0000
0100
0000
0001
0000
0010
,
0000
0001
0000
0100
0000
0020
0000
0030
,
0000
0200
0000
0300
0000
2000
0000
3000
,
0000
0002
0000
0003
0000
0100
0000
0000
,
0000
0010
0000
0010
0000
0100
0010
0100
,
0000
0000
0000
0000
,
0001
0000
0000
0000
,
0000
0000
0000
1000
1000
1000
1000
1000
,
0000
0000
0010
0010
0010
0000
0100
0100
,
0100
0000
0000
0000
0001
0000
0001
0000
0001
1000
0000
0001
0000
0000
0110
0000
,
0000
0101
0000
0011
0000
1010
0000
1001
,
0000
1100
0000
1010
0000
0101
0000
0020
,
0000
0030
0000
0200
0000
0300
0000
1000
,
0001
1000
0001
0020
0000
0030
0000
2000
,
0000
3000
0000
0001
0010
0100
1000
0002
,
0000
0003
0000
0000
0000
0000
0000
0000
,
0000
0000
0000
0000
0000
0020
0000
0000
,
0000
0030
0000
0000
0000
0200
0000
0000
,
0000
0300
0000
0000
0000
0100
0000
0001
,
0000
0100
0000
0010
0000
2000
0000
0000
,
0000
3000
0000
0000
0000
0020
0000
0000
,
0000
0030
0000
0000
0000
0010
0000
0100
,
0000
0010
0000
1000
0000
0002
0000
0000
,
0000
0000
0000
0003
0000
0000
0000
0000
,
0000
0000
0000
0000
0000
0200
0000
0000
,
0000
0300
0000
0000
0000
0020
0000
0000
,
0000
0030
0000
0000
0000
1000
0000
0001
,
0000
1000
0000
0100
0000
0020
0000
0000
,
0030
0000
0000
0001
0000
0200
0000
0000
,
0000
0300
0000
0000
0000
0010
0000
1000
,
0000
0001
0000
0100
0000
0220
0000
0000
,
0000
0330
0000
0000
0000
0000
0000
0000
,
0000
0000
0000
0000
0000
1000
0000
0000
,
0000
0000
0000
0000
0000
0001
0000
0000
,
0000
0000
0000
0000
0000
0100
0000
0100
,
0000
0100
0000
0000
0000
0010
0000
0010
,
0000
0010
0000
0000
0000
1000
0000
0000
,
0000
0010
0000
0000
0000
0001
0000
0000
,
0000
2002
0000
0000
0000
0000
0000
0000
,
0000
0000
0000
0000
,
0000
0000
0000
0000
,
0000
0000
0000
3003
0000
0000
0000
0000
;
