#TITLE:Make Me Cry;
#SUBTITLE:;
#ARTIST:Junk Circuit;
#TITLETRANSLIT:;
#SUBTITLETRANSLIT:;
#ARTISTTRANSLIT:;
#GENRE:;
#CREDIT:;
#BANNER:Make Me Cry.png;
#BACKGROUND:Make Me Cry-bg.png;
#LYRICSPATH:;
#CDTITLE:;
#MUSIC:Make Me Cry.ogg;
#OFFSET:0.000000;
#SAMPLESTART:53.529999;
#SAMPLELENGTH:15.000000;
#SELECTABLE:YES;
#DISPLAYBPM:130.000000;
#BPMS:0.000000=130.434998
,4.000000=129.998001
;
#STOPS:
;
#BGCHANGES:;
#KEYSOUNDS:;
#ATTACKS:;

//---------------dance-single - ----------------
#NOTES:
     dance-single:
     :
     Beginner:
     3:
     0.094959,0.148838,0.000000,0.000000,0.000000,69.000000,69.000000,0.000000,0.000000,0.000000,0.000000,0.094959,0.148838,0.000000,0.000000,0.000000,69.000000,69.000000,0.000000,0.000000,0.000000,0.000000:
0000
0000
0000
0000
,
0000
0000
0000
0000
,
0000
0000
0000
0000
,
0001
0000
0000
0000
,
1000
0000
0000
0000
,
0010
0000
0000
0000
,
0010
0000
0000
0000
,
0100
0000
0000
0000
,
0100
0000
0000
0000
,
1000
0000
1000
0000
,
0000
0000
0000
0000
,
0010
0000
0000
0000
,
1000
0000
0000
0000
,
0001
0000
0001
0000
,
0000
0000
0000
0000
,
1000
0000
0000
0000
,
0001
0000
0000
0000
,
0010
0000
0000
0000
,
1000
0000
0000
0000
,
0010
0000
0010
0000
,
0001
0001
0001
0000
,
1000
0000
0000
0000
,
0010
0000
0000
0000
,
0100
0000
0100
0000
,
1000
0000
1000
0000
,
0000
0010
0010
0000
,
0000
1000
1000
0000
,
0000
0001
0001
0000
,
0000
0010
0010
0000
,
0001
0000
0001
0000
,
0100
0000
0000
0000
,
0010
0000
0000
0000
,
0001
0000
0000
0000
,
1000
0000
1000
0000
,
0010
0000
0000
0000
,
0001
0000
0000
0000
,
1000
0000
0000
0000
,
0001
0000
0001
0000
,
0010
0000
1000
0000
,
0010
0000
0000
0000
,
0100
0000
0000
0000
,
1000
0000
1000
0000
,
0010
0000
0100
0000
,
1000
0000
0000
0000
,
0100
0000
0000
0000
,
1000
1000
1000
0000
,
0000
0000
0000
0000
,
0001
0001
0001
0000
,
0000
0000
0000
0000
,
0010
0010
0010
0000
,
0000
0000
0000
0000
,
0001
0001
0001
0000
,
0000
0000
0000
0000
;

//---------------dance-single - ----------------
#NOTES:
     dance-single:
     :
     Easy:
     4:
     0.158265,0.177859,0.000000,0.057801,0.000000,115.000000,115.000000,0.000000,6.000000,0.000000,0.000000,0.158265,0.177859,0.000000,0.057801,0.000000,115.000000,115.000000,0.000000,6.000000,0.000000,0.000000:
0000
0000
0000
0000
,
0000
0000
0000
0000
,
0000
0000
0000
0000
,
0001
0000
0010
0000
,
0100
0000
0000
0000
,
0010
0000
0100
0000
,
0010
0000
0010
0000
,
0100
0000
0100
0000
,
1000
0001
1000
0000
,
1000
0000
0000
2000
0000
0000
3000
0000
,
0000
0100
0000
0010
,
0001
0000
0100
0000
,
1000
0000
0100
0000
,
0001
0000
0000
0002
0000
0000
0003
0000
,
0000
0100
0000
0010
,
0100
0000
1000
0000
,
0001
0000
1000
0000
,
0010
0000
0100
0000
,
0100
0001
0100
0000
,
0010
0000
0010
0000
,
0001
1000
0001
0000
,
1000
0000
0001
0000
,
0010
1000
0100
0000
,
0100
0000
0010
0000
,
0100
1000
0100
0000
,
0010
0010
0100
0000
,
0100
0100
1000
0000
,
0010
0010
0001
0000
,
0001
0010
1000
0000
,
0001
0000
0000
0020
0000
0000
0030
0000
,
0000
0100
0000
0100
,
0010
0000
1000
0000
,
0001
0000
0100
0000
,
0001
0000
0000
0200
0000
0000
0300
0000
,
0000
0010
0000
0010
,
0001
0000
0001
0000
,
1000
0000
0010
0000
,
0001
0000
0000
0200
0000
0000
0300
0000
,
0000
0010
0000
1000
,
0010
0000
0100
0000
,
0010
0100
0010
0000
,
1000
0000
0000
0002
0000
0000
0003
0000
,
0000
0010
0000
0100
,
1000
0000
1000
0000
,
0100
0000
0010
0000
,
0100
0001
1000
0000
,
0010
0000
0100
0000
,
0010
1000
0001
0000
,
1000
0000
1000
0000
,
0100
0001
1000
0000
,
0100
0000
0010
0000
,
1000
0010
0100
0000
,
0010
0001
0100
1000
,
0000
0000
0000
0000
;

//---------------dance-single - ----------------
#NOTES:
     dance-single:
     :
     Medium:
     6:
     0.260106,0.279493,0.077068,0.057801,0.000000,189.000000,181.000000,8.000000,6.000000,0.000000,0.000000,0.260106,0.279493,0.077068,0.057801,0.000000,189.000000,181.000000,8.000000,6.000000,0.000000,0.000000:
0000
0000
0000
0000
,
0000
0000
0000
0000
,
0000
0000
0000
0000
,
0001
0000
1000
0000
0100
0100
0000
0000
,
0010
0010
0001
0000
,
0100
0100
0010
0000
,
0100
0010
0100
0001
,
0010
1000
0010
0001
,
0000
1000
1000
0000
0001
0001
0000
0000
,
0010
0000
0001
2000
0000
0000
3000
0000
,
0100
0010
0001
0100
,
0010
0001
0100
0010
,
1000
0010
0100
0010
,
0001
0000
1000
0002
0000
0000
0003
0000
,
0100
0010
1000
0100
,
0010
0010
0001
1000
,
0100
0001
0010
1001
,
0100
0001
0010
0100
,
0010
0001
0110
0000
,
0100
0001
0100
1000
,
0001
1000
1001
0000
,
1000
0010
0001
0010
,
0100
1000
0110
0000
,
0010
1000
0100
0001
,
0010
1000
0010
0001
,
0100
0000
0100
0000
0010
0010
0000
0000
,
0010
0000
0010
0000
1000
1000
0000
0000
,
0100
0000
0100
0000
0001
0001
0000
0000
,
0001
0000
0100
0000
1000
1000
0000
0000
,
0001
0000
0010
0200
0000
0000
0300
0000
,
1000
0010
0001
0010
,
0110
0000
1000
0000
,
0010
0001
1000
0010
,
0001
0000
0100
0020
0000
0000
0030
0000
,
0001
0100
1000
0100
,
1001
0000
0001
0000
,
0100
1000
0001
0100
,
0001
0000
0010
0002
0000
0000
0003
0000
,
0010
0100
1000
0010
,
0110
0000
0010
0000
,
0001
0100
0010
0100
,
1000
0000
0001
2000
0000
0000
3000
0000
,
0010
0100
0001
0010
,
1001
0000
1000
0000
,
0010
1000
0100
0001
,
0010
0000
0001
0000
1000
1000
0000
0000
,
0100
0100
0010
0010
,
0100
0000
1000
0000
0001
0001
0000
0000
,
1000
0010
1000
0100
,
0010
0000
0001
0000
1000
1000
0000
0000
,
0010
0010
0100
0100
,
1000
0000
0100
0000
0010
0010
0000
0000
,
0100
0001
0010
1000
,
0000
0000
0000
0000
;

//---------------dance-single - ----------------
#NOTES:
     dance-single:
     :
     Hard:
     8:
     0.341303,0.382030,0.115602,0.057801,0.000000,248.000000,236.000000,12.000000,6.000000,0.000000,0.000000,0.341303,0.382030,0.115602,0.057801,0.000000,248.000000,236.000000,12.000000,6.000000,0.000000,0.000000:
0000
0000
0000
0000
,
0000
0000
0000
0000
,
0000
0000
0000
0000
,
1000
0000
0001
0100
0001
1000
0000
0000
,
0100
0100
1000
1000
,
0010
1000
0010
0000
0100
0000
0001
0000
,
0010
0001
0100
0001
0010
0000
1000
0000
,
0100
0001
0100
1000
,
0010
1000
0100
0000
0010
0001
0000
0100
,
0001
0000
1000
0002
0000
0000
1000
0000
,
0010
0100
1000
0013
,
0100
1000
0010
0100
,
0001
1000
0100
1000
0010
0000
0100
0000
,
1000
0000
0001
2000
0000
0000
0001
0000
,
0010
0100
0001
3010
,
0100
0001
0100
0000
1000
0100
0001
0000
,
0010
0000
1000
0000
0100
1000
0001
0000
,
0010
0000
1000
0001
0100
0000
0010
0000
,
0100
0001
1000
0001
0010
0000
0000
0000
,
0010
1100
0010
0101
,
1000
0100
0001
0100
1000
0000
0000
0000
,
0001
0000
0110
0000
1000
0001
0100
0000
,
0010
0100
0001
0100
1000
0000
0000
0000
,
0100
1001
0010
1001
,
0110
0000
1001
0000
0100
0001
1000
0000
,
0010
0000
1010
0000
0100
1000
0000
1000
,
0100
0000
0110
0000
0001
1000
0000
1000
,
0001
0000
0101
0000
1000
0100
0000
0100
,
1000
0000
1010
0000
0001
0100
0000
0000
,
0001
0000
0100
0020
0000
0000
0100
0000
,
0001
0000
0130
0000
1000
0100
0010
0000
,
1000
0100
0001
0010
,
0100
0000
1000
0000
0001
1000
0100
0000
,
1000
0000
0010
0200
0000
0000
0010
0000
,
1000
0000
0310
0000
0001
1000
0010
0000
,
0100
0010
1000
0100
,
0010
0000
0001
0000
1000
0001
0010
0000
,
1000
0000
0001
2000
0000
0000
0001
0000
,
0100
0000
3010
0000
0001
0010
0100
0000
,
0010
0001
0100
0010
,
1000
0001
0010
0001
0100
0000
0010
0000
,
0001
0000
1000
0002
0000
0000
1000
0000
,
0100
0000
0013
0000
1000
0001
0100
0000
,
0010
1000
0010
0000
0001
0010
1000
0000
,
0100
0001
0010
1000
,
0100
0000
1000
0001
0100
0001
0000
0000
,
0010
0010
0100
0100
,
0010
0000
0001
1000
0100
0010
0000
0000
,
0001
0100
0001
0110
,
0100
0000
1000
0001
0100
1000
0000
0000
,
0100
0100
0010
0010
,
0001
0000
0010
0100
1000
0100
0000
0000
,
0010
0000
1000
0000
0100
1000
0001
0100
,
0000
0000
0000
0000
;

//---------------dance-double - ----------------
#NOTES:
     dance-double:
     :
     Easy:
     5:
     0.167899,0.177016,0.000000,0.000000,0.000000,122.000000,122.000000,0.000000,0.000000,0.000000,0.000000,0.167899,0.177016,0.000000,0.000000,0.000000,122.000000,122.000000,0.000000,0.000000,0.000000,0.000000:
00000000
00000000
00000000
00000000
,
00000000
00000000
00000000
00000000
,
00000000
00000000
00000000
00000000
,
00000001
00000100
00001000
00000000
,
00000100
00000000
00010000
00000000
,
10000000
00000000
00010000
00000000
,
01000000
00001000
00010000
00000000
,
00000010
00000000
00000100
00000000
,
00001000
00000001
00001000
00000000
,
00001000
00000000
00100000
00000000
,
00001000
00010000
01000000
01000000
,
00100000
00000000
00000000
00000000
,
00010000
00000000
00001000
00000000
,
00000100
00000000
00000001
00000000
,
00000010
00001000
00010000
00100000
,
01000000
00000000
00000000
00000000
,
10000000
00000000
00010000
00000000
,
00001000
00000000
00000010
00000000
,
00001000
00000001
00000100
00000000
,
00000010
00000000
00000010
00000000
,
00010000
00001000
00010000
00000000
,
00100000
00000000
01000000
00000000
,
00001000
00010000
01000000
00000000
,
01000000
00000000
00100000
00000000
,
10000000
10000000
00010000
00010000
,
00000000
00001000
00000100
00000000
,
00000000
00000100
00000001
00000000
,
00000000
00000010
00001000
00000000
,
00000000
00010000
00001000
00000000
,
01000000
00001000
00100000
00000000
,
00010000
00000000
00100000
00000000
,
00010000
00100000
10000000
00000000
,
01000000
00000000
01000000
00000000
,
00100000
00001000
00010000
00000000
,
00000010
00000000
00000010
00000000
,
00000100
00000001
00001000
00000000
,
00000100
00000000
00000100
00000000
,
00010000
00001000
00010000
00000000
,
00100000
00000000
00100000
00000000
,
10000000
01000000
00100000
00000000
,
00010000
00000000
00010000
00000000
,
00000100
00001000
00000010
00000000
,
00000001
00000000
00000001
00000000
,
00000010
00000100
00000010
00000000
,
00001000
00000000
00001000
00000000
,
00010000
00001000
00100000
00000000
,
10000000
00000000
01000000
00000000
,
00100000
00010000
00100000
00000000
,
00010000
00000000
00001000
00000000
,
00000100
00000001
00001000
00000000
,
00000010
00000000
00000100
00000000
,
00001000
00000001
00001000
00000000
,
00010000
00000000
00001000
00000000
,
00000000
00000000
00000000
00000000
;

//---------------dance-double - ----------------
#NOTES:
     dance-double:
     :
     Medium:
     6:
     0.287630,0.355718,0.105969,0.000000,0.000000,209.000000,198.000000,11.000000,0.000000,0.000000,0.000000,0.287630,0.355718,0.105969,0.000000,0.000000,209.000000,198.000000,11.000000,0.000000,0.000000,0.000000:
00000000
00000000
00000000
00000000
,
00000000
00000000
00000000
00000000
,
00000000
00000000
00000000
00000000
,
10000000
00000000
00100000
00000000
00010000
01000000
00000000
00000000
,
00100000
00010000
00001000
00000100
,
00000001
00000100
00001000
00000100
,
00000010
00010000
00001000
00010000
,
01000000
10000000
00100000
10000000
,
00000000
00010000
00010000
00000000
10000000
10000000
00000000
00000000
,
00010000
00001000
00000100
00001000
,
00010000
00001000
00000010
00000001
,
00000100
00001000
00100000
10000000
,
00010000
00100000
01000000
10010000
,
00100000
00001000
00010000
00001000
,
00000100
00000010
00010000
00001000
,
00000010
00000001
00001000
00000010
,
00010000
00001000
00010000
00000000
,
01000000
10000000
00010000
00100000
,
00010000
00001000
00000001
00000110
,
00000010
00001001
00000100
00001001
,
00000001
00001000
00011000
00000000
,
01000000
00010000
10000000
00100000
,
00010000
00001000
00000010
00000101
,
00000010
00011000
01000000
00011000
,
00110000
10100000
01000000
01000000
,
00010000
00000000
00010000
00000000
10000000
10000000
00000000
00000000
,
00100000
00000000
01000000
00000000
00001000
00001000
00000000
00000000
,
00010000
00000000
00000100
00000000
00000001
00000001
00000000
00000000
,
00000010
00000000
00001000
00000000
00000001
00001000
00000000
00000000
,
00000010
00010000
00000100
00000100
,
00001000
00000010
00000100
00000001
,
00001000
00000100
00010000
00100000
,
01000000
10000000
01000000
10010000
,
01000000
00100000
10000000
10000000
,
01000000
00010000
00001000
00000100
,
00010000
00000100
00000010
00000001
,
00000100
00001000
00010000
01000000
,
10000000
00100000
00010000
00010000
,
00000010
00000100
00000001
00000010
,
00000100
00001000
00010000
01000000
,
00010000
00001000
00010000
00001000
,
00100000
00010000
01000000
01000000
,
10000000
00010000
00100000
00001000
,
00000100
00000100
00001000
00001000
,
00000010
00000100
00001000
00000010
,
00001000
00000000
00010000
00000000
00000100
00001000
00000000
00000000
,
00010000
00100000
10000000
01000000
,
00010000
00000000
00001000
00000000
00000100
00000010
00000000
00000000
,
00001000
00000010
00000001
00000100
,
00000010
00000000
00001000
00000000
00100000
00001000
00000000
00000000
,
01000000
00100000
10000000
01000000
,
00010000
00000000
00000100
00000000
00010000
00001000
00000000
00000000
,
00000100
00000001
00001000
00000100
,
00000000
00000000
00000000
00000000
;

//---------------dance-double - ----------------
#NOTES:
     dance-double:
     :
     Hard:
     8:
     0.361946,0.406535,0.125236,0.000000,0.000000,263.000000,250.000000,13.000000,0.000000,0.000000,0.000000,0.361946,0.406535,0.125236,0.000000,0.000000,263.000000,250.000000,13.000000,0.000000,0.000000,0.000000:
00000000
00000000
00000000
00000000
,
00000000
00000000
00000000
00000000
,
00000000
00000000
00000000
00000000
,
00000001
00000000
00001000
00000100
00001000
00000010
00000000
00000000
,
00000100
00001000
00010000
00100000
,
10000000
00010000
00100000
00000000
01000000
10000000
00100000
00000000
,
01000000
00001000
00010000
01000000
00010000
00000000
00001000
00000000
,
00000010
00000001
00000100
00000001
,
00000000
00001000
00001100
00000000
00000001
00000101
00000000
00000000
,
00001000
00000000
00010000
00100000
00000000
00100000
00010000
00000000
,
00001000
00000000
00010000
00000000
01000000
10000000
00100000
00000000
,
01000000
00001000
00010000
00000000
00000100
00000010
00000001
00000000
,
00001000
00000001
00000100
00000001
00000010
00000000
00001000
00000000
,
00000100
00000000
00010000
00001000
00000000
00001000
00010000
00000000
,
00100000
00000000
01000000
00000000
00001000
00100000
00010000
00000000
,
10000000
00100000
01000000
00000000
00010000
00100000
01000000
00000000
,
00001000
00010000
00001000
00000000
,
00000010
00000100
00000001
00000000
00001000
00000000
00000100
00010000
,
00001000
00100000
00010000
00000000
10000000
00000000
00100000
00000000
,
01000000
00010000
10000000
00000000
01000000
10000000
00010000
00000000
,
10000000
00100000
00010000
00000000
00011000
00000000
00000000
00000000
,
00000010
00000100
00001000
00000000
00000001
00000000
00000100
00001000
,
00010000
00100000
10000000
00000000
00010000
00000000
00100000
00000000
,
01000000
00010000
00001000
00000000
00000100
00000010
00010000
00000000
,
00001100
00000000
00000101
00000000
00000010
00000001
00000100
00000000
,
00001000
00000000
00011000
00000000
00100000
00110000
00000000
01000000
,
10000000
00000000
10100000
00000000
01000000
01100000
00000000
00001000
,
00010000
00000000
00001010
00000000
00000001
00000101
00000000
00000100
,
00000000
00000010
00000101
00000000
00000010
00001100
00000000
00000000
,
00010000
00000000
00001000
00100000
00000000
01000000
00100000
00000000
,
00010000
00000000
01000000
00000000
00100000
01000000
10000000
00000000
,
00010000
00001000
00000010
00001000
,
00000100
00000000
00000001
00000000
00000010
00000001
00001000
00000000
,
00000010
00000000
00000100
00000001
00000000
00000010
00000001
00000000
,
00001000
00000000
00010000
00000000
01000000
00010000
00100000
00000000
,
00001000
01000000
00100000
00010000
,
00000010
00000000
00001000
00000000
00000001
00001000
00000010
00000000
,
00000001
00000000
00000100
00001000
00000000
00010000
00001000
00000000
,
01000000
00000000
00100000
00000000
10000000
00010000
01000000
00000000
,
00100000
00010000
00001000
00000010
,
00001000
00010000
00001000
00000100
00000001
00000000
00000010
00000000
,
00000100
00000000
00010000
00001000
00000000
01000000
00010000
00000000
,
00100000
00000000
00010000
00000000
01000000
00010000
10000000
00000000
,
01000000
00010000
01000000
00000000
00001000
00010000
00001000
00000000
,
00000100
00000010
00001000
00000100
,
00010000
00000000
00001000
01000000
00100000
10000000
00000000
00000000
,
00010000
00100000
01000000
00000000
10000000
00100000
01000000
00000000
,
10000000
00000000
01000000
00010000
00001000
00000010
00000000
00000000
,
00000001
00000100
00001000
00000010
,
00000100
00000000
00000001
00001000
00000100
00010000
00000000
00000000
,
00000010
00001000
00000100
00000000
00100000
00010000
01000000
00000000
,
10000000
00000000
00100000
01000000
00001000
01000000
00000000
00000000
,
00010000
00001000
00000010
00000001
,
00000000
00000000
00000000
00000000
;

//---------------dance-single - ----------------
#NOTES:
     dance-single:
     :
     Challenge:
     14:
     0.672972,0.864309,0.134870,0.202304,0.727332,489.000000,475.000000,14.000000,21.000000,128.000000,0.000000,0.672972,0.864309,0.134870,0.202304,0.727332,489.000000,475.000000,14.000000,21.000000,128.000000,0.000000:
// measure 0
0000
0000
0000
0000
,  // measure 1
0000
0000
0000
0000
,  // measure 2
0000
0000
0000
0000
,  // measure 3
0001
0010
0100
0000
0001
0010
0100
1000
0010
0100
0001
1000
0100
0010
0001
0100
,  // measure 4
0010
0000
1000
0000
MMMM
0000
0001
0000
MMMM
0000
0100
0000
1000
0100
0010
0001
,  // measure 5
0100
0001
0100
0001
1000
0100
1000
0100
,  // measure 6
MMMM
0010
1000
0100
MMMM
0010
1000
0100
,  // measure 7
0010
1000
0010
1000
0001
0010
0001
0010
,  // measure 8
MMMM
0000
0001
0000
0010
0000
MMMM
0000
0010
0000
0100
0000
1000
0100
0010
0001
,  // measure 9
0200
0000
0300
0000
MMMM
0000
0200
0000
0300
0000
0101
0000
1000
0100
0010
0001
,  // measure 10
0100
0000
0001
0010
0100
0000
0010
0100
1000
0000
0000
0000
MMMM
0000
0000
0000
,  // measure 11
1000
0010
0100
0001
1000
0010
0100
0001
1000
0100
0010
0001
1000
0100
0010
0001
,  // measure 12
0100
0001
1000
0100
0010
0000
MMMM
0000
,  // measure 13
0020
0000
0030
0000
MMMM
0000
0020
0000
0030
0000
0110
0000
0001
0010
1000
0100
,  // measure 14
0001
0000
0010
0001
0100
0000
0010
1000
0100
0000
0000
0000
MMMM
0000
0000
0000
,  // measure 15
0100
0010
1000
0001
0010
0100
0001
1000
0010
0001
0100
0010
1000
0100
0010
0001
,  // measure 16
0100
0010
1000
0100
0001
0000
MMMM
0000
,  // measure 17
1000
0000
0100
0010
1000
0000
0100
0000
1000
0000
0010
1000
0100
0000
0010
0000
,  // measure 18
0001
0000
0010
0000
1000
0000
0001
0000
0000
0000
MMMM
0000
0001
0010
0100
0000
,  // measure 19
0020
0000
1000
0000
0100
0130
MMMM
0010
,  // measure 20
0001
1000
MMMM
0101
0000
1010
MMMM
0101
,  // measure 21
1000
0000
0010
0100
1000
0000
0010
0000
0100
0000
0010
0001
0100
0000
0010
0000
,  // measure 22
1000
0100
0001
0010
0100
0000
0110
0000
0000
0000
1001
0000
0110
0000
0010
0001
,  // measure 23
2000
0000
0001
0000
3001
0000
0000
0000
0101
0000
1100
0000
MMMM
0000
1000
0100
,  // measure 24
0020
0000
0032
0000
0203
0000
0310
0001
,  // measure 25
2000
0000
0010
0000
0100
3100
MMMM
1000
,  // measure 26
0020
0000
1000
0000
0100
0130
MMMM
0100
,  // measure 27
0002
0000
0010
0000
1000
1003
MMMM
0001
,  // measure 28
0100
0000
0010
0001
1000
0000
0100
0000
0010
0000
1000
0100
0010
0001
0100
0000
,  // measure 29
0200
0000
0300
0000
MMMM
0000
0200
0000
0300
0000
0110
0000
1000
0010
0001
0100
,  // measure 30
1000
0000
0010
0100
0001
0000
0100
0010
1000
0000
0000
0000
MMMM
0000
0000
0000
,  // measure 31
1000
0100
0010
0100
1000
0100
0010
0100
0001
0010
0100
0010
0001
0010
0100
0010
,  // measure 32
1000
0010
0001
0100
1000
0000
MMMM
0000
,  // measure 33
0002
0000
0003
0000
MMMM
0000
0002
0000
0003
0000
1100
0000
0010
0001
0100
0010
,  // measure 34
1000
0000
0010
0100
0001
0000
0100
0010
1000
0000
0000
0000
MMMM
0000
0000
0000
,  // measure 35
0001
0010
0100
0010
0001
0010
0100
0010
0100
1000
0100
0010
0100
1000
0100
0010
,  // measure 36
1000
0100
0010
0001
0100
0000
MMMM
0000
,  // measure 37
2000
0000
3000
0000
MMMM
0000
2000
0000
3000
0000
1010
0000
0100
0001
1000
0010
,  // measure 38
0100
0000
0010
1000
0100
0000
0001
1000
0100
0000
0000
0000
MMMM
0000
0000
0000
,  // measure 39
0010
0001
0100
0010
1000
0100
0010
0001
1000
0010
0100
0001
1000
0100
0010
0001
,  // measure 40
0100
0010
1000
0001
0100
0000
MMMM
0000
,  // measure 41
0020
0000
0030
0000
MMMM
0000
0020
0000
0030
0000
1001
0000
0100
0010
1000
0001
,  // measure 42
0010
0000
0100
0010
1000
0000
0010
0100
0001
0000
0000
0000
MMMM
0000
0000
0000
,  // measure 43
1000
0100
0010
0001
1000
0010
0001
0100
1000
0010
0100
0001
1000
0100
0001
0010
,  // measure 44
1000
0000
0010
0000
0001
0000
0100
0000
1000
0000
0100
0000
0001
0010
0001
0010
,  // measure 45
0100
1000
0100
1000
0100
1000
0100
1000
0010
1000
0100
1000
0010
1000
0100
1000
,  // measure 46
0010
1000
0010
1000
0010
1000
0010
1000
0010
1000
0100
1000
0010
1000
0100
1000
,  // measure 47
0001
1000
0001
1000
0001
1000
0001
1000
0001
1000
0100
1000
0001
1000
0010
1000
,  // measure 48
0001
0000
0010
0000
0100
0000
1000
0000
0010
0000
0000
0010
0100
0000
0010
0100
,  // measure 49
1000
0001
1000
0001
1000
0001
1000
0001
1000
0001
0100
0001
1000
0001
0010
0001
,  // measure 50
0100
0001
0100
0001
0100
0001
0100
0001
0100
0001
0010
0001
0100
0001
0010
0001
,  // measure 51
0010
0001
0010
0001
0010
0001
0010
0001
0010
0001
0100
0001
0010
0001
0100
0001
,  // measure 52
0010
0000
0001
0010
0100
0000
1000
0010
0100
0000
0000
0000
0100
0001
1000
0100
,  // measure 53
0020
0000
0001
0001
0000
0000
1000
1000
,  // measure 54
0000
0000
0031
MMMM
0000
0000
0000
0000
;
