#TITLE:Make A Difference;
#SUBTITLE:;
#ARTIST:Lala Moore with CoCoRo*Co;
#TITLETRANSLIT:;
#SUBTITLETRANSLIT:;
#ARTISTTRANSLIT:;
#GENRE:;
#CREDIT:;
#BANNER:Make A Difference.png;
#BACKGROUND:Make A Difference-bg.png;
#LYRICSPATH:;
#CDTITLE:;
#MUSIC:Make A Difference.ogg;
#OFFSET:0.000000;
#SAMPLESTART:89.980003;
#SAMPLELENGTH:15.000000;
#SELECTABLE:YES;
#BPMS:0.000000=130.000000
;
#STOPS:
;
#BGCHANGES:0.000=Make A Difference.avi=1.000=0=0=0=StretchNoLoop====,
99999=-nosongbg-=1.000=0=0=0 // don't automatically add -songbackground-
;
#KEYSOUNDS:;
#ATTACKS:;

//---------------dance-single - ----------------
#NOTES:
     dance-single:
     :
     Beginner:
     3:
     0.119932,0.157072,0.027081,0.054163,0.000000,93.000000,90.000000,3.000000,6.000000,0.000000,0.000000,0.119932,0.157072,0.027081,0.054163,0.000000,93.000000,90.000000,3.000000,6.000000,0.000000,0.000000:
0000
0000
0000
0000
,
0000
0000
0000
0000
,
0000
0000
0000
0000
,
0000
0000
0000
0000
,
0000
0000
0000
0000
,
1000
0000
0001
0000
,
1000
0000
0001
0000
,
0010
0000
0100
0000
,
0010
0000
0100
0000
,
1000
0000
0100
0000
,
1000
0000
0001
0000
,
0100
0000
0001
0000
,
0010
0000
0100
0000
,
0110
0000
0000
0000
,
0100
0000
0000
0000
,
0010
0000
0000
0000
,
0001
0000
0000
1000
,
1000
0000
0000
0000
,
0001
0000
0000
0000
,
0100
0000
0000
0000
,
0010
0000
0000
1000
,
1000
0000
1000
0000
,
0010
0000
0010
0000
,
0100
0000
0100
0000
,
0001
0000
0001
0000
,
0010
0000
0000
0000
,
0100
0000
0000
0000
,
1000
0000
0000
0000
,
0001
0000
0000
0000
,
2000
0000
0000
3000
,
1000
0000
0000
0000
,
0002
0000
0000
0003
,
0001
0000
1000
0000
,
0001
0000
0010
0000
,
0001
0000
0100
0000
,
0010
0000
0100
0000
,
0001
0000
1000
0000
,
0100
0000
1000
0000
,
0010
0000
0100
0000
,
0001
0000
0010
0000
,
0010
0000
0100
0000
,
0200
0000
0300
0000
,
1000
0000
0001
0000
,
0002
0000
0003
0000
,
1000
0000
1000
0000
,
0020
0000
0030
0000
,
0100
0000
0100
0000
,
0002
0000
0003
0000
,
1000
0000
1000
0000
,
1001
0000
0001
0000
,
1000
0000
0001
0000
,
0010
0000
0010
0000
,
0001
0000
1000
0000
,
0010
0000
0010
0000
,
0100
0000
0001
0000
,
0010
0000
0010
0000
,
0100
0000
1000
0000
,
0010
0000
0010
0000
,
1001
0000
0000
0000
,
0000
0000
0000
0000
;

//---------------dance-single - ----------------
#NOTES:
     dance-single:
     :
     Easy:
     5:
     0.237285,0.314145,0.180543,0.243733,0.000000,184.000000,164.000000,20.000000,27.000000,0.000000,0.000000,0.237285,0.314145,0.180543,0.243733,0.000000,184.000000,164.000000,20.000000,27.000000,0.000000,0.000000:
0000
0000
0000
0000
,
0000
0000
0000
0000
,
0000
0000
0000
0000
,
0000
0000
0000
0000
,
0000
0000
0000
0000
,
2000
3000
1000
1000
,
0002
0003
0001
0001
,
0200
0300
0100
0100
,
0020
0030
0010
0010
,
1000
1000
1000
1000
,
0001
0001
0001
0001
,
0010
0010
0010
0010
,
0100
0100
0100
0100
,
1000
0100
1000
0000
,
0001
0010
0001
0000
,
0100
0001
0100
0000
,
0010
1000
1000
0001
,
0001
0010
0001
0000
,
1000
0100
1000
0000
,
0010
1000
0100
0000
,
0010
0001
0100
0001
,
1000
0010
0100
0000
,
0100
0010
1000
0000
,
0001
0010
0100
0000
,
0100
0010
0001
1000
,
0010
0010
0100
0100
,
0001
0000
1000
0000
,
0100
0100
0010
0010
,
0001
0000
0100
0000
,
0020
0030
2000
3000
,
0200
0300
0002
0003
,
0020
0030
2000
3000
,
0002
0003
0100
0001
,
1000
0010
1000
0010
,
0100
0001
0100
0001
,
0010
0100
0010
0100
,
1000
0001
1000
0001
,
1000
0100
1000
0100
,
0010
0001
0010
0001
,
1000
0010
1000
0010
,
0100
0001
0100
0001
,
1001
0000
0020
0030
,
0011
0000
0200
0300
,
1100
0000
0002
0003
,
0101
0000
0020
0030
,
1010
0000
2000
3000
,
1001
0000
0002
0003
,
0011
0000
0200
0300
,
1100
0000
0020
0030
,
1001
0002
1003
0000
,
1001
2000
3001
0000
,
0101
0002
0103
0000
,
1100
2000
3100
0000
,
0110
0002
1003
0000
,
0110
2000
3001
0000
,
1010
0020
1030
0000
,
0011
0020
0031
0000
,
1001
0000
0110
1001
,
0110
0000
0000
0000
,
0000
0000
0000
0000
;

//---------------dance-single - ----------------
#NOTES:
     dance-single:
     :
     Medium:
     7:
     0.334004,0.366502,0.126380,0.451357,0.000000,259.000000,245.000000,14.000000,50.000000,0.000000,0.000000,0.334004,0.366502,0.126380,0.451357,0.000000,259.000000,245.000000,14.000000,50.000000,0.000000,0.000000:
0000
0000
0000
0000
,
0000
0000
0000
0000
,
0000
0000
0000
0000
,
0000
0000
0000
0000
,
0000
0000
0000
0000
2000
0002
3003
0000
,
1001
0000
1000
0000
0010
1000
0100
0000
,
1000
0000
0001
0000
0010
0001
0100
0000
,
1000
0000
0100
0000
0001
0100
1000
0000
,
0001
0000
0010
0000
1000
0010
0001
0000
,
0010
0000
1000
0000
0001
0010
0100
0000
,
1000
0000
0001
0000
1000
0010
0100
0000
,
0001
0000
0100
0000
0001
1000
0100
0000
,
1000
0000
0001
0000
1000
0001
0100
0000
,
0002
2000
3003
0000
0001
0000
0010
0000
,
0100
0010
0100
0000
1000
0000
0010
0000
,
0100
0010
0100
0000
0001
0000
1000
0000
,
0010
0000
0100
0001
0010
0000
0100
1000
,
0010
0000
1000
0000
0001
1000
0010
0000
,
0100
0000
0001
0000
1000
0001
0010
0000
,
0100
0000
1000
0000
0010
0100
0001
0000
,
1000
0000
0100
0000
0010
0100
1000
0010
,
0200
0302
2003
3000
,
0100
0001
0010
1000
,
0200
2300
3002
0003
,
0100
1000
0010
0001
,
0010
0001
0010
0000
0100
1000
0100
2000
,
0000
3100
0010
0001
,
0100
0001
0100
0000
0010
1000
0010
2000
,
0000
3001
0100
0010
,
2000
0000
3002
0000
,
0023
0000
0230
0000
,
2300
3002
0203
2300
,
3200
0302
2003
3002
,
1003
0010
1000
0001
,
0100
0001
1000
0100
,
0001
0100
1000
0001
,
0010
0001
1000
0100
,
1000
0001
0100
1000
,
0100
0001
0010
0100
,
1000
0010
0001
0010
,
0100
0010
1000
0001
,
2001
3002
0203
0320
,
1030
0010
1000
0000
1000
0100
1000
0000
,
0002
2003
3200
0320
,
0031
0010
0001
0000
0001
0100
0001
0000
,
2000
3020
2030
3002
,
1003
0100
0001
0000
0001
0100
1000
0000
,
0002
0023
0032
2003
,
3001
0100
1000
0000
1000
0100
0001
0000
,
2001
3010
1020
0130
,
1002
0013
0021
0130
,
2100
3010
0210
0301
,
0102
0013
0210
1300
,
1001
0000
1000
0100
1000
0000
1000
0001
,
0010
0000
0001
0100
0001
0000
0001
0100
,
0010
0000
1000
0010
1000
0000
1000
0010
,
0001
0000
0010
0100
0001
0000
0101
0000
,
2002
0000
0003
0000
3100
0000
1000
0001
,
1001
0000
0000
0000
,
0000
0000
0000
0000
;

//---------------dance-single - ----------------
#NOTES:
     dance-single:
     :
     Hard:
     12:
     0.465543,0.523574,0.108326,0.343031,0.270814,361.000000,349.000000,12.000000,38.000000,0.000000,0.000000,0.465543,0.523574,0.108326,0.343031,0.270814,361.000000,349.000000,12.000000,38.000000,0.000000,0.000000:
0000
0000
0000
0000
,
0000
0000
0000
0000
,
0000
0000
0000
0000
,
0000
0000
0000
0000
,
0000
0000
0000
0000
1001
1001
0000
0000
,
0001
0000
0100
0000
0010
0000
0000
0000
1000
0000
0000
0010
0000
0000
0100
0000
,
0001
0000
0010
0000
0100
0000
0000
0000
1000
0000
0000
0100
0000
0000
0010
0000
,
0001
0000
0100
0000
1000
0000
0000
0000
0100
0000
0000
0001
0000
0000
0010
0000
,
0100
0000
1000
0000
0010
0000
0000
0000
1000
0100
0000
0010
0001
0000
0010
0000
,
0000
0000
1000
0000
0100
2000
0000
0000
3000
0000
0001
0000
0100
0002
0000
0000
,
0003
0000
1000
0000
0010
2000
0000
0000
3000
0000
0001
0000
0010
0002
0000
0000
,
0003
0000
0100
0000
0010
0200
0000
0000
0300
0000
0001
0000
1000
0002
0000
0000
,
0003
0000
0010
0000
0100
0010
0000
0000
0001
0100
0000
0010
1000
0000
0001
0000
,
0100
0110
0000
0000
0001
0000
1000
0000
,
0100
0010
0001
1000
0001
0000
1000
0000
,
0010
0100
0001
1000
0001
0000
0010
0100
,
0001
0000
0000
0000
0100
0001
0100
0000
0010
0000
0000
0000
1000
0100
1000
0000
,
0010
0110
0000
0000
1000
0000
0100
0000
,
0010
0001
0100
0010
1000
0000
0010
0100
,
1000
0100
0001
0010
0100
0000
1000
0000
,
0001
1000
0001
0100
,
0110
0000
0100
0000
0010
1000
0000
0002
0000
0000
0000
0000
0000
0000
0103
0000
,
0010
1000
0100
0010
,
1001
0000
0001
0000
0010
0100
0000
2000
0000
0000
0000
0000
0000
0000
3010
0000
,
0100
0000
0001
0100
0001
1000
0010
0001
,
0020
0000
0000
0000
1030
0100
0010
0002
,
0000
0000
0013
0100
0001
0100
0010
0001
,
0200
0000
0000
0000
0310
1000
0001
0020
,
0000
0000
0130
1000
1001
0000
0110
0000
,
0200
0000
0302
0000
,
2003
0000
3200
0000
,
0320
0032
0203
0320
,
2030
0000
0000
0000
3002
0000
0000
0000
1003
0100
0000
0010
0001
0000
1000
0000
,
1001
0001
0010
0100
1000
0001
0100
0000
,
0010
1000
0001
0010
0100
1000
0001
0000
,
0010
0001
0010
1000
0010
0100
1000
0000
,
0010
1000
0010
0001
0010
0100
0001
0000
,
1000
0010
0100
1000
0100
0010
1000
0000
,
0001
0010
0100
0001
0100
0010
0001
0000
,
1000
0100
0010
1000
0010
0100
1000
0000
,
0001
0100
0010
0001
0010
0100
0001
1000
,
1001
0000
0001
0000
0100
0000
1000
0000
0100
0000
0001
0000
0010
0100
0000
1000
,
0100
1000
0000
0001
0000
0000
0100
0000
0010
0000
1000
0000
0001
0100
0000
0010
,
0100
0010
0000
1000
0000
0000
0001
0000
0010
0000
0100
0000
1000
0001
0000
0100
,
0010
0100
0000
0001
0000
0000
1000
0000
0010
0000
0100
0000
0001
0010
0000
0100
,
1000
0100
0000
0001
0000
0000
0100
0000
1000
0000
0010
0000
0100
0010
0000
1000
,
0010
1000
0000
0001
0000
0000
0010
0000
0100
0000
1000
0000
0100
0010
0000
0001
,
0010
0001
0000
1000
0000
0000
0010
0000
0100
0000
0001
0000
1000
0010
0000
1000
,
0001
1000
0000
0100
0000
0000
0010
0000
0001
0000
1000
0000
0100
0000
0010
0000
,
1001
0000
0010
0001
2000
0000
3010
1000
,
0002
0000
0013
0100
2000
0000
3010
0100
,
0002
0000
1003
0100
0002
0000
0103
1000
,
0020
0000
0000
0000
0130
0000
0001
0000
2000
0000
0000
0000
3001
0100
0001
0000
,
0010
0000
0000
0000
1000
0100
1000
0000
0200
0000
0000
0000
0310
0001
0010
0000
,
0002
0000
0000
0000
1003
0010
1000
0000
0020
0000
0000
0000
0130
0001
0100
0000
,
0002
0000
0000
0000
0013
0100
0010
0000
0200
0000
0000
0000
1300
0001
1000
0000
,
0002
0000
0000
0000
1003
0010
0100
0000
0020
0000
0000
0000
0130
0001
1000
0000
,
0020
0000
0000
0000
0000
0000
0000
0000
0230
0000
0000
0000
0301
1000
0001
0000
,
1001
0000
0000
0000
,
0000
0000
0000
0000
;

//---------------dance-double - ----------------
#NOTES:
     dance-double:
     :
     Easy:
     5:
     0.238575,0.314145,0.180543,0.243733,0.000000,185.000000,165.000000,20.000000,27.000000,0.000000,0.000000,0.238575,0.314145,0.180543,0.243733,0.000000,185.000000,165.000000,20.000000,27.000000,0.000000,0.000000:
00000000
00000000
00000000
00000000
,
00000000
00000000
00000000
00000000
,
00000000
00000000
00000000
00000000
,
00000000
00000000
00000000
00000000
,
00000000
00000000
00000000
00000000
,
00200000
00300000
00100000
00100000
,
20000000
30000000
10000000
10000000
,
02000000
03000000
01000000
01000000
,
00020000
00030000
00010000
00010000
,
00001000
00001000
00001000
00001000
,
00000100
00000100
00000100
00000100
,
00000001
00000001
00000001
00000001
,
00000010
00000010
00000010
00000010
,
00001000
00010000
00001000
00000000
,
00100000
00010000
00100000
00000000
,
01000000
10000000
01000000
00000000
,
00100000
00001000
00001000
00010000
,
00010000
00001000
00010000
00000000
,
00000100
00001000
00000100
00000000
,
00000010
00000001
00000010
00000000
,
00000001
00000100
00000001
00000010
,
00001000
00010000
00000100
00000000
,
00010000
00001000
01000000
00000000
,
00100000
01000000
00010000
00000000
,
00100000
01000000
10000000
01000000
,
00100000
00010000
01000000
00001000
,
00010000
00000000
00001000
00000000
,
00010000
00010000
00001000
00001000
,
00000100
00000000
00000001
00000010
,
00002000
00003000
00020000
00030000
,
00200000
00300000
20000000
30000000
,
02000000
03000000
00020000
00030000
,
00002000
00003000
00010000
00001000
,
00000010
00000001
00000010
00000001
,
00000100
00000010
00000100
00000010
,
00001000
00000001
00001000
00000001
,
00000010
00001000
00000010
00001000
,
00010000
00001000
00010000
00001000
,
00100000
00010000
00100000
00010000
,
10000000
00100000
10000000
00100000
,
00010000
00001000
00010000
00001000
,
00011000
00000000
00000200
00000300
,
00001100
00000000
00000020
00000030
,
00000011
00000000
00002000
00003000
,
00001010
00000000
00020000
00030000
,
00011000
00000000
00200000
00300000
,
00110000
00000000
20000000
30000000
,
10100000
00000000
02000000
03000000
,
01100000
00000000
00020000
00030000
,
00011000
00002000
00103000
00000000
,
00011000
00020000
00030010
00000000
,
00010100
00000200
00001300
00000000
,
00000011
00000020
00000130
00000000
,
00010100
00020000
00031000
00000000
,
00011000
00002000
00103000
00000000
,
00110000
00200000
01300000
00000000
,
11000000
20000000
30100000
00000000
,
00110000
00000000
10100000
01010000
,
10010000
00000000
00000000
00000000
,
00000000
00000000
00000000
00000000
;

//---------------dance-double - ----------------
#NOTES:
     dance-double:
     :
     Medium:
     8:
     0.336584,0.366502,0.171516,0.442330,0.000000,261.000000,242.000000,19.000000,49.000000,0.000000,0.000000,0.336584,0.366502,0.171516,0.442330,0.000000,261.000000,242.000000,19.000000,49.000000,0.000000,0.000000:
00000000
00000000
00000000
00000000
,
00000000
00000000
00000000
00000000
,
00000000
00000000
00000000
00000000
,
00000000
00000000
00000000
00000000
,
00000000
00000000
00000000
00000000
00020000
00002000
00033000
00000000
,
00011000
00000000
00001000
00000000
00000100
00000001
00000010
00000000
,
00000001
00000000
00000100
00000000
00001000
00010000
00001000
00000000
,
00010000
00000000
00100000
00000000
10000000
00100000
00010000
00000000
,
00100000
00000000
01000000
00000000
00010000
00100000
00001000
00000000
,
00010000
00000000
00001000
00000000
00010000
00000100
00001000
00000000
,
00000010
00000000
00000100
00000000
00000001
00000100
00001000
00000000
,
00010000
00000000
00001000
00000000
00010000
01000000
10000000
00000000
,
00100000
00000000
01000000
00000000
00010000
00100000
00001000
00000000
,
00020000
00002000
00033000
00000000
00010000
00000000
00001000
00000000
,
00000100
00000001
00001000
00000000
00000010
00000000
00000100
00000000
,
00001000
00010000
00000100
00000000
00000010
00000000
00000100
00000000
,
00000010
00000000
00001000
00010000
00000100
00000000
00010000
00001000
,
00100000
00000000
00010000
00000000
10000000
00010000
01000000
00000000
,
00100000
00000000
00010000
00000000
00001000
00010000
00000100
00000000
,
00001000
00000000
00000010
00000000
00000100
00000001
00000010
00000000
,
00000100
00000000
00000001
00000000
00000100
00000010
00001000
00010000
,
00002000
00023000
00032000
00003000
,
00010000
01000000
10000000
00100000
,
00020000
00032000
00023000
00030000
,
00001000
00000100
00000001
00000010
,
00000100
00001000
00000100
00000000
00010000
00001000
00010000
00002000
,
00000000
00013000
01000000
10000000
,
01000000
00010000
01000000
00000000
00010000
00001000
00010000
00002000
,
00000000
00003100
00000001
00000010
,
00002000
00000000
00023000
00000000
,
00230000
00000000
20300000
00000000
,
32000000
03020000
02030000
23000000
,
32000000
03020000
00032000
00023000
,
00031000
00000000
00000100
00000000
00000001
00000001
00000010
00000000
,
00001000
00010000
00100000
00010000
,
00001000
00000000
00000100
00000000
00001000
00001000
00010000
00000000
,
01000000
10000000
00100000
00010000
,
00001000
00000000
00000010
00000000
00000001
00000001
00000010
00000000
,
00001000
00010000
00100000
01000000
,
00100000
00000000
00010000
00000000
00001000
00001000
00000100
00000000
,
00000010
00000100
00001000
00010000
,
00021000
00032000
00203000
00320000
,
10030000
01000000
10000000
00000000
00100000
00010000
00100000
00000000
,
00002000
00023000
00030020
00002030
,
00003001
00000100
00000001
00000000
00000010
00001000
00000010
00000000
,
00002000
00003200
00020300
00032000
,
00103000
00010000
00100000
00000000
10000000
01000000
10000000
00000000
,
00020000
02030000
03002000
00023000
,
00030010
00001000
00000010
00000000
00000100
00000001
00000100
00000000
,
00001001
00000100
00020100
00031000
,
00011000
00100000
00210000
01300000
,
10010000
00010000
01002000
00013000
,
00011000
00000010
00001020
00000130
,
00000101
00000010
00002010
00013000
,
00101000
00010000
00210000
01300000
,
11000000
00100000
01200000
00310000
,
00011000
00000100
00000102
00000013
,
00002000
00000000
00000000
00000000
00013000
00000000
00001000
00010000
,
00011000
00000000
00000000
00000000
,
00000000
00000000
00000000
00000000
;

//---------------dance-double - ----------------
#NOTES:
     dance-double:
     :
     Hard:
     12:
     0.469412,0.523574,0.108326,0.361086,0.270814,364.000000,352.000000,12.000000,40.000000,0.000000,0.000000,0.469412,0.523574,0.108326,0.361086,0.270814,364.000000,352.000000,12.000000,40.000000,0.000000,0.000000:
00000000
00000000
00000000
00000000
,
00000000
00000000
00000000
00000000
,
00000000
00000000
00000000
00000000
,
00000000
00000000
00000000
00000000
,
00000000
00000000
00000000
00000000
00011000
00011000
00000000
00000000
,
00001000
00000000
00010000
00000000
01000000
00000000
00000000
00000000
00100000
00000000
00000000
01000000
00000000
00000000
10000000
00000000
,
00010000
00000000
01000000
00000000
00001000
00000000
00000000
00000000
00010000
00000000
00000000
00000100
00000000
00000000
00000010
00000000
,
00000001
00000000
00001000
00000000
00000010
00000000
00000000
00000000
00010000
00000000
00000000
00001000
00000000
00000000
00100000
00000000
,
01000000
00000000
10000000
00000000
00010000
00000000
00000000
00000000
10000000
00100000
00000000
01000000
00010000
00000000
00100000
00000000
,
00001000
00000000
00010000
00000000
00001000
00020000
00000000
00000000
00030000
00000000
00000100
00000000
00001000
00000200
00000000
00000000
,
00000300
00000000
00000010
00000000
00000001
00000020
00000000
00000000
00000030
00000000
00000001
00000000
00000100
00000002
00000000
00000000
,
00000003
00000000
00001000
00000000
00000100
00002000
00000000
00000000
00003000
00000000
00000100
00000000
00010000
00000200
00000000
00000000
,
00000300
00000000
00010000
00000000
00001000
00010000
00000000
00000000
00001000
00100000
00000000
00010000
00100000
00000000
00010000
00000000
,
10000000
10010000
00000000
00000000
01000000
00000000
00100000
00000000
,
00001000
00010000
01000000
10000000
00100000
00000000
01000000
00000000
,
00001000
00010000
00000100
00000010
00000100
00000000
00001000
00000010
,
00000100
00000000
00000000
00000000
00001000
00000100
00001000
00000000
00010000
00000000
00000000
00000000
00001000
00010000
00001000
00000000
,
00010000
00011000
00000000
00000000
00010000
00000000
00100000
00000000
,
10000000
00010000
01000000
00100000
00010000
00000000
00001000
00000100
,
00000010
00001000
00000100
00010000
00001000
00100000
00001000
00010000
,
00100000
00000000
01000000
00000000
00200000
00000000
10300000
00010000
,
10010000
00000000
10000000
00000000
00010000
01000000
00000000
00002000
00000000
00000000
00000000
00000000
00003000
00000000
00010000
00000000
,
00001000
00000000
00000100
00000000
00000001
00000000
00000010
00000100
,
00000110
00000000
00000100
00000000
00001000
00000100
00000000
00020000
00000000
00000000
00000000
00000000
00000000
00000000
00000000
00000000
,
00031000
00000000
01000000
00010000
00100000
10000000
00100000
00010000
,
00200000
00000000
00000000
00000000
01300000
00100000
00010000
02000000
,
00000000
00000000
03010000
01000000
00001000
00010000
00000100
00010000
,
00002000
00000000
00000000
00000000
00003100
00000001
00000010
00000200
,
00000000
00000000
00001300
00000100
00010100
00000000
00101000
00000000
,
00020000
00000000
20030000
00000000
,
30200000
00000000
02300000
00000000
,
03200000
00320000
00032000
00003200
,
00000320
00000000
00000000
00000000
00002030
00000000
00000000
00000000
00003001
00000010
00000000
00000100
00001000
00000000
00000001
00000000
,
00001001
00001000
00000100
00010000
00001000
00010000
00100000
00000000
,
10000000
00100000
10000000
00010000
01000000
00010000
00100000
00000000
,
00001000
00010000
00000100
00001000
00000010
00010000
00001000
00000000
,
00010000
00001000
01000000
00010000
00100000
00001000
00010000
00000000
,
00001000
00000100
00000001
00000010
00000001
00000100
00001000
00000000
,
00010000
01000000
10000000
00100000
10000000
01000000
00010000
00000000
,
00001000
00010000
01000000
10000000
00100000
01000000
00001000
00000000
,
00010000
00001000
00000100
00000001
00000010
00000100
00010000
00000000
,
00011000
00000000
00010000
00000000
00001000
00000000
00100000
00000000
00010000
00000000
01000000
00000000
00100000
10000000
00000000
00010000
,
01000000
00010000
00000000
00100000
00000000
00000000
01000000
00000000
00100000
00000000
00001000
00000000
00010000
00001000
00000000
00010000
,
00001000
00010000
00000000
00000100
00000000
00000000
00001000
00000000
00000010
00000000
00000100
00000000
00000001
00000010
00000000
00000100
,
00010000
00000100
00000000
00010000
00000000
00000000
00001000
00000000
00100000
00000000
00010000
00000000
10000000
00100000
00000000
01000000
,
00010000
01000000
00000000
00001000
00000000
00000000
00100000
00000000
00001000
00000000
00010000
00000000
00000100
00001000
00000000
00000001
,
00000100
00000001
00000000
00000010
00000000
00000000
00000100
00000000
00001000
00000000
00000100
00000000
00010000
00001000
00000000
00010000
,
00000100
00010000
00000000
00001000
00000000
00000000
00100000
00000000
00010000
00000000
10000000
00000000
00100000
01000000
00000000
00010000
,
01000000
00010000
00000000
10000000
00000000
00000000
00010000
00000000
00100000
00000000
00001000
00000000
00010000
00000000
00001000
00000000
,
00011000
00000000
00001000
00000100
00000002
00000000
00000103
00001000
,
00020000
00000000
00130000
01000000
00020000
00000000
00130000
01000000
,
20000000
00000000
31000000
00010000
00002000
00000000
00003010
00000100
,
00002000
00000000
00000000
00000000
00003010
00000000
00000100
00000000
00000002
00000000
00000000
00000000
00001003
00000010
00001000
00000000
,
00000200
00000000
00000000
00000000
00010300
00001000
00010000
00000000
00002000
00000000
00000000
00000000
00103000
00010000
00100000
00000000
,
00020000
00000000
00000000
00000000
10030000
00100000
10000000
00000000
00200000
00000000
00000000
00000000
01300000
00010000
01000000
00000000
,
00020000
00000000
00000000
00000000
00130000
00001000
00100000
00000000
00002000
00000000
00000000
00000000
00013000
00000100
00010000
00000000
,
00000200
00000000
00000000
00000000
00000310
00000001
00000010
00000000
00000002
00000000
00000000
00000000
00000103
00001000
00000100
00000000
,
00002000
00000000
00000000
00000000
00000000
00000000
00000000
00000000
00023000
00000000
00000000
00000000
00030010
00001000
00000010
00000000
,
00000101
00000000
00000000
00000000
,
00000000
00000000
00000000
00000000
;

//---------------dance-single - ----------------
#NOTES:
     dance-single:
     :
     Challenge:
     15:
     0.772466,0.788747,0.216651,0.216651,0.983959,599.000000,575.000000,24.000000,24.000000,0.000000,0.000000,0.772466,0.788747,0.216651,0.216651,0.983959,599.000000,575.000000,24.000000,24.000000,0.000000,0.000000:
// measure 0
0000
0000
0000
0000
,  // measure 1
0000
0000
0000
0000
,  // measure 2
0000
0000
0000
0000
,  // measure 3
0000
0000
0000
0000
,  // measure 4
0000
0000
0000
0000
0110
1001
1000
0010
,  // measure 5
0100
0000
0001
0100
0000
0001
0100
0000
0010
1000
0000
0010
1000
0000
0100
0000
,  // measure 6
0010
0001
0000
0010
0001
0000
0100
0001
0000
0100
0001
0000
0010
0000
1000
0000
,  // measure 7
0100
0000
1000
0100
0000
1000
0100
0000
0010
0100
0000
0010
0100
0000
0001
0000
,  // measure 8
0010
0001
0000
0010
0001
0000
1000
0001
0000
1000
0001
0000
0010
0000
1000
0000
,  // measure 9
0100
0000
1000
0100
0000
1000
0100
0000
0001
0100
0000
0001
0100
0000
0010
0000
,  // measure 10
1000
0001
0000
1000
0001
0000
0010
0100
0000
0010
0100
0000
1000
0000
0100
0000
,  // measure 11
0001
0000
0010
0001
0000
0010
0001
0000
0100
0001
0000
0100
0001
0000
0010
0000
,  // measure 12
1000
0010
0000
1000
0100
0000
0010
0001
0000
0100
0001
0000
0010
0000
0100
0000
,  // measure 13
2000
0000
0000
3100
0010
0000
0001
0010
0100
1000
0000
1000
0100
0010
0001
0100
,  // measure 14
0020
0000
0000
1030
0010
0000
0001
0010
0100
1000
0000
0010
0100
0001
0010
0100
,  // measure 15
1000
0000
0010
0100
0000
1000
0100
0010
0002
0000
1003
0000
0001
1000
0001
0000
,  // measure 16
0101
0000
0000
0000
1000
0010
1000
0000
1100
0000
0100
0000
0010
0001
0010
0000
,  // measure 17
0201
0000
0000
0310
1000
0000
0100
0010
0001
1000
0000
0100
0010
1000
0100
0000
,  // measure 18
0012
0000
0000
0103
0010
0000
1000
0010
0100
0001
0000
0010
0001
0100
0010
0000
,  // measure 19
1100
0000
1000
0001
0000
0001
0100
0010
2000
0000
3001
0000
1000
0100
1000
0000
,  // measure 20
1100
0000
0000
0000
0100
0000
0010
0100
0010
0000
0001
0000
0010
0001
0010
0000
,  // measure 21
0011
0000
0001
0000
0010
0100
1000
0010
0200
0000
0001
0000
0301
0000
1000
0000
,  // measure 22
1001
0000
0000
0000
1100
0000
0000
1000
0010
0000
0100
0001
0100
0000
0010
0000
,  // measure 23
0001
0000
0010
0000
0010
0001
0100
0010
2000
0000
0100
0000
3100
0000
1000
0000
,  // measure 24
1001
0000
0000
0001
0100
0000
0010
1000
0000
0010
1000
0100
0010
0000
0001
0000
,  // measure 25
0100
0000
0010
0000
1000
0000
0100
0000
0010
0000
0001
0000
0010
1000
0020
0000
,  // measure 26
0100
0000
0000
0000
1000
0000
0000
0000
0130
0000
0010
0000
0001
0100
0001
0000
,  // measure 27
0011
0000
0000
0000
0101
0000
0000
0001
0100
0000
0010
1000
0010
0000
0200
0000
,  // measure 28
0001
1000
0302
0010
,  // measure 29
1003
0000
0000
1000
0100
0000
0000
0100
0010
0000
0000
0010
0001
0000
0000
0001
,  // measure 30
0100
0010
1000
0010
0100
0001
0010
1000
,  // measure 31
0200
0000
0000
0000
0000
0000
0000
0000
0000
0000
0000
0000
0000
0000
0000
0000
0310
0000
0000
0000
0100
0000
0000
0000
2000
0000
0000
0000
0000
0000
0000
0000
0000
0000
0000
0000
0000
0000
0000
0000
0000
0000
3001
0000
0000
0100
0000
0000
,  // measure 32
0020
0000
0000
0000
0000
0000
1030
0100
0002
0000
1003
0000
0001
0010
0100
1000
,  // measure 33
0200
0000
1300
0000
0010
0000
0100
0010
0001
0100
0010
1000
0100
0000
0010
0001
,  // measure 34
1000
0000
0100
1000
0000
1000
0000
1000
0001
0010
0100
1000
0010
0000
0001
0010
,  // measure 35
0100
0000
1000
0100
0001
0100
0000
0100
0010
0001
0100
0010
1000
0000
0010
1000
,  // measure 36
0100
0000
0010
1000
0000
1000
0000
1000
0100
0010
0001
0100
0010
1000
0100
0000
,  // measure 37
0010
0000
0001
0100
0000
0100
0000
0100
0010
1000
0100
0010
0001
0100
0010
0000
,  // measure 38
1000
0000
0010
0100
1000
0100
0000
0100
0001
0010
0100
1000
0001
0100
0010
0000
,  // measure 39
1000
0000
0001
1000
0000
1000
0000
1000
0010
0100
0001
0010
1000
0100
0010
0000
,  // measure 40
0001
0000
1000
0001
0100
0001
0000
0001
0100
0010
1000
0100
0001
0010
1000
0010
,  // measure 41
0100
0000
0001
0010
0100
1000
0010
0100
0001
0000
1000
0010
0000
0010
0100
0010
,  // measure 42
0001
0100
0010
1000
0100
0000
0010
1000
0000
1000
0100
0010
0001
0100
0010
1000
,  // measure 43
0100
0000
0010
1000
0000
1000
0100
0010
0001
0000
0100
0001
0000
0001
0010
0100
,  // measure 44
1000
0000
0010
1000
0100
0010
0001
0010
0000
0010
0001
0100
0010
1000
0001
0000
,  // measure 45
0100
0000
0010
1000
0000
1000
0000
1000
0100
0010
0001
0010
1000
0010
0100
0000
,  // measure 46
0001
0000
0010
0001
1000
0001
0000
0001
0100
0010
1000
0010
0001
0100
0010
0000
,  // measure 47
1000
0000
0100
0010
0000
0010
0000
0010
1000
0100
0010
0100
0001
0010
0100
0000
,  // measure 48
1000
0000
0001
0100
0010
0100
0000
0100
1000
0100
0001
0100
1000
0010
0100
0001
,  // measure 49
0020
0000
0100
0000
0130
0001
1000
0100
0020
0000
0100
0000
0130
0001
0010
0100
,  // measure 50
2000
0000
0001
0000
3001
0010
0100
0010
2000
0000
0100
0000
3100
0010
0001
0010
,  // measure 51
0200
0000
1000
0000
1300
0100
0010
0001
0200
0000
0001
0000
0301
0010
0100
1000
,  // measure 52
0001
0000
0010
0000
0100
0000
1000
0000
0001
0000
0100
0000
0010
0100
1000
0100
,  // measure 53
0010
0000
0011
0000
0001
0100
0010
1000
0100
0000
0110
0000
0010
0001
0100
0010
,  // measure 54
1000
0000
1010
0000
1000
0100
0010
0001
0100
0000
0101
0000
0001
0010
0100
1000
,  // measure 55
0010
0000
1010
0000
1000
0100
0001
0010
0100
0000
0110
0000
0010
0001
0100
0010
,  // measure 56
1000
0000
1010
0000
0010
0001
0100
0010
1000
0000
1001
0000
0001
0100
0010
1000
,  // measure 57
0100
0000
0010
0000
0001
0000
1000
0000
0100
0000
0001
0000
1000
0010
0001
0000
,  // measure 58
1001
2002
3003
0000
0000
0000
0000
0000
;
