#VERSION:0.83;
#TITLE:MY SWEET DARLIN';
#SUBTITLE:;
#ARTIST:WILDSIDE;
#TITLETRANSLIT:;
#SUBTITLETRANSLIT:;
#ARTISTTRANSLIT:;
#GENRE:;
#ORIGIN:;
#CREDIT:;
#BANNER:MY SWEET DARLIN'.png;
#BACKGROUND:MY SWEET DARLIN'-bg.png;
#PREVIEWVID:;
#JACKET:MY SWEET DARLIN'-jacket.png;
#CDIMAGE:;
#DISCIMAGE:;
#LYRICSPATH:;
#CDTITLE:;
#MUSIC:MY SWEET DARLIN'.ogg;
#OFFSET:0.000000;
#SAMPLESTART:43.490002;
#SAMPLELENGTH:15.000000;
#SELECTABLE:YES;
#DISPLAYBPM:157.000000;
#BPMS:0.000=156.513,
4.000=156.994;
#STOPS:;
#DELAYS:;
#WARPS:;
#TIMESIGNATURES:0.000=4=4;
#TICKCOUNTS:0.000=4;
#COMBOS:0.000=1;
#SPEEDS:0.000=1.000=0.000=0;
#SCROLLS:0.000=1.000;
#FAKES:;
#LABELS:0.000=Song Start;
#BGCHANGES:;
#KEYSOUNDS:;
#ATTACKS:
;

//---------------dance-single - ----------------
#NOTEDATA:;
#CHARTNAME:;
#STEPSTYPE:dance-single;
#DESCRIPTION:;
#CHARTSTYLE:;
#DIFFICULTY:Beginner;
#METER:2;
#RADARVALUES:0.162502,0.282660,0.037500,0.012500,0.000000,91.000000,88.000000,3.000000,1.000000,0.000000,0.000000,0.000000,0.000000,0.000000,0.162502,0.282660,0.037500,0.012500,0.000000,91.000000,88.000000,3.000000,1.000000,0.000000,0.000000,0.000000,0.000000,0.000000;
#CREDIT:;
#DISPLAYBPM:157.000000;
#NOTES:
0000
0000
0000
0000
,
0000
0000
0000
0000
,
0000
0000
0000
0000
,
1000
0000
1000
0000
,
1000
0000
1000
0000
,
0001
0000
0001
0000
,
0001
0000
0001
0000
,
1000
0000
1000
0000
,
1000
0000
1000
0000
,
0001
0000
0001
0000
,
1001
0000
0000
0000
,
0000
0100
0000
0100
,
0000
1000
0000
1000
,
0000
0100
0000
0100
,
0000
1000
0000
1000
,
0000
0001
0000
0001
,
0000
0100
0000
0100
,
0000
0001
0000
0001
,
0000
0010
0000
0010
,
0000
0100
0000
0100
,
0000
0010
0000
0010
,
0000
0100
0000
0100
,
0000
0010
0000
0010
,
0010
0010
0010
0010
,
0000
0110
0000
1001
,
0000
0100
0000
0100
,
0000
0001
0000
0001
,
0000
0100
0000
0100
,
0000
1000
1000
1000
,
0000
0000
0001
0001
,
0000
0000
0001
0001
,
0000
0000
1000
1000
,
0000
0000
1000
1000
,
0000
0000
0001
0001
,
0000
0000
0001
0001
,
0000
0000
1000
1000
,
0000
0000
1000
0000
,
0100
0000
0001
0000
,
1000
0000
0100
0000
,
0001
0000
1000
0000
,
0100
0000
0001
0000
,
0100
0000
0000
0000
,
0000
0000
0000
0000
,
0100
0000
0000
0000
,
0000
0000
0000
0000
,
0000
1000
0000
0001
,
0000
1000
0000
0001
,
0000
1000
0000
0001
,
0000
1000
0000
0001
,
0002
0000
0000
0000
,
0000
0003
0000
0000
;

//---------------dance-single - ----------------
#NOTEDATA:;
#CHARTNAME:;
#STEPSTYPE:dance-single;
#DESCRIPTION:;
#CHARTSTYLE:;
#DIFFICULTY:Easy;
#METER:4;
#RADARVALUES:0.221431,0.282660,0.050001,0.062501,0.000000,124.000000,120.000000,4.000000,5.000000,0.000000,0.000000,0.000000,0.000000,0.000000,0.221431,0.282660,0.050001,0.062501,0.000000,124.000000,120.000000,4.000000,5.000000,0.000000,0.000000,0.000000,0.000000,0.000000;
#CREDIT:;
#DISPLAYBPM:157.000000;
#NOTES:
0000
0000
0000
0000
,
0000
0000
0000
0000
,
0000
0000
0000
0000
,
1000
0000
0001
0000
,
1000
0000
0001
0000
,
1000
0000
0001
0000
,
1000
0000
0001
0000
,
1000
0000
0001
0000
,
1000
0000
0001
0000
,
2000
3000
2000
3000
,
0002
0000
0000
0003
,
0000
0100
0010
0000
,
0000
1000
0001
0000
,
0000
0100
0001
0000
,
0000
1000
0010
1000
,
0001
0000
0001
0000
,
0100
0000
0100
0010
,
1000
0000
1000
0000
,
0010
0000
0010
0100
,
0001
0000
1000
0000
,
0001
0000
1000
0000
,
0010
0000
0010
0000
,
0100
0100
0100
0100
,
0002
0000
0000
1003
,
0000
1001
1001
1001
,
0000
0100
0000
0100
,
0000
0001
0000
0001
,
0000
0100
0000
0010
,
1000
1000
1000
1000
,
0001
0001
0001
0001
,
0001
0001
0001
1000
,
1000
1000
1000
1000
,
1000
0010
1000
0010
,
0100
0100
0100
0100
,
0100
0100
0100
0001
,
1000
0001
1000
0001
,
1000
0001
1000
0001
,
0100
0100
0100
0100
,
0100
0100
0100
0010
,
1000
0010
1000
0010
,
1000
0001
1000
0001
,
0100
0000
0000
0000
,
0000
0000
0000
0000
,
0100
0000
0000
0000
,
0000
0000
0000
1001
,
0000
1000
0000
0001
,
0000
1000
0000
0001
,
0000
1000
0000
0001
,
0000
1000
0001
0001
,
0200
0000
0000
0000
,
0000
0300
0000
0000
;

//---------------dance-single - ----------------
#NOTEDATA:;
#CHARTNAME:;
#STEPSTYPE:dance-single;
#DESCRIPTION:;
#CHARTSTYLE:;
#DIFFICULTY:Medium;
#METER:7;
#RADARVALUES:0.335718,0.376880,0.137502,0.550007,0.000000,188.000000,177.000000,11.000000,44.000000,0.000000,0.000000,0.000000,0.000000,0.000000,0.335718,0.376880,0.137502,0.550007,0.000000,188.000000,177.000000,11.000000,44.000000,0.000000,0.000000,0.000000,0.000000,0.000000;
#CREDIT:;
#DISPLAYBPM:157.000000;
#NOTES:
0000
0000
0000
0000
,
0000
0000
0000
0000
,
0000
0000
0000
0000
,
2000
3100
0002
0103
,
2000
3100
0002
0103
,
2000
3100
0002
0103
,
2000
3100
0002
0103
,
2000
3100
0002
0103
,
2000
3100
0002
0103
,
0100
0000
0100
0100
,
0002
0000
1003
1001
,
0100
0100
0001
1000
,
0010
1000
0100
1000
,
0001
0001
1000
0001
,
1000
0010
1000
0100
,
0010
0010
0010
0010
,
0001
0001
1000
0001
,
0100
0010
1000
0001
,
1000
0010
1000
0001
,
0100
0010
0100
0001
,
1000
1000
0001
0001
,
0010
0002
1003
0002
,
1003
0020
0130
0020
,
1030
1000
1000
1001
,
0200
0302
2003
3020
,
0130
0101
1000
1100
,
1000
1000
1000
0001
,
0200
0300
0200
0300
,
0010
0010
2000
3002
,
0103
0100
0010
1000
,
0002
0103
0100
1001
,
0100
0001
0100
0001
,
1000
0010
0200
0302
,
1003
1000
1000
0010
,
0200
0301
0001
1000
,
0010
0100
0010
1000
,
0001
0100
0020
2030
,
3001
0001
1001
1001
,
2002
3003
1000
0010
,
0100
0100
0001
1000
,
0010
0100
0010
0000
0100
0000
0001
0000
,
2000
0000
3000
1001
,
0100
0001
1000
0010
,
0200
0000
0300
0110
,
1000
0010
0100
1001
,
2000
3100
0002
0103
,
2000
3100
0002
0103
,
2000
3100
0002
0103
,
2000
3100
0002
0103
,
2000
0000
0000
0000
,
0000
3000
0000
0000
;

//---------------dance-single - ----------------
#NOTEDATA:;
#CHARTNAME:;
#STEPSTYPE:dance-single;
#DESCRIPTION:;
#CHARTSTYLE:;
#DIFFICULTY:Hard;
#METER:12;
#RADARVALUES:0.514292,0.596726,0.200002,0.312504,0.043751,288.000000,272.000000,16.000000,25.000000,0.000000,0.000000,0.000000,0.000000,0.000000,0.514292,0.596726,0.200002,0.312504,0.043751,288.000000,272.000000,16.000000,25.000000,0.000000,0.000000,0.000000,0.000000,0.000000;
#CREDIT:;
#DISPLAYBPM:157.000000;
#NOTES:
0000
0000
0000
0000
,
0000
0000
0000
0000
,
0000
0000
0000
0000
,
1000
0001
0001
1000
,
1000
0001
1000
0001
,
1000
0010
0100
0001
0000
1000
0001
1000
,
0000
0001
1000
0000
0010
0100
0001
1000
,
0001
0100
0010
1000
0000
0001
1000
0001
,
0000
1000
0001
0000
0100
0010
1000
0001
,
2000
0000
3001
0100
0000
0001
1000
0000
,
0100
0010
0100
1000
0100
0010
0001
1000
,
0000
0100
0001
0100
0001
0000
1000
0010
,
1000
0100
1000
0100
0000
1000
1000
0001
,
0100
0000
0010
0010
1000
0000
0001
0001
,
0200
0010
0310
0010
2000
0000
3001
0000
,
0110
0010
0010
0010
1000
0010
0010
0010
,
0100
0001
0001
0001
1000
0000
1001
0001
,
0100
0000
0010
1000
0001
0000
0100
0010
,
2000
0000
3001
0001
0001
0100
0010
1000
,
0001
0000
0101
0100
0010
1000
0010
1000
,
0001
0000
0200
0001
0301
0000
1001
1000
,
0001
0101
1000
1100
,
0001
0011
1000
1020
,
0230
0000
0001
0000
0001
0001
0301
0001
,
1000
0000
0001
0000
1000
0000
0001
0000
1000
0001
1000
0001
1000
0001
1000
0001
,
0100
0020
1030
1000
,
2000
0000
3001
0000
0001
0100
0010
0000
,
2000
3000
2000
3000
,
0010
0000
0100
0001
1000
0000
0010
0000
2000
0000
0001
0000
3002
0000
2000
0000
,
0003
0000
3010
0000
0010
1000
0010
0100
,
0000
0100
0000
0100
0001
0000
1000
0020
,
0100
0000
0130
0000
0001
1000
0001
0000
,
0100
0010
1000
0000
0002
0010
0023
0200
,
0030
0000
1300
0000
1000
0010
0100
0001
,
0000
0100
0010
0000
1000
0000
1001
0000
,
2000
0000
3020
0100
0030
0100
0001
1000
,
0010
0100
0001
0000
1100
0000
0101
0000
,
0200
0000
0010
0000
0310
1000
0001
0000
,
1000
0001
0000
0001
0100
0000
1001
0000
,
0220
0000
0330
0000
1001
0000
0100
0010
,
1000
0000
0001
0000
1000
0000
0010
0000
0100
0000
0010
0000
0100
0010
0100
0010
,
2000
0001
0001
0001
,
0001
0001
3001
1001
,
0100
0010
1000
0001
0000
1000
0010
1000
,
0000
0001
0010
0000
0100
1000
1001
0000
,
1000
0001
0001
1000
0000
0010
0100
0001
,
0000
1000
0010
0000
0100
0001
0100
0001
,
1000
0010
0010
0100
0000
0001
0100
0010
,
0000
1000
0001
0000
0100
0010
1000
0001
,
0200
0000
0000
0000
,
0000
0300
0000
0000
;

//---------------dance-double - ----------------
#NOTEDATA:;
#CHARTNAME:;
#STEPSTYPE:dance-double;
#DESCRIPTION:;
#CHARTSTYLE:;
#DIFFICULTY:Easy;
#METER:4;
#RADARVALUES:0.251789,0.408286,0.162502,0.062501,0.000000,141.000000,128.000000,13.000000,5.000000,0.000000,0.000000,0.000000,0.000000,0.000000,0.251789,0.408286,0.162502,0.062501,0.000000,141.000000,128.000000,13.000000,5.000000,0.000000,0.000000,0.000000,0.000000,0.000000;
#CREDIT:;
#DISPLAYBPM:157.000000;
#NOTES:
00000000
00000000
00000000
00000000
,
00000000
00000000
00000000
00000000
,
00000000
00000000
00000000
00000000
,
00100000
00000000
00001000
00000000
,
01000000
01000000
00010000
00000000
,
10000000
00000000
01000000
00000000
,
00010000
00010000
00000100
00000000
,
00001000
00000000
00000001
00000000
,
00001000
00001000
00000100
00000000
,
00010000
00000000
00001000
00000000
,
00022000
00000000
00033000
00011000
,
01000000
00000000
01000000
00000000
,
00010000
00000000
10000000
00000000
,
00010000
00000000
01000000
00000000
,
00001000
00000000
00001000
00011000
,
00000100
00000000
00000100
00000000
,
00001000
00000000
00000010
00001000
,
00000001
00000000
00000001
00000000
,
00000010
00000001
00000000
00001001
,
00001000
00001000
00001000
00001000
,
00000100
00000100
00000100
00000100
,
00010000
00011000
01000000
01100000
,
10000000
10010000
00010000
10010000
,
10000000
00020000
00000000
01030000
,
00100000
00100000
00100000
10010000
,
01000000
01000000
00001000
00000000
,
00002000
00000000
00003000
00010000
,
00010000
00000000
00010000
00000000
,
00000100
00000100
00000000
00001001
,
00001000
00000000
00010000
01000000
,
00100000
00000000
10000000
00010000
,
01000000
00000000
00010000
00001000
,
00000100
00001000
00000000
00001001
,
00001000
00000000
00010000
01000000
,
00100000
00000000
10000000
00010000
,
01000000
00000000
00010000
00001000
,
00000100
00001000
00000000
00001001
,
00001000
00000000
00010000
01000000
,
00100000
00000000
10000000
00010000
,
01000000
00000000
00010000
00001000
,
00000100
00001000
00001000
00001000
,
00000001
00000000
00000001
00000000
,
00000001
00000000
00000001
00000000
,
00001000
00000000
00001000
00000000
,
00001000
00000000
00001000
00001001
,
00000100
00000000
00010000
00000000
,
01000000
00000000
10000000
00010000
,
01000000
00000000
00001000
00000000
,
00000100
00000000
00000001
00001000
,
00000020
00000000
00000000
00000000
,
00000000
00000030
00000000
00000000
,
00000000
00000000
00000000
00000000
;

//---------------dance-double - ----------------
#NOTEDATA:;
#CHARTNAME:;
#STEPSTYPE:dance-double;
#DESCRIPTION:;
#CHARTSTYLE:;
#DIFFICULTY:Medium;
#METER:5;
#RADARVALUES:0.369647,0.471100,0.287504,0.312504,0.000000,207.000000,184.000000,23.000000,25.000000,0.000000,0.000000,0.000000,0.000000,0.000000,0.369647,0.471100,0.287504,0.312504,0.000000,207.000000,184.000000,23.000000,25.000000,0.000000,0.000000,0.000000,0.000000,0.000000;
#CREDIT:;
#DISPLAYBPM:157.000000;
#NOTES:
00000000
00000000
00000000
00000000
,
00000000
00000000
00000000
00000000
,
00000000
00000000
00000000
00000000
,
00000100
00000100
00000010
00010000
,
00001000
00100000
01000000
10000000
,
10000000
10000000
00010000
01000000
,
00001000
00000010
00000100
00000001
,
00000100
00000100
00000010
00000001
,
00001000
00000100
00010000
00100000
,
20000000
00010000
30010000
10010000
,
00100000
00001000
00000010
00001001
,
00000100
00000020
00000130
00000010
,
00001000
00010000
00100000
01000000
,
10000000
10000000
00100000
01000000
,
00020000
10000000
10030000
10010000
,
02000000
03010000
00020000
10030000
,
00100000
01000000
00010000
00001000
,
00000100
00000010
00000001
00001000
,
00000010
00002000
00000001
00003001
,
00000200
00000010
00000301
00001000
,
00000010
00010010
00011000
01001000
,
00010000
10010000
00100000
01100000
,
02200000
00300000
00010000
03010000
,
20000000
30010000
00020000
10030000
,
10000000
00000000
10000000
00000000
10000000
10000000
10000000
10000000
,
01000000
01001000
00001000
00000100
,
00002000
00000001
00003001
00001001
,
00000100
00000010
00010000
00011000
,
01000000
01000000
01000000
00000000
00010000
00000000
10010000
00000000
,
20020000
30030000
01000000
00010000
,
00200000
00001000
00301000
00011000
,
01000000
00011000
00000100
00011000
,
00010000
00000010
00000100
00000110
,
00002000
00000001
00003001
00001001
,
00000100
00001000
00010000
01000000
,
20000000
00010000
30010000
10010000
,
01000000
00200000
01300000
10010000
,
20000000
30010000
00020000
10030000
,
10000000
01000000
00100000
00001000
,
00000100
00000100
00000020
00001030
,
00000001
00001001
00000200
00000310
,
00002000
00000000
00003000
00001000
,
00002000
00000000
00003000
00001000
,
00001000
00001000
00001000
00001000
,
00001000
00000001
00001000
00001001
,
00000010
00001000
00010000
01000000
,
01000000
00000000
00100000
00000000
10000000
00000000
00010000
10000000
,
01000000
00010000
00001000
00000100
,
00000001
00000000
00001000
00000000
00000010
00000000
00000100
00000001
,
00002000
00000000
00000000
00000000
,
00000000
00003000
00000000
00000000
,
00000000
00000000
00000000
00000000
;

//---------------dance-double - ----------------
#NOTEDATA:;
#CHARTNAME:;
#STEPSTYPE:dance-double;
#DESCRIPTION:;
#CHARTSTYLE:;
#DIFFICULTY:Hard;
#METER:8;
#RADARVALUES:0.467863,0.628133,0.237503,0.112501,0.025000,262.000000,243.000000,19.000000,9.000000,0.000000,0.000000,0.000000,0.000000,0.000000,0.467863,0.628133,0.237503,0.112501,0.025000,262.000000,243.000000,19.000000,9.000000,0.000000,0.000000,0.000000,0.000000,0.000000;
#CREDIT:;
#DISPLAYBPM:157.000000;
#NOTES:
00000000
00000000
00000000
00000000
,
00000000
00000000
00000000
00000000
,
00000000
00000000
00000000
00000000
,
00000001
00000000
00001000
00000000
,
00010000
00000000
10000000
00000000
,
10000000
00010000
00001000
00000001
,
00000100
00000010
00001000
00000000
00000001
00000100
00000001
00000000
,
00000001
00001000
00010000
10000000
,
00100000
01000000
00010000
00000000
10000000
00100000
01000000
00010000
,
10000000
00000000
00100000
01000000
00000000
00010000
01000000
00000000
,
00001000
00011000
01000000
00011000
,
00000010
00000000
00001000
00000000
00001000
00000000
00001000
00000001
,
00000100
00010000
01000000
00010000
10000000
00000000
10000000
00100000
,
01000000
00000000
00001000
00000000
00000100
00000000
00000010
00001000
,
00000001
00000100
00000010
00001000
00000001
00000000
00001001
00000000
,
00000100
00010000
01000000
00001000
,
00000100
00010000
01000000
01100000
,
10010000
00000000
10000000
01000000
00010000
00000000
10000000
00100000
,
01000000
00001000
00010000
00001010
,
00000100
00000000
00000101
00000000
00001000
00000010
00010000
00000100
,
00001000
00000000
00000000
00010000
,
10000000
11000000
00100000
00101000
,
00010000
00010010
00000100
00000101
,
00000010
00000000
00011000
00000000
00010000
00001000
00010000
00001000
,
00010000
00000000
00001000
00000000
00010000
00000000
00001000
00000000
00010000
00001000
00010000
00001000
00010000
00001000
00010000
00001000
,
00010000
00001000
01000000
00100000
,
10000000
00000000
10000000
00000000
10000000
00100000
10000000
00010000
,
01000000
00010000
00100000
00001000
00010000
00000000
00010010
00000000
,
00002200
00000000
00003300
00000000
00000010
00001000
00001000
00000200
,
00010000
00000000
00010300
00000000
00000010
00001000
00000001
00000100
,
00000000
00000010
00000000
00000000
00001000
00000000
00011000
00000000
,
01000000
00011000
00000100
00011000
,
01000000
00001000
01000000
00000000
00100000
10000000
00010000
02000000
,
00001000
03001000
00001000
00010000
,
00000010
00000000
00001000
00000000
00000200
00000000
00010300
00001000
,
00100000
00001000
01000000
00000000
00001000
00100000
00001000
00000000
,
00010000
00000010
00010000
00000000
00001000
00000010
00001000
00000002
,
00000100
00000000
00001003
00000100
00010000
01000000
00100000
00000000
,
00010000
10000000
00010000
01000000
00100000
00000000
10010000
00000000
,
00100000
00001000
00010000
00000020
,
00001000
00000000
00001030
00000010
00001000
00000010
00001000
00000001
,
00000200
00000000
00000310
00000000
00000010
00001000
00100000
00000000
,
01000000
00100000
10000000
00000000
10000000
00010000
01000000
00010000
,
00100000
00001000
00000010
00000100
00000000
00001000
00000001
00000100
,
00000000
00000010
00010000
00001000
00100000
00000000
00101000
00000000
,
10000000
00000000
00010000
00000000
00001000
00000010
00001000
00000000
,
00001000
00000010
00000100
00000001
00001000
00000000
00001000
00000000
,
00000001
00000000
00001000
00000000
00010000
01000000
00010000
00000000
,
00010000
01000000
00100000
10000000
00010000
00000000
00010000
01000000
,
00002000
00000000
00000000
00000000
,
00000000
00003000
00000000
00000000
,
00000000
00000000
00000000
00000000
;

//---------------dance-single - ----------------
#NOTEDATA:;
#CHARTNAME:;
#STEPSTYPE:dance-single;
#DESCRIPTION:;
#CHARTSTYLE:;
#DIFFICULTY:Challenge;
#METER:16;
#RADARVALUES:0.703580,0.973606,0.300004,0.412505,0.537507,394.000000,370.000000,24.000000,33.000000,0.000000,0.000000,0.000000,0.000000,0.000000,0.703580,0.973606,0.300004,0.412505,0.537507,394.000000,370.000000,24.000000,33.000000,0.000000,0.000000,0.000000,0.000000,0.000000;
#CREDIT:;
#DISPLAYBPM:157.000000;
#NOTES:
// measure 0
0000
0000
0000
0000
,  // measure 1
0000
0000
0000
0000
,  // measure 2
0000
0000
0000
0000
,  // measure 3
1000
0100
0001
0100
0000
0100
1000
0100
,  // measure 4
0000
0100
0001
0100
1000
0100
0001
0000
,  // measure 5
0001
0100
1000
0100
0000
0100
0001
0100
,  // measure 6
0000
0100
1000
0100
0001
0100
1000
0000
,  // measure 7
1000
0100
0010
0100
0000
0100
1000
0100
,  // measure 8
0000
0100
0010
0100
1000
0100
0010
0000
,  // measure 9
0010
0000
0001
0000
0100
0000
0001
0000
0010
0000
0001
0000
1000
0000
0001
1000
,  // measure 10
0020
0000
0000
0000
0000
0000
0100
0130
,  // measure 11
0001
0000
0010
0100
0010
0000
0001
0000
0100
0000
0000
0000
1000
0000
0001
0000
,  // measure 12
1000
0000
0100
0000
0010
0000
0100
0000
0000
0000
0100
0000
0100
1000
0100
0000
,  // measure 13
1000
0000
0000
1000
0001
0000
0000
0001
0010
0000
0000
0010
0001
0000
0100
0000
,  // measure 14
0000
0000
0110
0000
0000
0000
1010
0000
0000
0000
2000
0000
3100
0000
0010
0100
,  // measure 15
1000
0000
0100
1000
0100
0000
2000
0000
3000
0000
0001
0100
0001
0000
0020
0000
,  // measure 16
0030
0000
1000
0010
1000
0000
0200
0000
0300
0000
0001
0000
1000
0000
0100
0000
,  // measure 17
1000
0000
1100
0000
0101
0000
0110
0100
,  // measure 18
0001
0000
0000
0000
0010
1000
0000
0000
0001
1000
0001
1000
0001
0000
1000
0000
,  // measure 19
0001
0000
0010
0100
0010
0000
0001
0000
0100
0000
0010
0000
1000
0000
0001
0000
,  // measure 20
1000
0000
0100
0000
0010
0000
0000
0000
0010
0001
0010
0001
0010
0000
0001
0000
,  // measure 21
0100
0010
0100
0000
0010
0000
0000
0000
0010
1000
0010
0000
1000
0000
0000
0000
,  // measure 22
1000
0001
1000
0000
0001
0000
0001
0010
0001
0000
0010
0000
0100
0000
1000
0000
,  // measure 23
0100
0000
1000
0000
1000
0001
1000
0001
1000
0001
1000
0001
1000
0001
1000
0001
,  // measure 24
1000
0001
1000
0001
1000
0001
1000
0001
1000
0001
1000
0001
1000
0001
1000
0001
,  // measure 25
2000
3002
0203
0320
,  // measure 26
2030
0000
3002
0000
1003
0100
0010
0100
,  // measure 27
1000
0100
1000
0100
2000
0000
0000
0000
3002
0000
0000
0000
0203
0000
0000
0000
,  // measure 28
0310
0000
0010
0100
0001
0000
0001
0010
0100
1000
0100
1000
0001
1000
0001
0100
,  // measure 29
0010
0000
0000
0000
0110
0000
0010
0100
0010
0000
1000
0000
0001
0000
0100
0000
,  // measure 30
0000
0000
0202
0000
0303
0000
0000
0000
1001
0000
0000
1000
0001
0000
1000
0000
,  // measure 31
0000
0000
2002
0000
3003
0000
0000
0000
1100
0000
0000
1000
0100
0000
1000
0000
,  // measure 32
0000
0000
0100
0000
1000
0100
0010
0000
0100
1000
0100
1000
0001
1000
0001
1000
,  // measure 33
0010
0000
0000
0000
0110
0000
0010
0100
0010
0000
1000
0000
0100
0000
1000
0000
,  // measure 34
0000
0000
2002
0000
3003
0000
0000
0000
0101
0000
0000
0001
0100
0000
0001
0000
,  // measure 35
0000
2020
3030
1000
0100
0010
0100
2000
,  // measure 36
3000
0000
1010
0000
0000
0000
0010
0100
0001
0100
0001
0100
0010
1000
0010
1000
,  // measure 37
0001
0000
0000
0000
1001
0000
0001
1000
0001
0000
1000
0000
0100
0000
0010
0000
,  // measure 38
0000
0000
0220
0000
0330
0000
0000
0000
0110
0000
0000
0100
1000
0000
0001
0000
,  // measure 39
0000
0000
2002
0000
3003
0000
0000
0000
1001
0000
0000
0001
0010
0000
0011
0000
,  // measure 40
0000
0000
0100
0001
0100
0001
1000
0010
1000
0010
1000
0100
1000
0100
0010
0001
,  // measure 41
0020
0000
0001
0000
0100
0000
0001
0030
,  // measure 42
0200
0000
0000
0000
0001
0000
0000
0000
0010
0000
0000
0000
0301
0010
0100
1000
,  // measure 43
0002
0010
0100
1000
,  // measure 44
2003
0000
0000
0000
0001
0000
0000
0000
0010
0000
0000
0000
3100
1000
0010
0100
,  // measure 45
0001
0000
1000
0001
1000
0000
1001
0000
0001
0000
1000
0100
0010
0000
0100
0000
,  // measure 46
1000
0000
0001
0100
0010
1000
0001
0000
1000
0000
1001
0000
0001
0000
1000
0010
,  // measure 47
0100
0000
0001
1000
0001
0000
1001
0000
1000
0000
0001
1000
0100
0000
1000
0000
,  // measure 48
0010
1000
0010
1000
0001
1000
0001
1000
0010
1000
0001
1000
0010
1000
0100
2000
,  // measure 49
0020
0000
0000
0000
,  // measure 50
0000
3030
0000
0000
;
