#VERSION:0.83;
#TITLE:MY GENERATION (Fat Beat Mix);
#SUBTITLE:;
#ARTIST:CAPTAIN JACK;
#TITLETRANSLIT:;
#SUBTITLETRANSLIT:;
#ARTISTTRANSLIT:;
#GENRE:;
#ORIGIN:;
#CREDIT:;
#BANNER:MY GENERATION (Fat Beat Mix).png;
#BACKGROUND:MY GENERATION (Fat Beat Mix)-bg.png;
#PREVIEWVID:;
#JACKET:MY GENERATION (Fat Beat Mix)-jacket.png;
#CDIMAGE:;
#DISCIMAGE:;
#LYRICSPATH:;
#CDTITLE:;
#MUSIC:MY GENERATION (Fat Beat Mix).ogg;
#OFFSET:0.000000;
#SAMPLESTART:44.382000;
#SAMPLELENGTH:15.000000;
#SELECTABLE:YES;
#DISPLAYBPM:140.000000;
#BPMS:0.000=140.006,
4.000=139.989;
#STOPS:;
#DELAYS:;
#WARPS:;
#TIMESIGNATURES:0.000=4=4;
#TICKCOUNTS:0.000=4;
#COMBOS:0.000=1;
#SPEEDS:0.000=1.000=0.000=0;
#SCROLLS:0.000=1.000;
#FAKES:;
#LABELS:0.000=Song Start;
#BGCHANGES:;
#KEYSOUNDS:;
#ATTACKS:
;

//---------------dance-single - ----------------
#NOTEDATA:;
#CHARTNAME:;
#STEPSTYPE:dance-single;
#DESCRIPTION:;
#CHARTSTYLE:;
#DIFFICULTY:Easy;
#METER:5;
#RADARVALUES:0.296587,0.275818,0.097827,0.010870,0.000000,191.000000,182.000000,9.000000,1.000000,0.000000,0.000000,0.000000,0.000000,0.000000,0.296587,0.275818,0.097827,0.010870,0.000000,191.000000,182.000000,9.000000,1.000000,0.000000,0.000000,0.000000,0.000000,0.000000;
#CREDIT:;
#DISPLAYBPM:140.000000;
#NOTES:
0000
0000
0000
0000
,
0000
0000
0000
0000
,
0000
0000
0000
0000
,
0100
0010
1000
0001
,
0100
0100
0100
1001
,
0010
0010
1000
0001
,
0100
0100
0001
1000
,
0010
0100
0001
1000
,
0010
0000
1000
1001
,
0100
0000
0100
0001
,
1000
0000
1000
0001
,
0100
0001
1000
0010
,
0100
0000
0000
0000
0100
0001
0010
0000
,
0001
0000
1000
0010
,
0100
0001
1000
0010
,
0100
0100
0001
0001
,
1000
0000
1000
0000
1000
0001
1000
0000
,
0010
0100
0001
1000
,
0010
0100
0001
1000
,
0010
1000
0001
0100
,
0001
0001
1000
1001
,
0100
0001
1000
0010
,
0100
0001
1000
0010
,
1000
1000
0010
1000
,
0001
1000
0010
1001
,
0100
0000
0000
0110
,
0001
0000
0100
0010
,
1000
1000
0001
0100
,
0010
1000
0001
0100
,
0001
0000
0001
1001
,
0100
0000
0001
1000
,
0010
0010
0100
0001
,
1000
0010
0100
0001
,
1000
1000
0010
0110
,
0001
1000
0100
0100
,
1000
0001
0100
0100
,
0010
0000
0010
1000
,
0001
0100
0010
0110
,
0100
0001
0001
1000
,
0010
0100
0100
0001
,
1000
0000
1000
0010
,
0100
0001
1000
1001
,
0100
0001
1000
0010
,
0100
0100
0001
1000
,
0010
0010
0100
0001
,
1000
0010
0100
0001
,
1000
1000
1000
1000
,
0001
0100
0100
0010
,
1000
0001
0100
0010
,
1000
0000
0010
0000
0100
0000
0001
1000
,
0002
0000
1000
1003
;

//---------------dance-single - ----------------
#NOTEDATA:;
#CHARTNAME:;
#STEPSTYPE:dance-single;
#DESCRIPTION:;
#CHARTSTYLE:;
#DIFFICULTY:Medium;
#METER:9;
#RADARVALUES:0.381992,0.388048,0.141306,0.021739,0.000000,246.000000,233.000000,13.000000,2.000000,0.000000,0.000000,0.000000,0.000000,0.000000,0.381992,0.388048,0.141306,0.021739,0.000000,246.000000,233.000000,13.000000,2.000000,0.000000,0.000000,0.000000,0.000000,0.000000;
#CREDIT:;
#DISPLAYBPM:140.000000;
#NOTES:
0000
0000
0000
0000
,
0000
0000
0000
0000
,
0000
0000
0000
0000
,
0100
0000
0100
0000
0001
0100
1000
0100
,
0001
0000
0000
0000
0001
0000
1000
0010
,
0100
0000
0001
0000
0001
0100
1000
0100
,
0010
0000
1000
0000
1000
0100
0001
0100
,
0010
0000
0001
0000
1000
0000
0100
0100
,
1000
0000
0000
0000
0001
0000
0001
0001
,
0100
0000
0100
0000
0001
1000
0001
0000
,
0100
0000
0100
0000
0010
1000
0010
0000
,
0100
0001
1000
0010
,
0100
0000
0100
1001
,
0001
1000
0000
0000
0001
0000
0100
0010
,
1000
0000
1000
0000
1000
0010
0100
0000
,
0001
0100
0010
1000
,
0000
0010
0100
0000
0001
0000
1001
0000
,
1000
0000
0010
0000
0100
0001
1000
0000
,
0001
0000
0100
0000
0010
1000
0001
0000
,
0100
0000
0001
0000
1000
0010
1000
0010
,
0100
0001
1000
1100
,
0001
0000
1000
0000
0001
0100
1000
0000
,
0100
0000
0010
0000
1000
0100
0001
0000
,
0100
0000
1000
0100
0010
0000
0001
0000
,
1000
1010
0100
0101
,
1000
0000
0000
0001
1000
0000
1001
0000
,
0100
0001
0100
1000
,
0100
0000
0100
0010
0100
0000
0001
0000
,
1000
0100
0010
0000
,
0010
0000
0010
0001
1000
0000
1010
0000
,
0100
0001
1000
0010
,
0100
0000
0100
0001
1000
0010
1000
0001
,
0100
0000
0001
0000
1000
0000
0010
0010
,
0100
0001
1000
0010
0100
0000
0101
0000
,
1000
0000
0010
0000
0100
0001
1000
0010
,
0100
0000
0001
0000
1000
0010
0100
0001
,
1000
0000
1000
0000
1000
0000
0010
0100
,
0001
0101
1000
1100
,
0010
0000
0100
0000
0001
0010
0100
1000
,
0001
0000
1000
0000
0010
1000
0001
0100
,
0010
0000
0010
1000
0001
0000
1001
1000
,
0010
0100
0001
1001
,
0100
0100
0100
0100
,
0001
0000
1000
0000
0010
0000
0100
0001
,
1000
0100
0010
0001
,
1000
0000
1000
0010
0100
0001
0001
0000
,
1000
0000
1000
0000
1000
1000
1000
0000
,
0010
0000
0100
0000
0001
0000
1000
0010
,
0100
0000
0001
0000
0010
0000
0100
1000
,
0001
0100
0010
0000
1000
0000
1001
0000
,
0100
0000
0002
2000
,
3003
0000
0000
0000
;

//---------------dance-single - ----------------
#NOTEDATA:;
#CHARTNAME:;
#STEPSTYPE:dance-single;
#DESCRIPTION:;
#CHARTSTYLE:;
#DIFFICULTY:Hard;
#METER:11;
#RADARVALUES:0.462738,0.471201,0.489136,0.021739,0.146741,298.000000,253.000000,45.000000,2.000000,0.000000,0.000000,0.000000,0.000000,0.000000,0.462738,0.471201,0.489136,0.021739,0.146741,298.000000,253.000000,45.000000,2.000000,0.000000,0.000000,0.000000,0.000000,0.000000;
#CREDIT:;
#DISPLAYBPM:140.000000;
#NOTES:
0000
0000
0000
0000
,
0000
0000
0000
0000
,
0000
0000
0000
0000
,
0100
0000
0101
0000
1010
0000
0100
0010
,
0100
0101
1100
0101
,
0001
0000
0011
0000
1100
0000
1000
0010
,
0100
0000
0101
0000
1010
0000
1000
0100
,
0010
0000
1010
0000
0101
0000
0001
1000
,
0100
0000
0100
0000
0100
0000
0100
0010
,
1000
0001
0100
0000
0010
1000
0001
0000
,
0100
0010
1000
0010
0100
0100
0100
0000
,
0001
0000
0000
0000
0001
0000
1000
0000
0010
0100
0010
0000
1000
0000
0000
0000
,
0001
0101
1001
1100
,
0001
0100
0001
0000
1000
0100
1000
0010
,
0100
0000
0001
0000
0100
0000
0000
0000
0010
1000
0010
0000
0100
0000
0000
0000
,
0001
1000
0001
1000
0010
0000
0110
0000
,
0001
0000
0100
0000
1000
0000
0000
0000
1000
0100
1000
0000
0100
0000
0000
0000
,
1000
0101
0001
1100
,
1000
0011
0001
1010
,
0100
0101
1001
1100
,
1000
0010
0100
0001
,
0001
1010
1000
0011
,
0001
1100
1000
0101
,
0010
1010
1001
0011
,
0001
0100
0010
1000
,
0001
0000
0001
0001
1000
0000
1001
0000
,
0001
0000
0000
0001
0100
0000
0000
0100
0010
0000
0000
0010
1000
0000
0000
1000
,
0001
0000
0000
0001
1000
0000
0000
1000
0010
0000
0000
0010
0100
0000
0000
0100
,
0001
0000
0001
0000
,
1000
0000
1000
0010
0100
0000
1001
0000
,
1000
0000
0000
1000
0100
0000
0000
0100
0010
0000
0000
0010
0001
0000
0000
0001
,
1000
0000
0000
1000
0001
0000
0000
0001
0010
0000
0000
0010
0100
0000
0000
0100
,
1000
0000
1000
0000
,
0010
0000
0100
0001
1000
0000
0110
0000
,
0100
0000
0000
0100
0001
0000
0000
0001
1000
0000
0000
0000
0000
0000
0000
0000
,
0010
0000
0000
0010
1000
0000
0000
1000
0001
0000
0000
0000
0000
0000
0000
0000
,
0100
0000
0100
0000
0010
0100
0001
1000
,
0010
0010
0100
1001
,
1000
0000
0000
1000
0001
0000
0000
0001
0100
0000
0000
0000
0010
0000
0010
0000
,
1000
0000
0000
0000
0000
0000
0000
0000
0001
0000
0000
0001
0100
0000
0000
0100
,
0010
0000
0000
0000
1000
0000
0001
0001
,
0100
0010
1010
0101
,
1000
0000
1000
0001
1000
0000
1100
0000
,
0010
0000
0001
1000
0100
1000
0100
1000
,
0010
1010
1001
0101
,
1000
0010
0100
0000
0001
0000
1001
0000
,
0010
0000
0010
0100
0001
0000
0101
0000
,
1000
0010
1000
0010
0100
0001
0100
0001
,
1000
1100
0011
1001
,
0100
0001
0100
0001
1000
0010
1000
0001
,
0100
0100
0100
2002
,
3003
0000
0000
0000
;

//---------------dance-double - ----------------
#NOTEDATA:;
#CHARTNAME:;
#STEPSTYPE:dance-double;
#DESCRIPTION:;
#CHARTSTYLE:;
#DIFFICULTY:Easy;
#METER:3;
#RADARVALUES:0.277953,0.275818,0.043479,0.000000,0.000000,179.000000,175.000000,4.000000,0.000000,0.000000,0.000000,0.000000,0.000000,0.000000,0.277953,0.275818,0.043479,0.000000,0.000000,179.000000,175.000000,4.000000,0.000000,0.000000,0.000000,0.000000,0.000000,0.000000;
#CREDIT:;
#DISPLAYBPM:140.000000;
#NOTES:
00000000
00000000
00000000
00000000
,
00000000
00000000
00000000
00000000
,
00000000
00000000
00000000
00000000
,
01000000
00010000
10000000
00100000
,
01000000
01000000
01000000
00001000
,
00000100
00001000
00010000
00001000
,
00000100
00000010
00001000
00000001
,
00000100
00000010
00001000
00000100
,
00010000
00000000
00000000
00000000
,
00010000
00000000
01000000
10000000
,
00100000
01000000
00010000
10000000
,
00100000
00000000
00001000
00000100
,
00000010
00000001
00001000
00000100
,
00010000
00000000
00000010
00000100
,
00000001
00000001
00001000
01000000
,
00010000
01000000
00100000
00010000
,
10000000
01000000
00100000
10010000
,
01000000
00100000
10000000
00010000
,
01000000
00001000
00100000
00001000
,
00000100
00000100
00000010
00001000
,
00000001
00000100
00000010
00001000
,
00000010
00001000
00010000
01000000
,
00100000
10000000
00010000
01000000
,
00100000
10000000
10000000
00010000
,
01000000
00001000
00100000
00000000
,
00001000
00000000
00000100
00000001
,
00000010
00000100
00010000
00000100
,
00001000
00001000
00000001
00000001
,
00000100
00000010
00010000
00000000
,
00000000
00010000
01000000
00000000
,
00100000
00001000
01000000
00001000
,
00010000
00010000
00000010
00000100
,
00000001
00001000
00000100
00000000
,
00000000
00010000
00010000
00011000
,
01000000
10000000
01000000
00100000
,
01000000
00001000
00010000
00000010
,
00000100
00000000
00000100
00000001
,
00001000
00000010
00010000
00000110
,
00000010
00000001
00000010
00000100
,
00000010
00010000
00001000
01000000
,
00100000
00000000
00100000
10000000
,
00010000
01000000
00001000
01100000
,
00010000
00010000
00010000
00010000
,
00000100
00000100
00000100
00000010
,
00001000
00001000
00000001
00001000
,
00000010
00000100
00000001
00001000
,
00000010
00000010
00000010
00000010
,
00010000
00010000
00010000
00000100
,
00010000
01000000
00010000
00001000
,
00100000
00100000
00100000
00010000
,
10000000
00000000
00000000
10000000
,
00000000
00000000
00000000
00000000
;

//---------------dance-double - ----------------
#NOTEDATA:;
#CHARTNAME:;
#STEPSTYPE:dance-double;
#DESCRIPTION:;
#CHARTSTYLE:;
#DIFFICULTY:Medium;
#METER:5;
#RADARVALUES:0.385097,0.413727,0.130436,0.000000,0.000000,248.000000,236.000000,12.000000,0.000000,0.000000,0.000000,0.000000,0.000000,0.000000,0.385097,0.413727,0.130436,0.000000,0.000000,248.000000,236.000000,12.000000,0.000000,0.000000,0.000000,0.000000,0.000000,0.000000;
#CREDIT:;
#DISPLAYBPM:140.000000;
#NOTES:
00000000
00000000
00000000
00000000
,
00000000
00000000
00000000
00000000
,
00000000
00000000
00000000
00000000
,
10000000
00000000
10000000
00000000
00100000
00000000
01000000
00001000
,
00010000
00000000
00010000
00000000
00010000
00000000
00000100
00001000
,
00000010
00000000
00000010
00000000
00001000
00000000
00000001
00001000
,
00000100
00000000
00000100
00000000
00010000
00000000
01000000
00100000
,
00010000
00000000
00010000
00000000
10000000
00000000
00100000
01000000
,
00010000
00000000
00000000
00000000
00000100
00000000
00001000
00000100
,
00000010
00000000
00000001
00000000
00001000
00000010
00000100
00000000
,
00000001
00000100
00001000
00010000
,
01000000
00000000
01000000
00000000
10000000
00100000
01000000
00000000
,
00010000
00000100
00010000
01000000
,
00001000
00001000
00000000
00000000
01000000
00000000
10000000
00000000
,
01000000
00010000
10000000
00100000
,
00001000
00000010
00001000
00000001
,
00000100
00000100
00000100
00000000
00000001
00000000
00001001
00000000
,
00000100
00010000
01000000
00010000
,
00000010
00010000
01000000
00010000
,
00100000
10000000
00010000
01000000
,
00010000
00010000
10000000
00010000
,
01000000
00000000
00001000
00010000
00000100
00000000
00010000
00000000
,
00000010
00000000
00010000
00001000
00100000
00000000
00001000
00000000
,
00010000
00000000
00000010
00001000
00000010
00000000
00000100
00000000
,
00000001
00001000
00000001
00001000
,
00000010
00000010
00000000
00000000
00000100
00000000
00000001
00000000
,
00001000
00000100
00001000
00000100
00010000
00000000
01000000
00000000
,
10000000
00000000
00100000
01000000
00010000
00000000
10000000
00000000
,
00100000
01100000
01001000
00011000
,
00000100
00000000
00000100
00001000
00000010
00000100
00000010
00000000
,
00001000
00000010
00001000
00000010
00010000
00000000
00010010
00000000
,
00001000
00000000
01000000
00100000
01000000
00000000
00010000
00100000
,
01000000
01100000
00101000
00011000
,
00000010
00000000
00000010
00001000
00000100
00000000
00001001
00000000
,
00000010
00000000
00010000
00000000
00000010
00010000
01000000
01000000
,
10000000
00000000
00010000
00000000
01000000
00100000
01000000
00100000
,
01000000
00000000
00001000
00010000
00000010
00001000
00000010
00000100
,
00000001
00000100
00000010
00001000
,
00000100
00000000
00010000
00000000
00000100
00010000
01000000
01000000
,
10000000
00000000
00010000
00000000
00100000
01000000
00100000
01000000
,
00100000
00000000
00001000
00010000
00000100
00001000
00000100
00000010
,
00000001
00000010
00000100
00001001
,
00000010
00000000
00000010
00010000
00000100
00000000
00010100
00000000
,
00010000
00000000
01000000
00000000
10000000
00000000
00100000
01000000
,
00010000
01000000
10000000
00000000
00010000
01000000
10000000
00000000
,
01000000
01000000
01000000
01000000
,
00001000
00000000
00001000
00100000
00010000
00000000
00110000
00000000
,
01000000
00000000
00001000
00000000
00000100
00000000
00000010
00001000
,
00000001
00000100
00001000
00000000
00000001
00000100
00001000
00000100
,
00000010
00000000
00000010
00000000
00000010
00000000
00000010
00001000
,
00000100
00000000
00010000
00001000
,
00000000
00000000
00000000
00000000
;

//---------------dance-double - ----------------
#NOTEDATA:;
#CHARTNAME:;
#STEPSTYPE:dance-double;
#DESCRIPTION:;
#CHARTSTYLE:;
#DIFFICULTY:Hard;
#METER:6;
#RADARVALUES:0.462738,0.496473,0.250003,0.000000,0.038044,298.000000,275.000000,23.000000,0.000000,0.000000,0.000000,0.000000,0.000000,0.000000,0.462738,0.496473,0.250003,0.000000,0.038044,298.000000,275.000000,23.000000,0.000000,0.000000,0.000000,0.000000,0.000000,0.000000;
#CREDIT:;
#DISPLAYBPM:140.000000;
#NOTES:
00000000
00000000
00000000
00000000
,
00000000
00000000
00000000
00000000
,
00000000
00000000
00000000
00000000
,
10000000
00000000
00000000
00010000
10000000
00000000
00000000
00010000
01000000
00000000
00000000
00000000
01000000
00000000
00001000
00000000
,
00010000
00000000
00000000
00000000
00010000
00000000
00000000
00001000
00010000
00000000
00000000
00000000
00000100
00000000
00001000
00000000
,
00000010
00000000
00000000
00000100
00000010
00000000
00000000
00000100
00000001
00000000
00000000
00000000
00001000
00000000
00000010
00000000
,
00010000
00000000
00000000
00000010
00010000
00000000
00000000
00000010
00010000
00000000
00000000
00000000
00000100
00000000
00001000
00000000
,
01000000
00000000
00100000
00000000
00010000
00000000
10000000
00010000
,
01000000
00100000
01000000
00010000
10000000
00010000
10000000
00010000
,
01000000
01000000
00001000
00000000
00100000
00001000
00000100
00000000
,
00000100
00000010
00001000
00000000
00001000
00000010
00000100
00000000
,
00000001
00000100
00001000
00000000
00001000
01000000
00010000
00000000
,
10000000
00100000
01000000
00010000
10000000
00100000
01000000
00000000
,
00010000
00010000
00000000
00000000
01000000
00001000
01000000
00010000
,
00100000
00000000
00100000
00000000
00001000
00000100
00000010
00000000
,
00001000
00000001
00000100
00000000
00001000
00000001
00000100
00000000
,
00000010
00000100
00000001
00001000
00000010
00000100
00000001
00000000
,
00000100
00010000
01000000
00100000
,
10000000
01000000
00010000
00000010
,
00000100
00000000
00001000
00000000
00100000
00000000
01000000
10000000
,
00110000
10000000
10100000
00010000
,
00100000
00001000
00000100
00000010
,
00001000
00000010
00010000
01000000
,
00100000
00000000
00010000
00000000
00000100
00000000
00000010
00001000
,
00000101
00000000
00001000
00000000
00001100
00000000
00000001
00000001
,
00000100
00000000
00000100
00000010
00001000
00000000
00001001
00000000
,
00000100
00010000
00000100
00000000
00010000
00000000
01100000
00000000
,
10000000
00100000
10000000
00100000
01000000
00000000
01010000
00000000
,
01000000
00000000
00001000
00000000
00010000
00000000
00000010
00000100
,
00000001
00001000
00000010
00000100
00000001
00001001
00001001
00000000
,
00000010
00010000
00000010
00010000
00001000
00000000
01100000
00000000
,
10000000
01000000
10000000
01000000
00100000
00010000
01000000
00000000
,
00001000
00000000
00100000
00000000
00001000
00010000
00000100
00000000
,
00001000
00000001
00000100
00000010
00001000
00000010
00000110
00000000
,
00010000
00001000
01000000
00000000
00001000
00010000
00000100
00000000
,
00010000
00001000
00100000
00000000
00001000
00010000
00000010
00000000
,
00010000
00000000
01000000
00000000
10000000
01000000
10000000
00100000
,
01000000
01010000
10010000
00110000
,
00001000
00010000
00010010
00000000
00010000
00001000
01001000
00000000
,
00001000
00010000
00010100
00000000
00010000
00001000
00101000
00000000
,
00001000
00000000
00000100
00000000
00000010
00001000
00000010
00001000
,
00000001
00000100
00000010
00001010
,
00000100
00000100
00010000
00000000
01010000
00000000
01010000
00000000
,
00100000
00000000
01000000
00000000
00010000
10000000
00010000
10000000
,
00010000
00000100
00000010
00001000
,
00000001
00000100
00001000
00000100
00000001
00000001
00000001
00001000
,
00000001
00000000
00000100
00000000
00000010
00010000
01000000
00000000
,
00100000
00010000
10100000
01010000
,
01000000
00010000
00100000
00001000
01000000
00010000
10000000
00100000
,
01000000
00001000
00001000
00001000
00010000
00000010
00001000
00000010
,
00000100
00000000
00000100
00000010
00001000
00000001
00001000
00000000
,
00000000
00000000
00000000
00000000
;

//---------------dance-single - ----------------
#NOTEDATA:;
#CHARTNAME:;
#STEPSTYPE:dance-single;
#DESCRIPTION:;
#CHARTSTYLE:;
#DIFFICULTY:Beginner;
#METER:2;
#RADARVALUES:0.131989,0.275818,0.043479,0.130436,0.000000,85.000000,81.000000,4.000000,12.000000,0.000000,0.000000,0.000000,0.000000,0.000000,0.131989,0.275818,0.043479,0.130436,0.000000,85.000000,81.000000,4.000000,12.000000,0.000000,0.000000,0.000000,0.000000,0.000000;
#CREDIT:;
#DISPLAYBPM:140.000000;
#NOTES:
0000
0000
0000
0000
,
0000
0000
0000
0000
,
0000
0000
0000
0000
,
0010
0010
0010
0010
,
0000
0000
0000
0000
,
0100
0100
0100
0100
,
0000
0000
0000
0000
,
0010
0010
0010
0010
,
0220
0000
0000
0330
,
0100
0100
0100
0000
,
0010
0000
0010
0000
,
1000
1000
1000
0000
,
0100
0000
0100
0000
,
0002
0003
0001
0000
,
0010
0000
0010
0000
,
0010
0010
0010
0000
,
1000
0001
2002
3003
,
0000
0001
0000
0001
,
0000
0010
0000
0010
,
0000
1000
0000
1000
,
0000
0100
0000
0100
,
0000
0010
0000
0010
,
0000
0001
0000
0001
,
0000
0100
0000
0100
,
0000
0010
0020
0000
,
0030
0000
0000
0000
,
0100
0000
0000
0000
,
0000
0000
0000
0000
,
0010
0000
0000
0000
,
0000
0000
0000
0000
,
1000
0000
0000
0000
,
0000
0000
0000
0000
,
0001
0000
0000
0000
,
0000
0000
0000
0000
,
0010
0000
0000
0000
,
0100
0000
0000
0000
,
1000
0000
0000
0000
,
0010
0000
0000
0000
,
0100
0000
0000
0000
,
0001
0000
0000
0000
,
0001
0000
0000
0000
,
1000
0000
0000
0000
,
0200
0000
0000
0300
,
0000
0000
0000
0000
,
0010
0010
0100
0100
,
0001
1000
2002
3003
,
0002
0000
0000
0003
,
0000
0100
0000
0100
,
0010
0010
0100
0100
,
1000
0001
1000
0001
,
2002
0000
0000
3003
;

//---------------dance-single - ----------------
#NOTEDATA:;
#CHARTNAME:;
#STEPSTYPE:dance-single;
#DESCRIPTION:;
#CHARTSTYLE:;
#DIFFICULTY:Challenge;
#METER:14;
#RADARVALUES:0.711188,0.748378,0.641311,0.195654,0.597833,458.000000,399.000000,59.000000,18.000000,0.000000,0.000000,0.000000,0.000000,0.000000,0.711188,0.748378,0.641311,0.195654,0.597833,458.000000,399.000000,59.000000,18.000000,0.000000,0.000000,0.000000,0.000000,0.000000;
#CREDIT:;
#DISPLAYBPM:140.000000;
#NOTES:
// measure 0
0000
0000
0000
0000
,  // measure 1
0000
0000
0000
0000
,  // measure 2
0000
0000
0000
0000
,  // measure 3
1100
0110
0011
0110
,  // measure 4
1010
1001
0101
1001
,  // measure 5
1010
0011
0101
1100
,  // measure 6
1001
0011
0101
1010
,  // measure 7
0110
1001
0011
0110
,  // measure 8
2020
0000
0000
3030
,  // measure 9
1100
0000
0100
1000
0100
0000
0010
0100
0010
0000
0001
0000
0001
0000
0000
0000
,  // measure 10
0001
0000
0010
0001
0010
0000
0100
0010
0100
0000
1000
0000
1000
0000
0000
0000
,  // measure 11
1100
0000
0100
0010
0100
0000
0010
0001
0010
0000
0001
0000
0001
0000
0000
0000
,  // measure 12
0101
0000
0001
1000
0001
0000
0010
0100
0010
0000
1000
0000
1000
0000
0000
0000
,  // measure 13
1100
0000
1010
0000
0011
0000
0001
0100
0001
0000
0100
0000
0100
0000
0010
0000
,  // measure 14
1010
0000
1000
0100
1000
0000
0010
0100
0010
0000
0001
0000
0001
0000
0000
0000
,  // measure 15
0011
0000
0010
0100
0010
0000
0100
1000
0100
0000
0001
0000
0001
0000
0000
0000
,  // measure 16
0101
0000
0100
1000
0010
0000
0000
0000
0100
0001
0010
0001
0100
0000
0000
0000
,  // measure 17
1000
0100
0010
0000
1000
0100
0010
0100
1000
0000
0000
0000
1001
0000
0000
0000
,  // measure 18
0001
0010
0100
0000
0001
0010
0100
0010
0001
0000
0000
0000
1001
0000
0000
0000
,  // measure 19
1000
0010
0100
0000
1000
0010
0100
0010
0001
0000
0000
0000
0011
0000
0000
0000
,  // measure 20
1000
0100
0001
0000
0001
0100
1000
0000
1000
0010
0100
0001
1000
0000
0000
0000
,  // measure 21
0010
0001
1000
0000
0010
1000
0001
0000
1000
0010
0001
0010
1000
0000
0000
0000
,  // measure 22
0100
0001
1000
0000
0100
1000
0001
0000
0100
1000
0001
0100
1000
0000
0000
0000
,  // measure 23
1000
0100
0001
0000
0001
0100
1000
0000
1000
0100
0001
0100
1000
0000
0000
0000
,  // measure 24
1000
0010
1000
0000
0010
0100
0010
0000
0001
0010
0100
1000
0010
0100
0001
0010
,  // measure 25
0100
0000
1000
0000
0100
0000
0001
0000
1001
0000
1001
0000
1001
0000
1000
0001
,  // measure 26
1000
0000
0100
1000
0100
0000
0010
0100
0010
0000
0001
0010
0000
0010
0001
0000
,  // measure 27
0100
0000
0010
1000
0010
0000
0001
0100
0001
0000
1000
0100
0000
0010
0001
0000
,  // measure 28
0100
0000
0010
1000
0010
0000
1000
0100
1000
0000
0100
0001
0000
0001
0100
0000
,  // measure 29
0010
0000
1000
0010
1000
0000
0010
0001
0010
0000
0001
0100
0010
0100
0001
0000
,  // measure 30
0010
0000
1000
0010
0100
0000
0001
0010
0100
0000
1000
0010
0000
0010
0001
0000
,  // measure 31
1000
0000
0001
1000
0100
0000
0001
1000
0010
0000
0100
1000
0000
1000
0100
0000
,  // measure 32
0001
0000
0010
0001
0100
0000
1000
0001
0010
0000
0010
0001
0000
0001
1000
0000
,  // measure 33
0100
0000
0010
0100
1000
0000
0001
0100
1000
0000
1000
0100
0010
0100
0001
0000
,  // measure 34
0010
0001
0100
0000
0010
1000
0100
0000
0010
0000
0100
0010
0000
1000
0010
0100
,  // measure 35
0001
0000
0000
1001
0000
0000
1100
0000
1000
0000
0100
0010
0001
0000
0100
0000
,  // measure 36
1100
0000
0000
1010
0000
0000
0202
0000
0000
0000
0303
0000
1000
0000
0020
0000
,  // measure 37
0100
0001
1000
0130
,  // measure 38
0001
0010
0100
0000
0010
0100
1000
0000
0100
0000
1000
0010
0000
0001
0100
0001
,  // measure 39
0010
0000
0000
0011
0000
0000
0101
0000
0100
0000
0010
1000
0100
0000
1000
0000
,  // measure 40
1100
0000
0000
0011
0000
0000
2020
0000
0000
0000
3030
0000
0001
0000
0020
0000
,  // measure 41
0100
0000
0000
0000
1000
0000
0000
0000
0130
0000
0000
0000
0010
0001
0100
1000
,  // measure 42
0020
0001
0100
0001
0130
0000
0101
0000
,  // measure 43
2000
0000
0010
0000
0001
0000
3100
0101
,  // measure 44
1100
0000
0000
0100
0010
0000
0000
0010
0001
0000
0000
0001
0100
0000
0101
0000
,  // measure 45
0110
0000
0000
0100
0010
0000
0000
0010
1000
0000
0000
1000
0001
0000
0021
0000
,  // measure 46
0100
1000
0100
1000
0130
0000
1100
0110
,  // measure 47
0002
0000
0100
0000
1000
0000
0013
1001
,  // measure 48
0110
0000
0000
0010
0001
0000
0000
0001
0100
0000
0000
0100
1000
0000
1001
0000
,  // measure 49
0011
0000
0000
0001
0010
0000
0000
0010
0100
0000
0000
0100
1000
0000
1100
0000
,  // measure 50
2000
3200
0302
0023
2030
0000
0002
0000
,  // measure 51
3003
0000
0000
0000
;
