#VERSION:0.83;
#TITLE:MUSIC;
#SUBTITLE:;
#ARTIST:HABEGALE;
#TITLETRANSLIT:;
#SUBTITLETRANSLIT:;
#ARTISTTRANSLIT:;
#GENRE:;
#ORIGIN:;
#CREDIT:;
#BANNER:MUSIC.png;
#BACKGROUND:MUSIC-bg.png;
#PREVIEWVID:;
#JACKET:MUSIC-jacket.png;
#CDIMAGE:;
#DISCIMAGE:;
#LYRICSPATH:;
#CDTITLE:;
#MUSIC:MUSIC.ogg;
#OFFSET:0.000000;
#SAMPLESTART:49.035999;
#SAMPLELENGTH:15.000000;
#SELECTABLE:YES;
#DISPLAYBPM:140.000000;
#BPMS:0.000=140.068;
#STOPS:;
#DELAYS:;
#WARPS:;
#TIMESIGNATURES:0.000=4=4;
#TICKCOUNTS:0.000=4;
#COMBOS:0.000=1;
#SPEEDS:0.000=1.000=0.000=0;
#SCROLLS:0.000=1.000;
#FAKES:;
#LABELS:0.000=Song Start;
#BGCHANGES:;
#KEYSOUNDS:;
#ATTACKS:
;

//---------------dance-single - ----------------
#NOTEDATA:;
#CHARTNAME:;
#STEPSTYPE:dance-single;
#DESCRIPTION:;
#CHARTSTYLE:;
#DIFFICULTY:Easy;
#METER:6;
#RADARVALUES:0.234155,0.275808,0.105070,0.000000,0.000000,156.000000,146.000000,10.000000,0.000000,0.000000,0.000000,0.000000,0.000000,0.000000,0.234155,0.275808,0.105070,0.000000,0.000000,156.000000,146.000000,10.000000,0.000000,0.000000,0.000000,0.000000,0.000000,0.000000;
#CREDIT:;
#DISPLAYBPM:140.000000;
#NOTES:
0000
0000
0000
0000
,
0000
0000
0000
0000
,
0000
0000
0000
0000
,
0000
0000
0000
0000
,
0000
0000
0000
0000
,
0100
0010
1000
0001
,
0010
0001
1000
0100
,
0010
0100
1000
0001
,
0100
0001
1000
0010
,
1001
0000
0100
0100
,
1001
0000
0010
0010
,
0110
0000
1000
1000
,
0110
0000
0001
0001
,
0000
0100
0010
0100
,
0000
0001
1000
0001
,
0000
0100
0010
1000
,
0000
0001
0100
0010
,
1000
0000
1000
0000
,
0001
0000
0001
0000
,
0010
0000
0010
0000
,
0000
0100
0001
1000
,
0001
0000
0000
0001
,
1000
0000
1000
1000
,
0010
0000
0100
0000
,
0001
1000
0010
0100
,
0001
0000
0000
0000
0000
1000
1000
1000
,
1000
0000
0010
0100
,
0001
0000
0001
0000
,
0110
0000
0000
0000
,
1000
0001
0000
0001
,
0100
0001
1000
0010
,
0100
0010
0000
0010
,
1000
0001
0000
0110
,
1000
0001
0000
0001
,
0100
0001
1000
0010
,
0100
0000
0000
0000
0100
0100
0100
0000
,
0001
0000
0100
0110
,
1000
0100
0000
0100
,
1000
0010
0100
0001
,
0010
0001
0000
0100
,
0001
1000
1001
1001
,
1000
0100
0000
0100
,
1000
0010
0100
0001
,
1000
0000
0000
0000
0100
0100
0100
0000
,
0010
0000
0000
0000
0001
0001
0001
0000
,
0000
0000
1000
1000
,
0000
0000
0001
0001
,
0000
0000
0010
0010
,
0001
0100
0010
1000
,
0000
0000
0100
0100
,
0000
0000
0001
0001
,
1000
0010
0100
0001
,
1000
0000
1001
0000
;

//---------------dance-single - ----------------
#NOTEDATA:;
#CHARTNAME:;
#STEPSTYPE:dance-single;
#DESCRIPTION:;
#CHARTSTYLE:;
#DIFFICULTY:Medium;
#METER:8;
#RADARVALUES:0.358738,0.413712,0.336223,0.000000,0.000000,239.000000,207.000000,32.000000,0.000000,0.000000,0.000000,0.000000,0.000000,0.000000,0.358738,0.413712,0.336223,0.000000,0.000000,239.000000,207.000000,32.000000,0.000000,0.000000,0.000000,0.000000,0.000000,0.000000;
#CREDIT:;
#DISPLAYBPM:140.000000;
#NOTES:
0000
0000
0000
0000
,
0000
0000
0000
0000
,
0000
0000
0000
0000
,
0000
0000
0000
0000
,
0000
0000
0000
0000
,
1000
0000
0000
0000
0010
0100
0001
0000
,
1000
0000
0000
0000
0100
1000
0001
0000
,
0100
0000
0000
0000
0010
1000
0100
0000
,
0010
0000
0000
0000
0001
1000
0001
0000
,
0110
1000
0001
1000
,
0110
0001
1000
0001
,
0110
0010
0100
0010
,
1001
0000
0000
0000
0100
0100
0100
0000
,
0000
1000
0001
1000
0010
0000
0110
0000
,
0001
1000
0010
0100
,
0000
0001
1000
0001
0100
0000
0110
0000
,
1000
0010
0100
0001
,
0000
0100
0001
1000
0010
0000
0110
0000
,
1000
1100
0001
0101
,
0000
0010
0100
1000
0001
0000
0110
0000
,
0011
0011
1000
0001
,
0100
0000
0000
0000
0001
1000
0001
0000
,
0010
0000
0000
0000
0100
0001
0100
0000
,
1000
0000
0010
0100
0001
1000
0001
0000
,
0010
0000
0100
0000
1000
0100
0000
0000
,
0001
0100
0001
0000
1000
1000
1000
1000
,
0010
0000
0100
0101
,
1000
0100
1000
0100
1000
0010
0100
0001
,
0000
0000
0000
0000
,
1001
0101
0000
1000
,
0010
0100
0010
0100
,
1001
1100
0000
0001
,
0100
0000
0010
0000
0100
0010
1000
0001
,
1100
1010
0000
0100
,
0001
1000
0010
0100
,
0001
0000
1000
0010
0100
0000
1001
0000
,
0100
0010
0100
0101
,
0011
1010
0100
0010
,
1000
0000
0000
1000
0001
0000
0000
0001
,
1000
1100
0001
0101
,
0010
0000
0000
0010
0001
0010
0001
0010
,
0000
1001
0110
1001
,
0010
0100
0101
1010
,
1000
0000
1000
0010
0100
0001
0001
0000
,
0001
0000
0001
0100
0010
1000
1000
0000
,
0010
0000
0000
0100
0010
0000
1001
0000
,
0100
0000
0000
0010
0100
0000
1001
0000
,
0100
0010
0100
0010
,
1000
0001
1000
0001
,
1000
1000
0010
0100
,
0001
0001
0100
0010
,
1000
0000
0001
0000
0100
0010
1000
0001
,
0100
0000
0010
0001
1000
0000
0000
0000
;

//---------------dance-single - ----------------
#NOTEDATA:;
#CHARTNAME:;
#STEPSTYPE:dance-single;
#DESCRIPTION:;
#CHARTSTYLE:;
#DIFFICULTY:Hard;
#METER:11;
#RADARVALUES:0.415775,0.468873,0.063042,0.000000,0.157604,277.000000,271.000000,6.000000,0.000000,0.000000,0.000000,0.000000,0.000000,0.000000,0.415775,0.468873,0.063042,0.000000,0.157604,277.000000,271.000000,6.000000,0.000000,0.000000,0.000000,0.000000,0.000000,0.000000;
#CREDIT:;
#DISPLAYBPM:140.000000;
#NOTES:
0000
0000
0000
0000
,
0000
0000
0000
0000
,
0000
0000
0000
0000
,
0000
0000
0000
0000
,
0000
0000
0000
0000
,
0100
0000
0000
0100
0000
0000
0010
0000
0000
0001
0000
0000
0100
0000
0010
0000
,
1000
0000
0000
1000
0000
0000
0001
0000
0000
0010
0000
0000
0100
0000
0001
0000
,
0010
0000
0000
0010
0000
0000
0001
0000
0000
0010
0000
0000
0100
0000
0001
0000
,
0100
0000
0000
0100
0000
0000
0010
0000
0000
0100
0000
0000
0001
0000
1000
0000
,
0100
0000
0000
0100
0000
0000
0010
0000
0000
0001
0000
0000
0100
0000
0010
0000
,
1000
0000
0000
1000
0000
0000
0001
0000
0000
0010
0000
0000
0100
0000
0001
0000
,
0010
0000
0000
0010
0000
0000
0001
0000
0000
0010
0000
0000
0100
0000
0001
0000
,
0100
0000
0000
0100
,
0001
0001
1000
0001
,
0001
0001
0100
0001
,
1000
1000
0100
1000
,
0010
0000
0010
0000
0100
0001
1000
0001
,
0100
0000
0100
0010
1000
0000
0001
0000
,
0100
0010
1000
0001
,
0100
0100
0010
0000
1000
1000
0001
0000
,
0010
1000
0001
0100
,
0010
0000
0100
0001
0000
0000
1000
0000
,
0001
0000
0100
0010
1000
0000
0000
0000
,
0100
0010
1000
0001
0100
0000
0010
0000
,
1000
0010
0100
0001
,
0100
1000
0010
0100
0001
0000
0000
0000
,
1000
0010
0100
0000
0100
0000
1001
0000
,
0100
0000
0000
0000
0001
0000
0001
1000
,
0000
0000
0000
0000
,
0010
1000
0010
0001
0010
1000
0010
0001
,
0100
1000
0100
0001
0100
1000
0100
0001
,
0010
1000
0010
0001
0010
1000
0010
0001
,
0100
1000
0100
0001
0100
1000
0100
0001
,
1000
0010
0100
0001
1000
0100
0010
0001
,
0001
0100
0010
1000
0001
0010
0100
1000
,
0010
0000
0010
0100
0001
0001
0001
0000
,
1000
0000
1000
0010
0000
0000
1001
0000
,
0010
0100
0001
1000
0010
1000
0001
0100
,
0100
0001
1000
0010
1000
0001
0100
0010
,
0010
0100
0001
1000
0010
1000
0001
0100
,
0100
0001
1000
0010
1000
0001
0100
0010
,
0100
0101
0100
1100
,
0101
0000
1100
0000
0010
0010
0010
0000
,
1000
0010
0100
0001
1000
1000
1000
0000
,
0100
0000
0100
0010
1000
1000
1000
0000
,
0100
0000
0000
0100
0000
0000
0010
0000
0000
0001
0000
0000
0100
0000
0010
0000
,
1000
0000
0000
1000
0000
0000
0001
0000
0000
0010
0000
0000
0100
0000
0001
0000
,
0010
0000
0000
0010
0000
0000
0001
0000
0000
0010
0000
0000
0100
0000
0001
0000
,
0100
0000
0000
0100
0000
0000
0010
0000
0000
0100
0000
0000
0001
0000
1000
0000
,
0100
0000
0000
0100
0000
0000
0010
0000
0000
0001
0000
0000
0100
0000
0010
0000
,
1000
0000
0000
1000
0000
0000
0001
0000
0000
0010
0000
0000
0100
0000
0001
0000
,
0010
0000
0000
0010
0000
0000
0001
1000
0000
0100
0000
0000
0010
0000
0000
0000
,
1000
0000
0000
0100
0000
0000
0010
0000
0001
0000
0000
0000
0000
0000
0000
0000
;

//---------------dance-double - ----------------
#NOTEDATA:;
#CHARTNAME:;
#STEPSTYPE:dance-double;
#DESCRIPTION:;
#CHARTSTYLE:;
#DIFFICULTY:Easy;
#METER:4;
#RADARVALUES:0.247664,0.273181,0.073549,0.000000,0.000000,165.000000,158.000000,7.000000,0.000000,0.000000,0.000000,0.000000,0.000000,0.000000,0.247664,0.273181,0.073549,0.000000,0.000000,165.000000,158.000000,7.000000,0.000000,0.000000,0.000000,0.000000,0.000000,0.000000;
#CREDIT:;
#DISPLAYBPM:140.000000;
#NOTES:
00000000
00000000
00000000
00000000
,
00000000
00000000
00000000
00000000
,
00000000
00000000
00000000
00000000
,
00000000
00000000
00000000
00000000
,
00000000
00000000
00000000
00000000
,
00000000
01000000
00100000
10000000
,
00000000
00010000
01000000
00001000
,
00010000
00010000
00001000
00010000
,
00000010
00000010
00001000
00000001
,
00000000
00000100
00000100
00001001
,
00000000
00000100
00010000
00011000
,
01000000
00100000
10000000
00010000
,
01000000
00000000
00000000
00000000
,
00000000
00000100
00000100
00000100
,
00001000
00000001
00000010
00001001
,
00000000
00010000
00010000
00010000
,
00001000
00100000
00010000
10000000
,
00000000
01000000
00100000
00010000
,
00000000
00001000
00010000
00000010
,
00001000
00001000
00000001
00000001
,
00000010
00000100
00001000
00000110
,
00001000
00000000
00000000
00010000
,
01000000
00000000
00000000
00100000
,
00010000
10000000
01000000
00100000
,
00010000
00010000
00001000
00011000
,
00000010
00000100
00000000
00001000
,
00000001
00000010
00000000
00000100
,
00001000
00000100
00010000
00000010
,
00010000
00000000
00000000
00001000
,
00100000
00100000
00000000
00010000
,
10000000
00010000
10000000
01000000
,
00001000
00001000
00000000
00010000
,
00000010
00010000
00000010
00000100
,
00001000
00000001
00000000
00000100
,
00000010
00000100
00000010
00010000
,
00001000
00000000
00000000
00000000
00001000
00010000
00001000
00000000
,
00100000
00000000
00000000
00010000
,
10000000
00010000
00000000
00100000
,
00001000
00100000
00001000
00010000
,
00000100
00000100
00000000
00010000
,
00000010
00010000
00000010
00001000
,
00000100
00000100
00000000
00000010
,
00010000
00001000
00100000
01000000
,
10000000
00000000
00000000
00000000
00100000
00001000
00100000
00000000
,
00001000
00000000
00000000
00000000
00000010
00000010
00000010
00000000
,
00000000
00000100
00001000
00000001
,
00000000
00001000
00000100
00010000
,
00001000
00001000
00010000
00001000
,
00100000
00100000
00010000
10000000
,
00000000
00100000
01000000
10010000
,
00000000
00001000
00010000
00011000
,
00000010
00000010
00001000
00000001
,
00000100
00000000
00000000
00000000
;

//---------------dance-double - ----------------
#NOTEDATA:;
#CHARTNAME:;
#STEPSTYPE:dance-double;
#DESCRIPTION:;
#CHARTSTYLE:;
#DIFFICULTY:Medium;
#METER:6;
#RADARVALUES:0.348231,0.382453,0.273181,0.000000,0.000000,232.000000,206.000000,26.000000,0.000000,0.000000,0.000000,0.000000,0.000000,0.000000,0.348231,0.382453,0.273181,0.000000,0.000000,232.000000,206.000000,26.000000,0.000000,0.000000,0.000000,0.000000,0.000000,0.000000;
#CREDIT:;
#DISPLAYBPM:140.000000;
#NOTES:
00000000
00000000
00000000
00000000
,
00000000
00000000
00000000
00000000
,
00000000
00000000
00000000
00000000
,
00000000
00000000
00000000
00000000
,
00000000
00000000
00000000
00000000
,
10000000
00000000
10010000
10100000
,
01000000
00000000
01001000
00101000
,
00010000
00001000
00010000
00000010
,
00001000
00000000
00000001
00000000
00000100
00000000
00000100
00000010
,
00001000
00000000
00001001
00001010
,
00010000
00000000
00011000
01001000
,
00100000
00001000
01000000
00010000
,
10000000
00000000
00000000
00000000
01000000
00100000
10000000
00010000
,
00000000
00100000
00001000
00000000
00010000
00000010
00001000
00000000
,
00000100
00000000
00010000
00000000
00000010
00000100
00000001
00000000
,
00001000
00000000
00000010
00000000
00010000
00000010
00001000
00000000
,
00000100
00010000
00000010
00010100
,
00001000
00000000
00000010
00000000
00010000
00000100
00010000
00000000
,
00001000
00000000
00100000
00000000
00001000
01000000
00010000
00000000
,
00001000
00000000
01000000
00000000
00010000
00100000
01000000
00000000
,
10000000
00000000
01000000
00000000
10000000
00000000
00010000
01000000
,
00001000
00000000
00000000
00000000
00100000
10000000
00010000
01000000
,
00000000
00000000
00000000
00000000
00001000
00100000
00010000
01000000
,
00000000
00000000
00001000
00000000
00000010
00000000
00001000
00000001
,
00000100
00000100
00000010
00001000
,
00000001
00000000
00000000
00000000
00001000
00001000
00001000
00000001
,
00000100
00000000
00010000
00011000
,
01000000
00000000
01000000
00000000
00100000
01000000
01000000
01010000
,
00000000
00000000
00000000
01100000
,
10000000
00010000
00000000
01000000
,
00001000
00000000
01000000
00000000
00001000
00010000
00000100
00001000
,
00000010
00000000
00001000
00000000
00000001
00000100
00000010
00000000
,
00010000
00000000
00000100
00000000
00010000
00001000
01000000
00100000
,
10000000
01000000
00100000
00001000
,
00010000
00000100
00010000
00011000
,
01000000
00001000
00010000
00000000
00000010
00000000
00001001
00000000
,
00000001
00000100
00000010
00000000
00000000
00000000
00001000
00000000
,
00010000
00000000
00000100
00000000
00010000
00000100
00001000
00000000
,
00010000
00000000
00100000
00000000
00010000
10000000
00010000
00000000
,
01000000
01010000
01000000
11000000
,
00010000
00000000
00001000
00000000
00010000
00000100
00001000
00000010
,
00001000
00000000
01000000
00000000
00010000
01000000
01001000
00000000
,
00010000
00000000
00000010
00000000
00001000
00000001
00001001
00000000
,
00000100
00000010
00001000
00000000
00001000
00000010
00000100
00000000
,
00000001
00001000
00000010
00000000
00000100
00000000
00001010
00000000
,
00000001
00000000
00001001
00001001
,
00000100
00000000
00000000
00000000
00000100
00010000
00001000
00000000
,
00001000
00010000
00001000
00100000
,
00010000
10000000
01000000
00000000
00010000
00000000
10010000
00000000
,
00100000
00000000
10100000
00110000
,
01000000
00000000
01001000
00101000
,
00001000
00000010
00000001
00001000
,
00000100
00000000
00000000
00000000
;

//---------------dance-double - ----------------
#NOTEDATA:;
#CHARTNAME:;
#STEPSTYPE:dance-double;
#DESCRIPTION:;
#CHARTSTYLE:;
#DIFFICULTY:Hard;
#METER:7;
#RADARVALUES:0.391760,0.464408,0.084056,0.000000,0.000000,261.000000,253.000000,8.000000,0.000000,0.000000,0.000000,0.000000,0.000000,0.000000,0.391760,0.464408,0.084056,0.000000,0.000000,261.000000,253.000000,8.000000,0.000000,0.000000,0.000000,0.000000,0.000000,0.000000;
#CREDIT:;
#DISPLAYBPM:140.000000;
#NOTES:
00000000
00000000
00000000
00000000
,
00000000
00000000
00000000
00000000
,
00000000
00000000
00000000
00000000
,
00000000
00000000
00000000
00000000
,
00000000
00000000
00000000
00000000
,
01000000
00010000
00100000
00001000
00010000
00001000
00010000
00001000
,
00000100
00000010
00000100
00000001
00001000
00000001
00001000
00000001
,
00000100
00000010
00001000
00000001
00000100
00000010
00001000
00000001
,
00000100
00000010
00001000
00000000
00001000
00000100
00010000
00000000
,
00000100
00001000
00000010
00010000
00001000
00010000
00001000
00010000
,
01000000
00100000
01000000
10000000
00010000
10000000
00010000
10000000
,
00100000
10000000
00010000
01000000
00100000
10000000
00010000
01000000
,
00100000
00000000
00000000
00000000
,
10000000
00000000
00000000
00010000
00001000
00000000
00000000
00000001
,
00000010
00000000
00000000
00010000
00001000
00000000
00000000
01000000
,
10000000
00000000
00010000
10000000
00100000
01000000
00010000
10000000
,
00010000
01010000
10000000
11000000
,
01000000
00000000
00000000
00001000
00000100
00000000
00000000
00010000
,
00000010
00000000
00000000
00010000
00000100
00000000
00000000
00001000
,
00000010
00000000
00000010
00000100
00000001
00001000
00000010
00000100
,
00000001
00001001
00001000
00001001
,
00000010
00000000
00000100
00000000
00000000
00000000
00010000
10000000
,
01000000
00000000
00100000
00000000
00000000
00000000
00001000
00000001
,
00000010
00001000
00010000
10000000
,
01000000
00010000
00000010
00000100
,
00000001
00000000
00001000
00000000
00000010
00000100
00010000
01000000
,
10000000
01000000
00010000
00001000
,
00000010
00000000
00000010
00000000
00001000
00000001
00001000
00000010
,
00000000
00000000
00000000
00000000
00000000
00010000
00001000
01000000
,
00010000
00000000
10000000
00000000
00000000
00100000
00000000
01000000
,
00000000
01000000
00000000
00001000
00000000
00010000
00000000
00001000
,
00000010
00000000
00000100
00000000
00000000
00000001
00000000
00001000
,
00000000
00000010
00000000
00010000
00000000
00000100
00000000
00100000
,
00010000
00000000
10000000
00000000
00000000
01000000
00000000
00010000
,
00000000
00001000
00000000
00000010
00000000
00000100
00001000
00000001
,
00001000
00000000
00000000
00000000
00001000
00001000
00001000
00001000
,
00000010
00000000
00010000
00000000
00000000
00001000
00010000
00001000
,
01000000
00000000
00100000
00000000
00000000
10000000
00000000
00010000
,
00000000
01000000
00000000
00001000
00010000
00001000
00010000
00000000
,
00000010
00000000
00000100
00000000
00000000
00000001
00000000
00001000
,
00000000
00000010
00000000
00000100
00000010
00010000
00001000
00000000
,
00100000
00000000
00010000
00000000
00000000
01000000
00000000
00100000
,
00000000
10000000
00010000
01000000
00100000
10000000
00010000
00000000
,
01000000
00000000
00000000
00000000
01001000
01001000
01001000
00000000
,
00010000
00000000
00000010
00010010
00000000
00000000
00000000
00000000
,
00000100
00001000
00000010
00010000
00001000
00010000
00001000
00010000
,
01000000
00100000
01000000
10000000
00010000
10000000
00010000
10000000
,
01000000
00100000
00010000
10000000
01000000
00100000
00010000
10000000
,
01000000
00100000
00010000
00000000
00010000
01000000
00001000
00000000
,
01000000
00010000
00100000
00001000
00010000
00001000
00010000
00001000
,
00000100
00000010
00000100
00000001
00001000
00000001
00001000
00000001
,
00000010
00000001
00001000
00000100
00000010
00000001
00001000
00000100
,
00000010
00000000
00000000
00000000
;

//---------------dance-couple - ----------------
#NOTEDATA:;
#CHARTNAME:;
#STEPSTYPE:dance-couple;
#DESCRIPTION:;
#CHARTSTYLE:;
#DIFFICULTY:Challenge;
#METER:4;
#RADARVALUES:0.226650,0.437090,0.157604,0.000000,0.000000,151.000000,136.000000,15.000000,0.000000,0.000000,0.000000,0.000000,0.000000,0.000000,0.226650,0.437090,0.157604,0.000000,0.000000,151.000000,136.000000,15.000000,0.000000,0.000000,0.000000,0.000000,0.000000,0.000000;
#CREDIT:;
#DISPLAYBPM:140.000000;
#NOTES:
00000000
00000000
00000000
00000000
,
00000000
00000000
00000000
00000000
,
00000000
00000000
00000000
00000000
,
00000000
00000000
00000000
00000000
,
00000000
00000000
00000000
00000000
,
01000000
00100000
10000000
00010000
,
00100000
00010000
10000000
01000000
,
00000100
00000010
00001000
00000001
,
00000010
00000001
00001000
00000100
,
10010000
00000000
01000000
01000000
,
00001001
00000000
00000100
00000100
,
01100110
00000000
10001000
10001000
,
01100110
00000000
00010001
00010001
,
00000000
00000100
00000010
00000100
,
00000000
01000000
00100000
01000000
,
00000000
00000100
00000010
00001000
,
00000000
01000000
00100000
10000000
,
00000000
01000100
10000001
00011000
00100010
00000000
01100110
00000000
,
00011000
01011100
10000001
11000101
,
00000000
00100010
01000100
00011000
10000001
00000000
01100110
00000000
,
10100011
10100011
00011000
10000001
,
00000100
00000000
00000100
00001000
,
01000000
00000000
01000000
00010000
,
00001000
00000000
01000010
00000000
00000001
00001000
01000000
00000000
,
00000010
01000100
00001000
01000001
,
00100000
00000000
00100000
10000000
,
00000010
00000000
00000010
00000001
,
10000000
00000000
00100010
00000000
00010000
10000000
00000010
00000000
,
00100000
01000010
10000000
00010010
,
00000010
00000001
00000010
00001000
10000010
00000001
00000010
00001000
,
00000100
00000001
00000100
00001000
10000100
00000001
00000100
00001000
,
00100000
10000000
00100000
00010000
00100001
10000000
00100000
00010000
,
01000000
10000000
01000000
00010000
01000001
10000000
01000000
00010000
,
00000010
00001000
01000000
00010000
,
00010001
10001000
00100010
01000100
,
00010000
00000000
10000000
00100000
00000100
00000100
00000100
00000000
,
00001000
00000000
00000001
00000010
00100000
00100000
00100000
00000000
,
10000000
00100000
00000001
00000100
,
10000001
00100010
01000100
00011000
,
00000010
00000100
00000001
00001000
00000010
00001000
00000001
00000100
,
00100000
01000000
00010000
10000000
00100000
10000000
00010000
01000000
,
00000101
00001100
01010000
11000000
,
01010101
11001100
01010101
11001100
,
00000001
00000000
00000000
00000000
01000000
01000000
01000000
00000000
,
10000000
00000000
00000000
00000000
00000100
00000100
00000100
00000000
,
10000000
10000000
00001000
00001000
,
00010000
00010000
00000001
00000001
,
01000100
00100010
01000100
00100010
,
10001000
00010001
10001000
00010001
,
10000000
10000000
00000001
00000001
,
00010000
00010000
00001000
00001000
,
00011000
00000000
10000001
00000000
01000100
00100010
00011000
10000001
,
01000100
00000000
00000000
00000000
;

//---------------dance-solo - ----------------
#NOTEDATA:;
#CHARTNAME:;
#STEPSTYPE:dance-solo;
#DESCRIPTION:;
#CHARTSTYLE:;
#DIFFICULTY:Easy;
#METER:4;
#RADARVALUES:0.237157,0.273181,0.073549,0.000000,0.000000,158.000000,151.000000,7.000000,0.000000,0.000000,0.000000,0.000000,0.000000,0.000000,0.237157,0.273181,0.073549,0.000000,0.000000,158.000000,151.000000,7.000000,0.000000,0.000000,0.000000,0.000000,0.000000,0.000000;
#CREDIT:;
#DISPLAYBPM:140.000000;
#NOTES:
000000
000000
000000
000000
,
000000
000000
000000
000000
,
000000
000000
000000
000000
,
000000
000000
000000
000000
,
000000
000000
000000
000000
,
000000
001000
000010
100000
,
000000
000001
010000
001000
,
000100
000100
000010
000100
,
000001
000001
010000
000100
,
000000
100000
100000
001100
,
000000
000010
001000
100001
,
000100
100000
000001
001000
,
000100
000000
000000
000000
,
000000
001000
001000
001000
,
000001
100000
000010
001000
,
000000
000001
000001
000001
,
010000
000100
100000
000001
,
000000
001000
000100
100000
,
000000
000010
001000
000001
,
010000
010000
001000
001000
,
100000
000100
001000
000001
,
010000
000000
000000
000100
,
100000
000000
000000
000010
,
001000
000001
000100
001000
,
010000
010000
000100
001100
,
000001
100000
000000
001000
,
000100
000001
000000
100000
,
000010
001000
000001
100000
,
000010
000000
000000
001000
,
000001
000001
000000
010000
,
001000
100000
001000
000100
,
000001
000001
000000
001000
,
000010
100000
000010
001000
,
000001
010000
000000
000100
,
001000
000100
001000
000010
,
100000
000000
100001
100001
,
001000
000000
000000
000010
,
100000
000001
000000
010000
,
001000
010000
001000
000100
,
000001
000001
000000
001000
,
000010
001000
000010
100000
,
000100
000100
000000
001000
,
000001
010000
001000
100000
,
000001
000000
000000
000000
,
001000
000000
000000
000000
,
000000
000010
010000
000001
,
000000
100000
000010
001000
,
000100
000100
001000
000001
,
100000
100000
000100
001000
,
000000
000010
001000
100001
,
000000
010000
000100
100001
,
001000
001000
000100
001000
,
000010
000000
000000
000000
;

//---------------dance-solo - ----------------
#NOTEDATA:;
#CHARTNAME:;
#STEPSTYPE:dance-solo;
#DESCRIPTION:;
#CHARTSTYLE:;
#DIFFICULTY:Medium;
#METER:5;
#RADARVALUES:0.342227,0.382453,0.346730,0.000000,0.000000,228.000000,195.000000,33.000000,0.000000,0.000000,0.000000,0.000000,0.000000,0.000000,0.342227,0.382453,0.346730,0.000000,0.000000,228.000000,195.000000,33.000000,0.000000,0.000000,0.000000,0.000000,0.000000,0.000000;
#CREDIT:;
#DISPLAYBPM:140.000000;
#NOTES:
000000
000000
000000
000000
,
000000
000000
000000
000000
,
000000
000000
000000
000000
,
000000
000000
000000
000000
,
000000
000000
000000
000000
,
010000
000000
010001
010001
,
000010
000000
100010
100010
,
001000
000100
001000
000001
,
100000
000000
000001
000000
001000
000000
001000
000010
,
100000
000000
100001
100001
,
010000
000000
011000
011000
,
000100
000001
100000
001000
,
010000
000000
000000
000000
000001
000001
000001
000001
,
001000
000100
100000
100010
,
001000
000001
001000
001010
,
000100
001000
000001
100001
,
010000
001000
100000
001010
,
000010
001000
000001
001001
,
100000
000001
010000
010001
,
001000
000100
100000
100001
,
000010
001000
000010
100000
,
000001
000000
001000
000000
000000
010000
001000
010000
,
000001
000000
100000
000000
000000
000010
001000
000010
,
001000
000000
000001
000000
000000
100000
000100
100000
,
001000
001000
000010
100000
,
000001
000000
000000
000000
010000
001000
010000
001000
,
100000
000000
000001
100001
,
000100
000000
000100
000000
001000
000000
000010
001010
,
000000
000000
100000
100000
,
000010
001000
000000
000001
,
001000
000000
000001
000000
100000
000010
100000
000000
,
000001
000000
001000
000000
000000
000010
000000
000000
,
100000
000000
001000
000000
100000
010000
100000
010000
,
100000
000001
000000
001000
,
000010
001000
000001
001010
,
100000
000100
001000
000000
000001
000000
100000
000000
,
001000
010000
001000
000000
000000
000000
100000
000000
,
000001
000000
001000
000000
000010
001000
001010
000000
,
000001
000000
010000
000000
001000
010000
011000
000000
,
100000
100100
000001
000101
,
100000
000000
001000
000000
100000
001000
010000
001000
,
010000
000000
000001
000000
100000
000010
100010
000000
,
001000
000000
000001
000000
100000
000100
100100
000000
,
001000
000010
000100
000000
000100
000001
100000
000000
,
000100
001000
000100
000000
010000
000000
000000
000000
,
000001
000000
100001
100001
,
001000
000000
011000
011000
,
100000
000001
100000
000100
,
001000
000010
100000
000000
000001
000000
100001
000000
,
000010
000000
100010
100010
,
001000
000000
011000
011000
,
100000
000100
001000
000001
,
010000
000000
000000
000000
;

//---------------dance-solo - ----------------
#NOTEDATA:;
#CHARTNAME:;
#STEPSTYPE:dance-solo;
#DESCRIPTION:;
#CHARTSTYLE:;
#DIFFICULTY:Hard;
#METER:7;
#RADARVALUES:0.391760,0.464408,0.084056,0.000000,0.000000,261.000000,253.000000,8.000000,0.000000,0.000000,0.000000,0.000000,0.000000,0.000000,0.391760,0.464408,0.084056,0.000000,0.000000,261.000000,253.000000,8.000000,0.000000,0.000000,0.000000,0.000000,0.000000,0.000000;
#CREDIT:;
#DISPLAYBPM:140.000000;
#NOTES:
000000
000000
000000
000000
,
000000
000000
000000
000000
,
000000
000000
000000
000000
,
000000
000000
000000
000000
,
000000
000000
000000
000000
,
001000
000010
100000
000100
010000
000001
010000
000001
,
001000
000100
001000
000010
100000
000010
100000
000010
,
001000
000100
010000
000001
001000
000100
100000
000010
,
001000
000100
100000
000000
100000
000001
001000
000000
,
000010
100000
000100
010000
000001
010000
000001
010000
,
001000
100000
001000
100000
000010
100000
000010
100000
,
000100
001000
000001
100000
000100
001000
000001
100000
,
000100
000000
000000
000000
,
010000
000000
000000
001000
000100
000000
000000
000001
,
100000
000000
000000
000010
001000
000000
000000
000001
,
100000
000000
100000
000100
001000
000010
100000
000010
,
100000
100010
000001
010001
,
001000
000000
000000
000010
100000
000000
000000
000001
,
010000
000000
000000
000100
001000
000000
000000
000010
,
001000
000000
001000
000100
100000
000001
010000
000010
,
100000
100001
000001
100001
,
000100
000000
001000
000000
000000
000000
000010
100000
,
001000
000000
010000
000000
000000
000000
000001
001000
,
000010
100000
000100
001000
,
000001
010000
000100
100000
,
000010
000000
001000
000000
000001
010000
000010
100000
,
000001
001000
000100
100000
,
000010
000000
000010
000000
001000
000100
001000
000001
,
000000
000000
000000
000000
000000
010000
001000
100000
,
000100
000000
001000
000000
000000
000010
000000
001000
,
000000
001000
000000
000001
000000
010000
000000
000001
,
001000
000000
000100
000000
000000
001000
000000
000001
,
000000
010000
000000
001000
000000
100000
000000
000001
,
001000
000000
000100
000000
000000
010000
000000
000001
,
000000
001000
000000
000100
000000
100000
001000
000100
,
001000
000000
000000
000000
000100
000100
000100
000100
,
000001
000000
010000
000000
000000
001000
100000
001000
,
000100
000000
000001
000000
000000
010000
000000
001000
,
000000
100000
000000
000001
000100
000001
000100
000000
,
001000
000000
100000
000000
000000
000010
000000
001000
,
000000
000001
000000
001000
000010
100000
000100
000000
,
001000
000000
000010
000000
000000
100000
000000
001000
,
000000
010000
000001
100000
000100
001000
000010
000000
,
001000
000000
000000
000000
001010
001010
001010
000000
,
000001
000000
010000
010001
000000
000000
000000
000000
,
000100
001000
000010
010000
100000
010000
100000
010000
,
000100
001000
000100
100000
000001
100000
000001
010000
,
001000
000100
000001
100000
001000
000100
000001
010000
,
000001
100000
000010
000000
001000
000100
100000
000000
,
000010
001000
000100
010000
001000
010000
001000
010000
,
000001
000100
000001
100000
000010
100000
000010
100000
,
000100
100000
000001
001000
000100
100000
000001
001000
,
000100
000000
000000
000000
;

//---------------dance-single - ----------------
#NOTEDATA:;
#CHARTNAME:;
#STEPSTYPE:dance-single;
#DESCRIPTION:;
#CHARTSTYLE:;
#DIFFICULTY:Beginner;
#METER:3;
#RADARVALUES:0.099066,0.193065,0.105070,0.105070,0.000000,66.000000,56.000000,10.000000,10.000000,0.000000,0.000000,0.000000,0.000000,0.000000,0.099066,0.193065,0.105070,0.105070,0.000000,66.000000,56.000000,10.000000,10.000000,0.000000,0.000000,0.000000,0.000000,0.000000;
#CREDIT:;
#DISPLAYBPM:140.000000;
#NOTES:
0000
0000
0000
0000
,
0000
0000
0000
0000
,
0000
0000
0000
0000
,
0000
0000
0000
0000
,
0000
0000
0000
0000
,
0100
0000
0000
0000
,
0010
0000
0000
0000
,
1000
0000
0000
0000
,
0001
0000
0000
0000
,
0010
0000
0000
0000
,
0100
0000
0000
0000
,
1000
0000
0000
0000
,
2002
0000
0000
3003
,
0000
0001
0000
0000
,
0001
0000
0000
0000
,
0000
1000
0000
0000
,
1000
0000
0000
0000
,
0000
0010
0000
0000
,
0010
0000
0000
0000
,
0000
0100
0000
0000
,
0100
0000
0000
0000
,
0010
0000
0000
0000
,
0100
0000
0000
0000
,
1000
0000
0000
0000
,
0010
0000
0000
0000
,
0010
0000
0000
0000
,
0100
0000
0000
0000
,
0100
0000
0000
0000
,
1000
0000
0000
0000
,
0001
0000
0000
0000
,
1000
0000
0000
0000
,
0001
0000
0000
0000
,
1001
0000
0000
0000
,
1001
0000
0000
0000
,
1001
0000
0000
0000
,
2002
0000
3003
0000
,
2002
0000
3003
0000
,
0100
0000
0000
0000
,
0100
0000
0000
0000
,
0010
0000
0000
0000
,
0010
0000
0000
0000
,
0001
0000
0000
0000
,
1000
0000
0000
0000
,
0001
0000
0000
0000
,
1000
0000
0000
0000
,
0110
0000
0000
0000
,
0110
0000
0000
0000
,
0220
0000
0330
0000
,
0220
0000
0330
0000
,
1000
0001
1000
0000
,
0010
0100
0010
0000
,
0001
1000
0001
0000
,
0100
0010
0100
0000
;

//---------------dance-single - ----------------
#NOTEDATA:;
#CHARTNAME:;
#STEPSTYPE:dance-single;
#DESCRIPTION:;
#CHARTSTYLE:;
#DIFFICULTY:Challenge;
#METER:14;
#RADARVALUES:0.685954,0.668243,0.262674,0.126084,0.672445,457.000000,432.000000,25.000000,12.000000,0.000000,0.000000,0.000000,0.000000,0.000000,0.685954,0.668243,0.262674,0.126084,0.672445,457.000000,432.000000,25.000000,12.000000,0.000000,0.000000,0.000000,0.000000,0.000000;
#CREDIT:;
#DISPLAYBPM:140.000000;
#NOTES:
// measure 0
0000
0000
0000
0000
,  // measure 1
0000
0000
0000
0000
,  // measure 2
0000
0000
0000
0000
,  // measure 3
0000
0000
0000
0000
,  // measure 4
0000
0000
0000
0000
,  // measure 5
0001
0000
0010
0001
0000
0010
0001
0000
1000
0100
0000
1000
0100
0000
1000
0000
,  // measure 6
0010
0000
1000
0010
0000
1000
0010
0000
0100
0001
0000
0100
0001
0000
0010
0000
,  // measure 7
0001
0000
1000
0001
0000
1000
0001
0000
0010
0100
0000
0010
0100
0000
0001
0000
,  // measure 8
1000
0010
0000
1000
0010
0000
0100
0000
0001
0010
0000
0001
0010
0000
0100
0000
,  // measure 9
1000
0000
0100
1000
0000
0100
1000
0000
0010
0100
0000
0010
0100
0000
0001
0000
,  // measure 10
0010
0000
0001
0010
0000
0001
0010
0000
0100
1000
0000
0100
1000
0000
0001
0000
,  // measure 11
1000
0000
0010
0100
0000
0010
0100
0000
1000
0001
0000
1000
0001
0000
0100
0000
,  // measure 12
0020
0100
0100
0100
,  // measure 13
0130
0000
0001
1000
0001
0000
1000
0000
0001
0010
0001
0000
0000
0000
1001
0000
,  // measure 14
0000
0000
0101
0000
0000
0000
0011
0000
0000
0000
0001
0100
0001
0000
0100
0000
,  // measure 15
0010
0000
1000
0010
1000
0000
0100
0000
1000
0100
1000
0000
0000
0000
1010
0000
,  // measure 16
0000
0000
1100
0000
0000
0000
1001
0000
0000
0000
1000
0001
1000
0000
0001
0000
,  // measure 17
0100
0000
0010
0100
0010
0000
0100
0000
0001
0100
0001
0000
0000
0000
0011
0000
,  // measure 18
0000
0000
0110
0000
0000
0000
1100
0000
0000
0000
1000
0010
1000
0000
0010
0000
,  // measure 19
0100
0000
0001
0010
0001
0000
1000
0000
0100
1000
0100
0000
0000
0000
1001
0000
,  // measure 20
0000
0000
0110
0000
0000
0000
1001
0000
0000
0000
0100
0010
0100
0000
0010
0000
,  // measure 21
0100
0000
0001
0100
0000
0001
0100
0000
0010
1000
0010
0000
1000
0100
1000
0100
,  // measure 22
0000
0000
1000
0000
0100
1000
0100
1000
0010
0000
0100
0000
0001
0010
0001
0010
,  // measure 23
0001
0000
1000
0000
0100
0000
0010
0000
0100
0000
1000
0000
0010
0000
0010
0100
,  // measure 24
0010
0100
0010
1000
0001
0010
0100
1000
,  // measure 25
0010
0000
1000
0010
1000
0000
0100
0010
0000
0000
0010
0001
0010
0001
0010
0000
,  // measure 26
0001
0000
0010
0001
0010
0000
0001
0100
0000
0000
0010
0000
1000
0000
0100
0000
,  // measure 27
1000
0100
1000
0000
0100
1000
0100
0000
1000
0010
1000
0000
0001
0010
0001
0010
,  // measure 28
0200
0000
0000
0000
0000
0000
0000
0000
0300
0000
1000
0100
1000
0100
1000
0100
,  // measure 29
1000
0010
1000
0000
0100
0000
1000
0000
0010
0000
0100
1000
0100
0000
1000
0000
,  // measure 30
0010
0000
0100
0001
0100
0000
0001
0000
0010
0000
0000
0000
0011
0000
0000
0000
,  // measure 31
0001
0010
0001
0000
0100
0000
0001
0000
0010
0000
0100
0010
0100
0000
1000
0000
,  // measure 32
0100
0000
0010
0000
0100
0000
1000
0100
1000
0000
0100
0000
0010
0000
1000
0000
,  // measure 33
0001
0010
0001
0000
0100
0000
0001
0000
1000
0000
0010
1000
0010
0000
1000
0000
,  // measure 34
0001
0000
0100
0001
0100
0000
0010
1000
0010
0000
1000
0000
0100
0000
0000
0000
,  // measure 35
1001
0000
1000
0010
0000
0100
0001
0000
0022
0000
0000
0000
0033
0000
0000
0000
,  // measure 36
0011
0000
0001
0010
0000
0200
2000
0000
3300
0000
0100
0000
1000
0100
1000
0100
,  // measure 37
1000
0010
1000
0000
0100
0001
0100
0000
0001
0000
0010
0001
0010
0000
0001
0000
,  // measure 38
0100
0000
0010
0100
0010
0000
1000
0100
1000
0000
0000
0000
0101
0000
0000
0000
,  // measure 39
0001
0010
0001
0000
0010
0100
0010
0000
0100
0000
1000
0010
1000
0000
0010
0000
,  // measure 40
0100
0000
0001
0000
1000
0000
0001
1000
0001
0000
1000
0000
0100
0000
0010
0000
,  // measure 41
0100
1000
0100
0000
1000
0010
1000
0000
0010
0000
0100
0001
0100
0000
0001
0000
,  // measure 42
0010
0000
0001
0010
0001
0000
0100
0000
0001
1000
0001
0000
1000
0000
0000
0000
,  // measure 43
1001
0000
1000
0010
0000
0100
0001
0000
0202
0000
0000
0000
0303
0100
0001
0100
,  // measure 44
0001
0000
0001
0100
0000
0020
2000
0000
3030
0000
0010
0000
1000
0100
0000
0000
,  // measure 45
1010
0000
0100
0001
0000
1000
0100
0000
0010
0001
0000
0100
0010
0000
1000
0000
,  // measure 46
0101
0000
1000
0010
0000
0100
0001
0000
1000
0100
0000
0010
0001
0000
0010
0000
,  // measure 47
0110
0000
0001
0010
0000
0100
1000
0000
0010
0100
0000
1000
0100
0000
0010
0000
,  // measure 48
1100
0000
1000
0200
0000
0310
0100
0000
0001
0010
0001
0000
0100
0000
0001
0000
,  // measure 49
0010
0000
0001
0010
0000
0001
0010
0000
0100
1000
0000
0100
1000
0000
0010
0000
,  // measure 50
0101
0000
0010
1000
0000
0001
0100
0000
1000
0100
0000
0010
0100
0000
0001
0000
,  // measure 51
0011
0000
0100
0010
0000
1000
0100
0000
0010
0001
0000
0100
0010
0000
0001
0000
,  // measure 52
0200
0000
0000
0000
,  // measure 53
0300
0000
0000
0000
;
