#TITLE:MR. WONDERFUL;
#SUBTITLE:;
#ARTIST:SMILE.dk;
#TITLETRANSLIT:;
#SUBTITLETRANSLIT:;
#ARTISTTRANSLIT:;
#GENRE:;
#CREDIT:;
#BANNER:MR. WONDERFUL.png;
#BACKGROUND:MR. WONDERFUL-bg.png;
#LYRICSPATH:;
#CDTITLE:;
#MUSIC:MR. WONDERFUL.ogg;
#OFFSET:0.000000;
#SAMPLESTART:59.130001;
#SAMPLELENGTH:15.000000;
#SELECTABLE:YES;
#DISPLAYBPM:138.000000;
#BPMS:0.000000=138.001999
;
#STOPS:
;
#BGCHANGES:;
#KEYSOUNDS:;
#ATTACKS:;

//---------------dance-single - ----------------
#NOTES:
     dance-single:
     :
     Easy:
     4:
     0.223311,0.244247,0.010855,0.000000,0.000000,144.000000,143.000000,1.000000,0.000000,0.000000,0.000000,0.223311,0.244247,0.010855,0.000000,0.000000,144.000000,143.000000,1.000000,0.000000,0.000000,0.000000:
0000
0000
0000
0000
,
0000
0000
0000
0000
,
0000
0000
0000
0000
,
0000
0000
0000
0000
,
0000
0000
0000
0000
,
1000
0100
0001
0100
,
1000
0100
0001
0100
,
1000
0100
0001
0100
,
0100
0000
0010
0010
,
1000
0000
0000
0000
,
0001
0100
0000
0000
,
1000
0100
0010
0001
,
0100
0010
0000
0000
,
0010
0000
1000
0000
,
1000
0100
0000
0000
,
0001
0010
0100
1000
,
0010
0100
0000
0000
,
0010
0000
0001
0000
,
1000
0100
0001
0100
,
0010
0000
1000
0000
,
0001
0100
1000
0100
,
1000
0000
0010
0000
,
1000
0100
0001
0100
,
0010
0000
1000
0000
,
0001
0100
1000
0100
,
0100
0000
0000
0000
,
1000
0100
0001
0010
,
1000
0100
0010
0000
,
0001
0100
1000
0010
,
0001
0010
0100
0000
,
1000
0100
0001
0010
,
1000
0100
0010
0000
,
0001
0100
1000
0010
,
0001
0010
0100
0000
,
1000
0100
0001
0010
,
1000
0100
0010
0000
,
0001
0100
1000
0010
,
0001
0010
0100
0000
,
1000
0100
0001
0010
,
1000
0100
0010
0000
,
0001
0100
1000
0010
,
0100
0000
0000
0010
,
1000
0010
0001
0100
,
1000
0000
0010
1000
,
0001
0010
1000
0100
,
0001
0000
0010
0001
,
1000
0010
0001
0100
,
1000
0000
0010
0100
,
0001
0010
1000
0100
,
0001
0000
0010
0010
,
1100
0000
0000
0000
;

//---------------dance-single - ----------------
#NOTES:
     dance-single:
     :
     Medium:
     7:
     0.277588,0.325662,0.000000,0.000000,0.000000,179.000000,179.000000,0.000000,0.000000,0.000000,0.000000,0.277588,0.325662,0.000000,0.000000,0.000000,179.000000,179.000000,0.000000,0.000000,0.000000,0.000000:
0000
0000
0000
0000
,
0000
0000
0000
0000
,
0000
0000
0000
0000
,
0000
0000
0000
0000
,
0000
0000
0000
0000
,
0010
0010
0001
0100
,
0010
0010
1000
0100
,
0010
0010
0100
0100
,
0000
0000
0000
0010
0001
0100
0010
1000
,
0001
0000
0000
0000
,
0001
0100
0000
0000
,
0000
1000
0100
0001
0000
0001
0100
1000
,
0001
1000
0000
0000
,
0001
0000
0100
0000
,
1000
0100
0000
0000
,
0000
0001
0100
1000
0000
1000
0100
0001
,
1000
0001
0000
0000
,
1000
0000
0100
0000
,
0010
0010
0001
0100
,
0010
0000
1000
0000
,
0010
0010
1000
0100
,
0001
0000
0010
0000
,
0010
0010
0001
0100
,
0010
0000
1000
0000
,
0010
0010
1000
0100
,
0000
0000
1000
0100
0000
0001
0100
0000
,
0010
0000
0010
0000
0001
0000
0000
0100
,
0000
1000
0001
0100
0010
1000
0001
0000
,
0010
0000
0010
0000
1000
0000
0000
0100
,
0000
0001
1000
0010
0100
0000
0000
0000
,
0010
0000
0010
0000
0001
0000
0000
0100
,
0000
1000
0001
0100
0010
1000
0001
0000
,
0010
0000
0010
0000
0001
0000
0000
1000
,
0100
0010
0001
1000
0100
0000
0000
0000
,
0010
0000
0010
0000
1000
0000
0000
0010
,
0000
0001
0100
0010
1000
0001
0100
0000
,
0010
0000
0010
0000
0100
0000
0000
0010
,
0000
0100
1000
0001
0100
0000
0000
0000
,
0010
0000
0010
0000
1000
0000
0000
0010
,
0000
0001
0100
0010
1000
0001
0100
0000
,
0010
0010
0100
0001
,
0000
0000
0000
0010
0100
0010
0001
1000
,
0100
0000
0001
0100
,
0100
0000
0000
0010
0100
0010
1000
0001
,
0100
0000
1000
0100
,
0100
0000
0000
0010
0100
0010
0001
1000
,
0100
0000
0001
0100
,
0100
0000
0000
0010
0100
0010
1000
0001
,
0100
0000
1000
0100
,
0100
0000
0000
0010
0100
0010
0001
1000
,
0100
0000
0000
0000
;

//---------------dance-single - ----------------
#NOTES:
     dance-single:
     :
     Hard:
     10:
     0.376838,0.419290,0.000000,0.000000,0.086843,243.000000,243.000000,0.000000,0.000000,0.000000,0.000000,0.376838,0.419290,0.000000,0.000000,0.086843,243.000000,243.000000,0.000000,0.000000,0.000000,0.000000:
0000
0000
0000
0000
,
0000
0000
0000
0000
,
0000
0000
0000
0000
,
0000
0000
0000
0000
,
0000
0000
0000
0000
,
1000
0010
0001
0100
,
1000
0010
0001
0100
,
1000
0010
0001
0100
,
0000
0000
0000
0010
0001
0100
0010
1000
,
0001
0001
1000
1000
,
0001
0010
1000
0100
,
0000
1000
1000
0100
0000
0001
0001
0100
,
0010
0100
0001
0001
,
1000
0000
0000
0100
0000
0000
0100
0000
0001
0000
0000
0010
0000
0000
0010
0000
,
1000
0100
0001
0010
,
0000
0001
0001
0010
0000
1000
1000
0010
,
0100
0010
1000
0100
,
1000
0000
0000
0100
0000
0000
0100
0000
0100
0000
0000
0000
0000
0000
0000
0000
,
0010
0000
0000
0100
0000
0000
0100
0000
1000
0000
0000
0000
0001
0000
0000
0000
,
0000
0000
0001
0000
1000
0000
0100
0000
0001
0000
0000
0001
0000
0000
0001
0000
,
0010
0000
0000
0100
0000
0000
0100
0000
0001
0000
0000
0000
1000
0000
0000
0000
,
0000
1000
0001
0010
0100
0000
0000
0000
,
0010
0000
0000
0100
0000
0000
0100
0000
1000
0000
0000
0000
0001
0000
0000
0000
,
0000
0000
0001
0000
1000
0000
0100
0000
0001
0000
0000
0001
0000
0000
0001
0000
,
0010
0000
0000
0100
0000
0000
0100
0000
0001
0000
0000
0000
1000
0000
0000
0000
,
0001
0000
0100
0100
,
0010
0000
0001
0010
0100
1000
0100
0000
,
1000
0000
0010
0000
0001
1000
0100
0000
,
0010
0000
1000
0010
0100
0001
0100
0000
,
0001
0000
0010
0000
1000
0001
0100
0000
,
0010
0000
0001
0010
0100
1000
0100
0000
,
1000
0000
0010
0000
0001
1000
0100
0000
,
0010
0000
1000
0010
0100
0001
0100
0001
,
0001
0100
0010
1000
0100
0000
0000
0000
,
1000
0000
0001
0000
0100
0010
1000
0010
,
0000
1000
0010
1000
0100
0010
0100
0000
,
0001
0000
1000
0000
0100
0010
0001
0010
,
0000
0001
0010
0100
0100
0000
0000
0000
,
1000
0000
0001
0100
0100
0001
1000
0010
,
0000
0100
0010
0100
1000
0001
0100
0000
,
0001
0000
1000
0100
0100
0001
0100
0000
,
0000
0000
0000
1000
0100
0010
0100
1000
,
0001
0000
0000
0100
0000
0000
0100
0000
1000
0000
0000
0000
0100
0000
0000
0000
,
0001
0000
0000
0001
0100
0010
0100
0001
,
1000
0000
0000
0100
0000
0000
0100
0000
0001
0000
0000
0000
0100
0000
0000
0000
,
1000
0000
0000
1000
0100
0010
0100
1000
,
0001
0000
0000
0100
0000
0000
0100
0000
1000
0000
0000
0000
0100
0000
0000
0000
,
0001
0000
0000
0001
0100
0010
0100
0001
,
1000
0000
0000
0100
0000
0000
0100
0000
0001
0000
0000
0000
0100
0000
0000
0000
,
1000
0000
0000
1000
0100
0010
0100
1000
,
1000
0000
0000
0001
0000
0000
0001
0000
1000
0000
0000
0001
0000
0000
0001
0000
,
1000
0000
0000
0001
0000
0000
0001
0000
1000
0000
0000
0000
0000
0000
0000
0000
;

//---------------dance-couple - ----------------
#NOTES:
     dance-couple:
     :
     Medium:
     7:
     0.245022,0.363385,0.065132,0.000000,0.048849,158.000000,152.000000,6.000000,0.000000,0.000000,0.000000,0.245022,0.363385,0.065132,0.000000,0.048849,158.000000,152.000000,6.000000,0.000000,0.000000,0.000000:
00000000
00000000
00000000
00000000
,
00000000
00000000
00000000
00000000
,
00000000
00000000
00000000
00000000
,
00000000
00000000
00000000
00000000
,
00000000
00000000
00000000
00000000
,
10000000
00100000
00010000
01000000
,
00001000
00000010
00000001
00000100
,
10000000
00100000
00010000
01000000
,
00001000
00000010
00000001
00000100
,
10000000
10000000
00000001
00000001
,
10100000
01010000
00000001
00000001
,
00000000
10000000
10000000
01000000
00000001
00010000
00010001
01000000
,
00100000
01000000
00010001
00010001
,
10001000
00000000
00000000
01000100
00000000
00000000
01000100
00000000
00010001
00000000
00000000
00100010
00000000
00000000
00100010
00000000
,
00000011
00001100
10000000
10000000
,
00000000
00001000
00001000
00000100
10000000
00000001
10000001
00000100
,
00000010
00000100
10000001
10000001
,
10001000
00000000
00000000
01000100
00000000
00000000
01000100
00000000
01000100
00000000
00000000
00000000
00000000
00000000
00000000
00000000
,
00100000
00000000
00000000
01000000
00000000
00000000
01000000
00000000
10000000
00000000
01000000
00000000
10000000
00000000
00000000
00000000
,
00010000
00000000
10000000
00000000
00010000
01000000
00010000
00000000
,
00000010
00000000
00000000
00000100
00000000
00000000
00000100
00000000
00001000
00000000
00000100
00000000
00001000
00000000
00000000
00000000
,
00000001
00000000
00001000
00000000
00000001
00000100
00000001
00000000
,
00100000
00000000
00000000
01000000
00000000
00000000
01000000
00000000
10000000
00000000
00010000
00000000
01000000
00000000
00000000
00000000
,
00000000
00000000
00010001
00000000
10001000
00000000
01000100
00000000
00010001
00000000
00000000
00010001
00000000
00000000
00010001
00000000
,
00000010
00000000
00000000
00000100
00000000
00000000
00000100
00000000
00001000
00000000
00000001
00000000
00000100
00000000
00000000
00000000
,
00000000
00000000
10000000
00010000
00000000
00001000
00000001
00000000
,
00001000
00000000
10000010
00000000
00000001
00001000
10000100
00000000
,
00000010
00000000
10001000
00000010
00000100
00000001
10000100
00000000
,
00010000
00000000
00100001
00000000
10000000
00010000
01000001
00000000
,
00100000
00000000
00010001
00100000
01000000
10000000
01000001
00000000
,
00000010
00000000
00000001
00000010
00000100
00001000
00000100
00000000
,
10000000
00000000
00100000
00000000
00010000
10000000
01000000
00000000
,
00000010
00000000
00001000
00000010
00000100
00000001
00000100
00010000
,
00010000
01000000
00100000
10000000
01000000
00000000
00000000
00000000
,
00100000
00000000
00010000
00100000
01000000
10000000
01000000
00000000
,
00000001
00000000
00000010
00000000
00001000
00000001
00000100
00000000
,
00010000
00000000
10000000
00000000
01000000
00100000
00010000
00000010
,
00000000
00000001
00000010
00000100
00000100
00000000
00000000
00000000
,
10001000
01000100
00010001
01000100
,
10001000
00000000
01000100
00000000
00010001
10001000
01000100
00000000
,
00011000
00011000
10000001
10000001
,
01000100
00000000
00000000
00000000
,
00001001
00000000
10000100
00000000
00000010
00001000
10000100
00000000
,
00001001
00000000
10000100
00000000
00000010
00001000
10000100
00000000
,
10010000
00000000
01000001
00000000
00100000
10000000
01000001
00000000
,
10010000
00000000
01000001
00000000
00100000
10000000
01000001
00000000
,
00000110
00000000
10000001
00000000
00001000
00000100
10001000
00000000
,
00000110
00000000
10000001
00000000
00001000
00000100
10001000
00000000
,
01100000
00000000
00010001
00000000
10000000
01000000
10000001
00000000
,
01100000
00000000
00010001
00000000
10000000
01000000
10000001
00000000
,
10001000
00000000
00000000
00010001
00000000
00000000
00010001
00000000
10001000
00000000
00000000
00010001
00000000
00000000
00010001
00000000
,
10001000
00000000
00000000
00010001
00000000
00000000
00010001
00000000
10001000
00000000
00000000
00000000
00000000
00000000
00000000
00000000
;

//---------------dance-double - ----------------
#NOTES:
     dance-double:
     :
     Easy:
     4:
     0.220210,0.244247,0.010855,0.000000,0.000000,142.000000,141.000000,1.000000,0.000000,0.000000,0.000000,0.220210,0.244247,0.010855,0.000000,0.000000,142.000000,141.000000,1.000000,0.000000,0.000000,0.000000:
00000000
00000000
00000000
00000000
,
00000000
00000000
00000000
00000000
,
00000000
00000000
00000000
00000000
,
00000000
00000000
00000000
00000000
,
00000000
00000000
00000000
00000000
,
10000000
01000000
00010000
00000000
,
00001000
00000010
00000001
00000000
,
00000001
00000100
00001000
00000000
,
00010000
00000000
00100000
10000000
,
01000000
00000000
00000000
00000000
,
10000000
10000000
01000000
00000000
,
00010000
00001000
00000010
00000001
,
00000100
00000100
00000001
00000000
,
00001000
00000000
00000100
00000000
,
00010000
00001000
00010000
00000000
,
00001000
01000000
00100000
10000000
,
01000000
00010000
00001000
00000000
,
00000010
00000000
00000100
00000000
,
00010000
00000000
00100000
10000000
,
01000000
00000000
00010000
00000000
,
00001000
00000000
00000010
00000001
,
00000100
00000000
00001000
00000000
,
00010000
00000000
00100000
10000000
,
01000000
00000000
00010000
00000000
,
00001000
00000000
00000010
00000001
,
00000100
00000000
00000000
00000000
00001000
00010000
00001000
00000000
,
00100000
01000000
00010000
00000000
,
00000010
00000100
00001000
00000000
,
00100000
01000000
00010000
00000000
,
00000010
00000000
00001000
00000100
00001000
00000000
00000000
00000000
,
00000001
00000010
00000100
00001000
,
00000010
00010000
00001000
00000000
,
00100000
01000000
10000000
00010000
,
01000000
00000000
00010000
01000000
00010000
00000000
00000000
00000000
,
10000000
00100000
01000000
00010000
,
00100000
00001000
00010000
00000000
,
00000010
00000100
00000001
00001000
,
00000100
00000000
00001000
00000100
00001000
00000000
00000000
00000000
,
00000010
00000100
00010000
00001000
,
00100000
01000000
00001000
00010000
,
00100000
00010000
10000000
01000000
,
00000000
00000000
00010000
00000100
,
00001000
00000000
00000010
00000100
,
00000001
00000000
00001000
01000000
,
00010000
00000000
00100000
01000000
,
10000000
00000000
00010000
00000100
,
00001000
00000000
00000010
00000100
,
00000001
00000000
00001000
01000000
,
00010000
00000000
00100000
01000000
,
10000000
00000000
00010000
00000010
,
00000101
00000000
00000000
00000000
;

//---------------dance-double - ----------------
#NOTES:
     dance-double:
     :
     Medium:
     5:
     0.300850,0.352801,0.227964,0.000000,0.000000,194.000000,173.000000,21.000000,0.000000,0.000000,0.000000,0.300850,0.352801,0.227964,0.000000,0.000000,194.000000,173.000000,21.000000,0.000000,0.000000,0.000000:
00000000
00000000
00000000
00000000
,
00000000
00000000
00000000
00000000
,
00000000
00000000
00000000
00000000
,
00000000
00000000
00000000
00000000
,
00000000
00000000
00000000
00000000
,
10000000
10000000
00010000
01000000
,
00100000
00100000
00010000
00001000
,
00000010
00000010
00000001
00000100
,
00000100
00000000
00001000
00010000
,
00100000
00000000
00000000
00000000
,
10000000
00010000
01000000
00000000
,
00100000
10000000
00010000
01000000
,
00100000
00100000
10000000
01000000
,
00100000
00010000
00001000
00000000
,
00000010
00000001
00001000
00000000
,
00000010
00000001
00001000
00000100
,
00000010
00000010
00000001
00000100
,
00000010
00001000
00010000
00000000
,
00100000
00100000
10000000
01000000
,
00010000
00000000
00001000
00000000
,
00000010
00000010
00000001
00000100
,
00001000
00000000
00010000
00000000
,
00100000
00100000
10000000
01000000
,
00010000
00000000
00001000
00000000
,
00000010
00000010
00000001
00000100
,
00001000
00000000
00000000
00011000
,
00100000
00000000
00010000
00000000
10000000
01000000
00010000
00000000
,
10100000
01010000
00011000
00000000
,
00000010
00000000
00001000
00000000
00000001
00000100
00001000
00000000
,
00000011
00001100
00011000
00000000
,
00100000
00000000
00010000
00000000
10000000
01000000
00010000
00000000
,
10100000
01010000
00011000
00000000
,
00000010
00000000
00001000
00000000
00000001
00000100
00001000
00000000
,
00000100
00010000
00001000
00010000
00001000
00000000
00000000
00000000
,
00100000
00000000
01000000
00000000
10000000
00010000
10000000
00000000
,
01000000
00000000
00100000
00100000
00100000
00000000
00001000
00000000
,
00000010
00000000
00000100
00000000
00000001
00001000
00000001
00000000
,
00000100
00000000
00000010
00000010
00000010
00000000
00010000
00000000
,
00000010
00000000
00001000
00000000
00000100
00010000
00000100
00000000
,
00010000
00000000
00001000
00001000
00001000
00000000
01000000
00000000
,
00010000
00000000
00100000
00000000
00001000
00010000
00001000
00000000
,
00010000
00000000
00011000
00001100
,
00000001
00000000
00000010
00000000
00001000
00000000
00000100
00000100
,
00000100
00000000
00011000
01010000
,
10000000
00000000
00100000
00000000
00010000
00000000
01000000
01000000
,
01000000
00000000
00011000
00001100
,
00000001
00000000
00000010
00000000
00001000
00000000
00000100
00000100
,
00000100
00000000
00011000
01010000
,
10000000
00000000
00100000
00000000
00010000
00000000
01000000
01000000
,
01000000
00000000
00011000
00001010
,
00000101
00000000
00000000
00000000
;

//---------------dance-double - ----------------
#NOTES:
     dance-double:
     :
     Hard:
     7:
     0.396998,0.447243,0.227964,0.000000,0.146548,256.000000,235.000000,21.000000,0.000000,0.000000,0.000000,0.396998,0.447243,0.227964,0.000000,0.146548,256.000000,235.000000,21.000000,0.000000,0.000000,0.000000:
00000000
00000000
00000000
00000000
,
00000000
00000000
00000000
00000000
,
00000000
00000000
00000000
00000000
,
00000000
00000000
00000000
00000000
,
00000000
00000000
00000000
00000000
,
00100000
01000000
00001000
00010000
,
00000010
00000100
00010000
00001000
,
00100000
01000000
00001000
00010000
,
00000000
00000000
00010000
00001000
,
00100000
00010000
01000000
00001000
,
00010000
00001000
00010000
00000000
,
00000010
00001000
00000100
00000010
,
00000001
00000100
00000010
00001000
,
00000100
00010000
00001000
00100000
,
00010000
10000000
01000000
00000000
,
00100000
00010000
01000000
00001000
,
00100000
00010000
01000000
00001000
,
00010000
00000000
00000000
00010000
00000000
00000000
00010000
00000000
00010000
00000000
00000000
00000000
00000000
00000000
00000000
00000000
,
00001000
00000000
00000000
00010000
00000000
00000000
01000000
00000000
00010000
00000000
00000000
00000000
10000000
00000000
00000000
00000000
,
10000000
00000000
00000000
01000000
00000000
00000000
00010000
00000000
10000000
00000000
00000000
00000000
00010000
00000000
00000000
00000000
,
00100000
00000000
00000000
00010000
00000000
00000000
00001000
00000000
00010000
00000000
00000000
00000000
00000100
00000000
00000000
00000000
,
00000010
00000000
00000000
00001000
00000000
00000000
00010000
00000000
00000100
00000000
00000000
00000000
00010000
00000000
00000000
00000000
,
00010000
00000000
00000000
00001000
00000000
00000000
00000100
00000000
00001000
00000000
00000000
00000000
00000001
00000000
00000000
00000000
,
00000001
00000000
00000000
00000100
00000000
00000000
00001000
00000000
00000001
00000000
00000000
00000000
00000101
00000000
00000000
00000000
,
00000010
00000000
00000000
00001000
00000000
00000000
00010000
00000000
00001000
00000000
00000000
00000000
00010000
00000000
00000000
00000000
,
00001100
00011000
00110000
00011000
,
00001100
00000000
00011000
00000000
00100000
00010000
00001000
00000000
,
00001000
00010000
00100000
00000000
00010000
00001000
00000100
00000000
,
00001010
00000000
00000101
00000000
00001000
00000100
00000001
00000000
,
00000010
00001000
00010000
00000000
00010000
00001000
00000100
00000000
,
00011000
00000000
00110000
00000000
10000000
01000000
00010000
00000000
,
00100000
00010000
00001000
00000000
00010000
00001000
00000100
00000000
,
00011000
00000000
00001010
00000000
00000001
00000100
00001000
00000000
,
00000001
00000100
00001000
00000100
00000001
00000000
00001100
00000000
,
00011000
00000000
00100000
00010000
00001000
00010000
01000000
00000000
,
01010000
00000000
10000000
01000000
00010000
01000000
10000000
00000000
,
00110000
00000000
01000000
00010000
00001000
00010000
01000000
00000000
,
00011000
00000000
00100000
00010000
00001000
00010000
00100000
00000000
,
00001100
00000000
00010000
00001000
00000100
00001000
00010000
00000000
,
00000101
00000000
00001000
00000100
00000001
00000100
00001000
00000000
,
00001010
00000000
00000001
00000100
00001000
00000100
00000001
00000000
,
00001000
00001000
00001000
00001000
,
00000001
00000000
00000000
00000010
00000000
00000000
00001000
00000000
00000010
00000000
00000000
00000100
00000000
00000000
00001000
00000000
,
00000100
00000000
00000000
00001000
00000000
00000000
00010000
00000000
00001000
00000000
00000000
00010000
00000000
00000000
00100000
00000000
,
00010000
00000000
00000000
00100000
00000000
00000000
10000000
00000000
00100000
00000000
00000000
01000000
00000000
00000000
10000000
00000000
,
01000000
00000000
00000000
10000000
00000000
00000000
10000000
00000000
10000000
00000000
00000000
01000000
00000000
00000000
00010000
00000000
,
01000000
00000000
00000000
00100000
00000000
00000000
00010000
00000000
00100000
00000000
00000000
00010000
00000000
00000000
00001000
00000000
,
00010000
00000000
00000000
00001000
00000000
00000000
00000100
00000000
00001000
00000000
00000000
00000100
00000000
00000000
00000001
00000000
,
00000100
00000000
00000000
00000010
00000000
00000000
00000001
00000000
00000010
00000000
00000000
00000001
00000000
00000000
00000001
00000000
,
00000001
00000000
00000000
00000100
00000000
00000000
00001000
00000000
00000100
00000000
00000000
00001000
00000000
00000000
00010000
00000000
,
00100000
00000000
00000000
00010000
00000000
00000000
00001000
00000000
00010000
00000000
00000000
00001000
00000000
00000000
00000100
00000000
,
00001000
00000000
00000000
00010000
00000000
00000000
01000000
00000000
00010000
00000000
00000000
00000000
00000000
00000000
00000000
00000000
;

//---------------dance-solo - ----------------
#NOTES:
     dance-solo:
     :
     Easy:
     3:
     0.223311,0.244247,0.000000,0.000000,0.000000,144.000000,144.000000,0.000000,0.000000,0.000000,0.000000,0.223311,0.244247,0.000000,0.000000,0.000000,144.000000,144.000000,0.000000,0.000000,0.000000,0.000000:
000000
000000
000000
000000
,
000000
000000
000000
000000
,
000000
000000
000000
000000
,
000000
000000
000000
000000
,
000000
000000
000000
000000
,
010000
010000
000010
010000
,
000001
100000
000001
100000
,
000100
000100
001000
000100
,
100000
000001
100000
000001
,
010000
000000
000000
000000
,
000010
000010
000000
000000
,
100000
000100
001000
000001
,
010000
010000
000000
000000
,
000100
000000
001000
000000
,
000001
000001
000000
000000
,
000100
001000
000001
100000
,
001000
001000
000000
000000
,
000010
000000
010000
000000
,
000100
100000
000001
001000
,
010000
000000
000010
000000
,
100000
000100
001000
000001
,
010000
000000
010000
000000
,
000100
100000
000001
001000
,
000010
000000
000010
000000
,
100000
001000
000100
000001
,
001000
000000
000000
000000
,
010000
010000
000010
000010
,
100000
000001
100000
000000
,
000010
000010
010000
010000
,
000100
001000
000100
000000
,
010000
000001
010000
000001
,
010000
000100
100000
000000
,
000010
100000
000010
100000
,
000010
001000
000001
000000
,
000100
100000
000001
001000
,
000010
000010
000010
000000
,
001000
000100
100000
000001
,
010000
010000
010000
000000
,
000001
000100
001000
100000
,
000001
001000
000100
000000
,
100000
000100
001000
000001
,
100000
000000
000000
000001
,
100000
000100
001000
000001
,
010000
000000
000010
010000
,
000001
001000
000100
100000
,
000010
000000
010000
000010
,
000100
000001
100000
001000
,
010000
000000
010000
000010
,
100000
001000
000100
000001
,
000010
000000
010000
010000
,
001000
000000
000000
000000
;

//---------------dance-solo - ----------------
#NOTES:
     dance-solo:
     :
     Medium:
     5:
     0.272936,0.325662,0.000000,0.000000,0.000000,176.000000,176.000000,0.000000,0.000000,0.000000,0.000000,0.272936,0.325662,0.000000,0.000000,0.000000,176.000000,176.000000,0.000000,0.000000,0.000000,0.000000:
000000
000000
000000
000000
,
000000
000000
000000
000000
,
000000
000000
000000
000000
,
000000
000000
000000
000000
,
000000
000000
000000
000000
,
010000
010000
000001
010000
,
000010
000010
100000
000010
,
001000
001000
000100
000100
,
000000
000000
000000
001000
000100
100000
000001
010000
,
010000
000000
000000
000000
,
000100
001000
000000
000000
,
000000
001000
000100
001000
000000
000001
100000
000001
,
001000
000100
000000
000000
,
000010
000000
010000
000000
,
000100
001000
000000
000000
,
000000
000001
000010
000001
000000
100000
010000
100000
,
000100
001000
000000
000000
,
000001
000000
001000
000000
,
000100
000100
100000
000001
,
100000
000000
000100
000000
,
010000
010000
000001
001000
,
000010
000000
001000
000000
,
000010
000010
100000
001000
,
010000
000000
001000
000000
,
000100
000100
001000
000001
,
000000
000000
010000
100000
000001
000010
000000
000000
,
000100
000100
100000
001000
,
010000
000000
000001
000000
001000
000010
000010
000000
,
100000
100000
000100
001000
,
000010
000000
100000
010000
000100
000000
000000
000000
,
000010
010000
000001
001000
,
100000
000000
000001
000000
000100
001000
100000
000000
,
001000
000010
100000
000001
,
000100
001000
010000
010000
000010
000000
000000
000000
,
100000
000000
000001
000000
100000
000000
000000
000100
,
000000
001000
000100
000010
000001
010000
100000
000000
,
000100
000000
000100
000000
001000
000000
000000
000001
,
000000
100000
000100
001000
000001
000000
000000
000000
,
010000
000000
010000
000000
000010
000000
000000
001000
,
000000
001000
000100
000000
010000
000010
010000
000000
,
000001
000001
100000
000001
,
000000
000000
000000
000010
010000
000010
100000
100000
,
000001
000000
001000
000100
,
001000
000000
000000
000010
010000
000010
100000
000001
,
000001
000000
100000
000001
,
000001
000000
000000
001000
000100
001000
000001
000001
,
100000
000000
000010
010000
,
010000
000000
000000
000001
100000
000001
001000
000100
,
100000
000000
100000
001000
,
000001
000000
000000
010000
000010
010000
000100
001000
,
000001
000000
000000
000000
;

//---------------dance-solo - ----------------
#NOTES:
     dance-solo:
     :
     Hard:
     7:
     0.373736,0.419290,0.000000,0.000000,0.081416,241.000000,241.000000,0.000000,0.000000,0.000000,0.000000,0.373736,0.419290,0.000000,0.000000,0.081416,241.000000,241.000000,0.000000,0.000000,0.000000,0.000000:
000000
000000
000000
000000
,
000000
000000
000000
000000
,
000000
000000
000000
000000
,
000000
000000
000000
000000
,
000000
000000
000000
000000
,
010000
000100
100000
000100
,
001000
000001
001000
000010
,
100000
000100
001000
000001
,
000000
000000
000000
000100
000001
000010
000001
100000
,
001000
001000
100000
100000
,
000001
000100
000010
100000
,
000000
001000
001000
000100
000000
100000
100000
000001
,
001000
000100
100000
100000
,
000010
000000
000000
010000
000000
000000
010000
000000
001000
000000
000000
100000
000000
000000
100000
000000
,
000001
001000
000100
100000
,
000000
000010
000010
001000
000000
010000
010000
000001
,
000001
100000
000100
001000
,
000001
000000
000000
100000
000000
000000
100000
000000
100000
000000
000000
000000
000000
000000
000000
000000
,
000010
000000
000000
100000
000000
000000
100000
000000
000001
000000
000000
000000
001000
000000
000000
000000
,
000000
100000
000010
001000
000100
000000
000000
000000
,
000001
000000
000000
010000
000000
000000
010000
000000
000100
000000
000000
000000
100000
000000
000000
000000
,
000000
000010
100000
000001
001000
000000
000000
000000
,
000010
000000
000000
000010
000000
000000
000010
000000
100000
000000
000000
000000
000001
000000
000000
000000
,
000000
000000
000001
000000
100000
000000
000100
000000
001000
000000
000000
001000
000000
000000
001000
000000
,
001000
000000
000000
000001
000000
000000
000001
000000
010000
000000
000000
000000
010000
000000
000000
000000
,
000010
000000
001000
001000
,
000100
000000
000010
010000
000010
100000
001000
000000
,
100000
000000
000010
000000
000001
010000
001000
000000
,
100000
000000
000100
001000
000001
010000
000010
000000
,
001000
000000
000001
000000
100000
000100
001000
000000
,
000001
000000
100000
000010
001000
000100
100000
000000
,
010000
000000
000001
000000
001000
000010
100000
000000
,
000100
000000
001000
000001
100000
000001
100000
000010
,
000010
001000
000100
100000
001000
000000
000000
000000
,
010000
000000
000001
000000
100000
000010
001000
000010
,
000000
100000
000100
010000
000001
001000
000001
000000
,
100000
000000
000100
000000
001000
000001
100000
000001
,
000000
001000
000010
010000
010000
000000
000000
000000
,
000100
000000
100000
000001
000001
001000
000100
100000
,
000000
000001
000100
000001
010000
000010
001000
000000
,
000001
000000
100000
001000
001000
000100
100000
000000
,
000000
000000
000000
010000
000001
100000
000100
001000
,
000001
000000
000000
010000
000000
000000
010000
000000
000010
000000
000000
000000
001000
000000
000000
000000
,
000100
000000
000000
000100
001000
000001
100000
000010
,
000010
000000
000000
001000
000000
000000
001000
000000
000001
000000
000000
000000
100000
000000
000000
000000
,
000100
000000
000000
100000
001000
010000
000010
100000
,
000001
000000
000000
001000
000000
000000
001000
000000
100000
000000
000000
000000
000100
000000
000000
000000
,
010000
000000
000000
000001
001000
000100
001000
000001
,
100000
000000
000000
001000
000000
000000
001000
000000
010000
000000
000000
000000
000001
000000
000000
000000
,
100000
000000
000000
000100
001000
000100
001000
000010
,
000010
000000
000000
100000
000000
000000
100000
000000
000010
000000
000000
100000
000000
000000
100000
000000
,
000010
000000
000000
100000
000000
000000
100000
000000
000010
000000
000000
000000
000000
000000
000000
000000
;

//---------------dance-single - ----------------
#NOTES:
     dance-single:
     :
     Beginner:
     2:
     0.150425,0.189970,0.021711,0.000000,0.000000,97.000000,95.000000,2.000000,0.000000,0.000000,0.000000,0.150425,0.189970,0.021711,0.000000,0.000000,97.000000,95.000000,2.000000,0.000000,0.000000,0.000000:
0000
0000
0000
0000
,
0000
0000
0000
0000
,
0000
0000
0000
0000
,
0000
0000
0000
0000
,
0000
0000
0000
0000
,
1000
0000
0000
0000
,
0001
0000
0000
0000
,
0100
0000
0000
0000
,
0010
0000
0000
0000
,
1001
0000
0000
0000
,
0100
0100
0000
0000
,
1000
0000
1000
0000
,
0010
0010
0000
0000
,
0001
0000
0001
0000
,
1000
1000
0000
0000
,
0100
0000
0100
0000
,
0001
0001
0000
0000
,
0001
0010
0100
0000
,
1000
0001
1000
0000
,
1000
0010
1000
0000
,
1000
0100
1000
0000
,
1000
0001
1000
0000
,
0001
1000
0001
0000
,
0001
0100
0001
0000
,
0001
0010
0001
0000
,
0001
1000
0001
0000
,
0001
0000
1000
0000
,
0100
0010
0100
0000
,
1000
0000
0001
0000
,
0010
0100
0010
0000
,
1000
0000
0010
0000
,
0100
0001
0100
0000
,
0001
0000
0010
0000
,
1000
0010
1000
0000
,
1000
0000
0001
0000
,
0001
1000
0001
0000
,
0010
0000
0010
0000
,
1000
0001
1000
0000
,
0100
0000
0100
0000
,
0010
0100
0010
0000
,
0001
0000
0001
0000
,
0100
0010
0100
0000
,
1000
0000
0000
0000
,
0100
0000
0000
0000
,
0001
0000
0000
0000
,
0010
0000
0000
0000
,
0001
0000
0000
0000
,
0100
0000
0000
0000
,
1000
0000
0000
0000
,
0010
0000
0000
0000
,
0110
0000
0000
0000
;

//---------------dance-single - ----------------
#NOTES:
     dance-single:
     :
     Challenge:
     13:
     0.564481,0.619437,0.521059,0.336518,0.206253,364.000000,316.000000,48.000000,31.000000,0.000000,0.000000,0.564481,0.619437,0.521059,0.336518,0.206253,364.000000,316.000000,48.000000,31.000000,0.000000,0.000000:
// measure 0
0000
0000
0000
0000
,  // measure 1
0000
0000
0000
0000
,  // measure 2
0000
0000
0000
0000
,  // measure 3
0000
0000
0000
0000
,  // measure 4
0000
0000
0000
0000
,  // measure 5
1100
0000
0100
1000
0001
0100
0010
1000
,  // measure 6
0000
1000
0010
0001
0010
1000
1001
0000
,  // measure 7
0101
0000
0001
0100
1000
0010
0100
0010
,  // measure 8
0000
0000
0000
0100
0100
0010
0010
1000
,  // measure 9
2000
3200
0302
0023
,  // measure 10
0130
1200
0001
0310
,  // measure 11
1001
0000
0001
0010
0001
0000
0100
0010
0000
1000
0010
0000
0100
0001
0100
0000
,  // measure 12
0210
1300
0210
0301
,  // measure 13
1001
0000
0001
0010
0000
0010
0100
0000
0110
0000
0100
1000
0000
1000
0010
0000
,  // measure 14
1000
0010
1000
0000
0001
0100
0001
0000
0010
0000
0001
0000
0100
0000
0010
0000
,  // measure 15
0000
0000
0010
0000
1000
0000
0001
0100
0000
0001
0100
0000
0010
0000
1000
0000
,  // measure 16
0120
1030
0120
0031
,  // measure 17
0011
0000
0000
0110
0000
0000
2000
0000
0002
0000
3003
0000
1001
0000
0000
0000
,  // measure 18
2100
0000
0000
0010
0000
0000
0100
0000
0000
0000
0001
0000
3010
0000
1000
0000
,  // measure 19
0001
0000
0010
0001
0010
0000
0100
0000
1100
0000
0000
1100
0000
0000
1100
0000
,  // measure 20
0102
0000
0000
0010
0000
0000
0100
0000
0000
0000
1000
0000
0103
0000
0001
0000
,  // measure 21
0000
0010
1000
0002
0200
0303
0101
0000
,  // measure 22
0210
0000
0000
1000
0000
0000
0001
0000
0000
0000
0010
0000
1300
0000
0010
0000
,  // measure 23
1010
0000
0010
1000
0010
0000
0100
0000
0101
0000
0000
0101
0000
0000
0101
0000
,  // measure 24
0120
0000
0000
1000
0000
0000
0001
0000
0000
0000
0100
0000
1030
0000
0010
0000
,  // measure 25
0101
0000
0000
0001
0100
0000
0001
0000
0000
0000
0001
0000
0010
0000
1000
0000
,  // measure 26
0100
0000
0000
0100
0010
0000
1000
0000
0001
0000
0010
0000
0100
0000
1000
0000
,  // measure 27
0000
1000
0010
0001
0101
1100
0101
0000
,  // measure 28
0001
0000
0000
0001
0010
0000
1000
0000
0100
0000
0010
0000
0001
0000
0010
0000
,  // measure 29
0000
0010
1000
0001
0020
0100
0130
0000
,  // measure 30
0100
0000
0000
0100
1000
0000
0100
0000
0001
0000
0010
0000
1000
0000
0010
0000
,  // measure 31
0000
0010
0001
0100
1100
0110
0011
0000
,  // measure 32
1000
0000
0000
1000
0010
0000
0100
0000
0001
0000
1000
0000
0010
0000
0001
0000
,  // measure 33
0100
1000
0100
0001
0022
0000
0033
0000
,  // measure 34
0100
0000
0000
0100
0001
0000
0100
0000
1000
0000
0100
0000
0001
0000
0100
0000
,  // measure 35
1000
0010
0100
0010
1010
0110
0101
0000
,  // measure 36
0001
0000
0000
0001
0010
0000
1000
0000
0100
0000
0010
0000
0001
0000
0101
0000
,  // measure 37
0100
1000
0001
0010
1010
0011
0101
0000
,  // measure 38
0010
0000
0000
0010
1000
0000
0001
0000
0100
0000
1000
0000
0010
0000
0100
0000
,  // measure 39
0001
0010
1000
0010
0011
0110
1100
0000
,  // measure 40
1000
0000
0000
1000
0010
0000
0001
0000
0100
0000
1000
0000
0100
0000
0001
0000
,  // measure 41
0020
0000
0000
0130
0001
1000
0100
0001
,  // measure 42
0020
0000
0000
0001
0000
0000
0100
0000
0000
0000
0130
0000
0010
0000
1000
0000
,  // measure 43
0002
0000
0000
0010
0000
0000
0100
0000
0103
0000
1000
0000
0100
0000
0001
0000
,  // measure 44
0200
0000
0000
1000
0000
0000
0010
0000
0000
0000
0301
0000
0100
0000
0010
0000
,  // measure 45
2000
0000
0000
0010
0000
0000
0100
0000
3100
0000
0010
0000
1000
0000
0100
0000
,  // measure 46
0002
0000
0000
0010
0000
0000
1000
0000
0000
0000
0103
0000
0001
0000
1000
0000
,  // measure 47
0020
0000
0000
0001
0000
0000
0100
0000
0130
0000
1000
0000
0010
0000
0001
0000
,  // measure 48
2000
0000
0000
0010
0000
0000
0001
0000
0000
0000
3100
0000
1000
0000
0001
0000
,  // measure 49
0200
0000
0000
0001
0000
0000
1000
0000
1300
0000
0100
0000
0010
0000
0001
0000
,  // measure 50
0101
0010
1000
0100
1100
0010
0001
0100
,  // measure 51
0110
0010
1000
0001
2002
0000
0000
3003
;
