#TITLE:MOVIN ON (Extended Moon Mix);
#SUBTITLE:;
#ARTIST:ELLEN GEE;
#TITLETRANSLIT:;
#SUBTITLETRANSLIT:;
#ARTISTTRANSLIT:;
#GENRE:;
#CREDIT:;
#BANNER:MOVIN ON (Extended Moon Mix).png;
#BACKGROUND:MOVIN ON (Extended Moon Mix)-bg.png;
#LYRICSPATH:;
#CDTITLE:;
#MUSIC:MOVIN ON (Extended Moon Mix).ogg;
#OFFSET:0.000000;
#SAMPLESTART:16.902000;
#SAMPLELENGTH:15.000000;
#SELECTABLE:YES;
#DISPLAYBPM:142.000000;
#BPMS:0.000000=141.725998
,4.000000=142.003006
;
#STOPS:
;
#BGCHANGES:;
#KEYSOUNDS:;
#ATTACKS:;

//---------------dance-single - ----------------
#NOTES:
     dance-single:
     :
     Easy:
     4:
     0.223407,0.285907,0.042554,0.000000,0.000000,147.000000,143.000000,4.000000,0.000000,0.000000,0.000000,0.223407,0.285907,0.042554,0.000000,0.000000,147.000000,143.000000,4.000000,0.000000,0.000000,0.000000:
0000
0000
0000
0000
,
0000
0000
0000
0000
,
1000
0000
1000
0000
,
0001
0000
0001
0000
,
1000
0000
1000
0000
,
0001
0000
0001
0000
,
0010
0000
0001
0000
,
1000
0000
0010
0000
,
1000
0000
0001
0000
,
1001
0000
0000
0000
,
0010
0010
1000
0000
,
0001
0001
0010
0000
,
0100
0100
1000
0000
,
0001
0001
0100
0000
,
0010
1000
0001
0000
,
0010
0001
1000
0000
,
0010
1000
0001
0000
,
1001
0000
0000
0000
,
0010
0000
1000
0010
,
0100
0000
0010
1000
,
0001
0000
0010
0001
,
1000
1000
0001
0001
,
0100
0000
0001
0100
,
0010
0000
0100
0001
,
1000
0000
0100
1000
,
0001
0001
1000
1000
,
0010
0000
0000
0000
,
0000
0000
0000
0000
,
1000
1000
0010
0100
,
0001
0000
0010
0000
,
0100
0000
0000
0000
,
0000
0000
0000
0000
,
1000
1000
0010
0100
,
0001
0000
0000
0000
,
0010
0001
0100
0100
,
0010
1000
0100
0100
,
0010
0001
0100
0100
,
0001
1000
1001
0000
,
0010
1000
0100
0100
,
0010
0001
0100
0100
,
0010
1000
0100
0100
,
0110
0000
0000
0000
,
0010
0010
0001
0001
,
1000
1000
0010
0010
,
0100
0100
0001
0001
,
1000
1000
0100
0100
,
0010
0001
1000
1000
,
0010
1000
0001
0001
,
0010
0001
1000
1000
,
0010
1000
0001
0001
,
0010
0000
0000
0000
,
0010
0000
0000
0000
,
0001
0000
0000
0000
,
1000
1000
1000
1000
;

//---------------dance-single - ----------------
#NOTES:
     dance-single:
     :
     Medium:
     8:
     0.337390,0.343887,0.021277,0.000000,0.000000,222.000000,220.000000,2.000000,0.000000,0.000000,0.000000,0.337390,0.343887,0.021277,0.000000,0.000000,222.000000,220.000000,2.000000,0.000000,0.000000,0.000000:
0000
0000
0000
0000
,
0000
0000
0000
0000
,
0010
0000
0000
0000
0100
0001
0100
0000
,
0010
0000
0000
0000
0100
1000
0100
0000
,
0001
0000
0000
0000
0010
0100
1000
0000
,
0001
0000
0000
0000
0100
0010
1000
0000
,
0100
0000
0000
0000
0010
0001
0010
0000
,
0100
0000
0000
0000
1000
0010
1000
0000
,
0001
0000
0000
0000
0100
0010
1000
0000
,
0001
0000
0000
0000
,
0010
0000
0010
0000
0100
0001
0100
0000
,
1000
0000
1000
0000
0010
0100
0010
0000
,
1000
0000
1000
0000
0100
0001
0100
0000
,
1000
0000
1000
0000
0010
0100
0001
1000
,
0100
0000
0010
0000
0001
0100
0010
0000
,
1000
0000
0100
0000
0001
0100
1000
0000
,
0010
0000
0100
0000
0001
0010
0100
0000
,
1000
0000
0000
0000
,
0010
1000
0010
1000
,
0001
0100
0001
0100
,
0010
0100
0001
0100
,
0001
0010
0100
1000
,
0010
1000
0010
1000
,
0001
0100
0001
0100
,
0010
0100
1000
0100
,
0010
1000
0100
0001
,
0100
0100
0100
0100
,
1000
1000
1000
1000
,
0010
1000
0010
0100
,
0001
0010
0000
0000
,
0001
0001
0001
0001
,
0100
0100
0100
0100
,
0010
1000
0010
0100
,
0001
0000
0000
0000
,
1000
0100
1000
0000
0001
0000
0100
0000
,
0001
0100
0001
0000
0010
0000
0100
0000
,
0010
0100
0010
0000
0001
0000
1000
0000
,
1001
1001
0100
0000
,
0010
1000
0010
0000
0100
0000
0001
0000
,
0010
0001
0010
0000
0100
0000
1000
0000
,
0010
1000
0010
0000
0100
0000
0001
0000
,
1000
0000
0000
0000
,
0010
0000
0010
0000
0100
1000
0100
0000
,
0001
0000
0001
0000
0010
0100
0010
0000
,
0001
0000
0001
0000
0100
0010
0100
0000
,
0001
0000
0001
0000
0010
0100
1000
0001
,
0100
0000
0010
0000
1000
0100
0010
0000
,
0001
0000
0100
0000
1000
0100
0001
0000
,
0010
0000
0100
0000
1000
0010
0100
0000
,
0001
0000
0010
0000
0100
1000
0010
0100
,
0001
0001
0001
0001
,
0001
0001
0001
0001
,
1000
0000
0001
0000
0100
1000
0100
0000
,
0001
0000
0001
0000
1000
0010
1000
0001
;

//---------------dance-single - ----------------
#NOTES:
     dance-single:
     :
     Hard:
     11:
     0.478729,0.515830,0.117023,0.000000,0.228726,315.000000,304.000000,11.000000,0.000000,0.000000,0.000000,0.478729,0.515830,0.117023,0.000000,0.228726,315.000000,304.000000,11.000000,0.000000,0.000000,0.000000:
0000
0000
0000
0000
,
0000
0000
0000
0000
,
0010
0000
0000
1000
0000
0000
0010
0000
0000
0000
0000
0000
0100
0000
0000
0000
,
0001
0000
0000
0010
0000
0000
0001
0000
0000
0000
0000
0000
1000
0000
0000
0000
,
0010
0000
0000
1000
0000
0000
0010
0000
0000
0000
0000
0000
0100
0000
0000
0000
,
0001
0000
0000
0010
0000
0000
0001
0000
0000
0000
0000
0000
1000
0000
0000
0000
,
0010
0000
0000
1000
0000
0000
0100
0000
0000
0000
0000
0000
0010
0000
0000
0000
,
0001
0000
0000
0100
0000
0000
0010
0000
0000
0000
0000
0000
1000
0000
0000
0000
,
0100
0000
0000
0010
0000
0000
0001
0000
0000
0000
0000
0000
0100
0000
0000
0000
,
0110
0000
0000
0000
,
0010
0000
0000
1000
0000
0000
0010
0000
0000
1000
0000
0000
0100
0000
1000
0000
,
0001
0000
0000
0010
0000
0000
0001
0000
0000
0010
0000
0000
0100
0000
0010
0000
,
0001
0000
0000
0100
0000
0000
0010
0000
0000
0100
0000
0000
1000
0000
0100
0000
,
0001
0000
0000
0010
0000
0000
0100
0000
0000
1000
0000
0000
0001
0000
0100
0000
,
0010
0000
0000
1000
0000
0000
0010
0000
0000
1000
0000
0000
0100
0000
0010
0000
,
0001
0000
0000
1000
0000
0000
0001
0000
0000
0000
1000
0000
0010
0000
0100
0000
,
0001
0000
0000
0010
0000
0000
0100
0000
0000
0010
0000
0000
0001
0000
0100
0000
,
1000
0000
0000
0000
,
0100
0001
0100
0001
0100
0001
0100
0001
,
0100
0010
0100
0010
0100
0010
0100
0010
,
0100
1000
0100
1000
0100
1000
0100
1000
,
0100
0001
0010
0000
0100
1000
0010
0000
,
0100
1000
0100
1000
0100
1000
0100
1000
,
0100
0010
0100
0010
0100
0010
0100
0010
,
0100
0001
0100
0001
0100
0001
0100
0001
,
0100
0010
1000
0000
0100
0010
0001
0000
,
1000
0000
0100
1000
0100
0000
0000
0000
0010
0000
0001
0010
0001
0000
0000
0000
,
0100
0000
1000
0100
1000
0000
0000
0000
0100
0000
0001
0100
0001
0000
0000
0000
,
1000
1000
0100
0010
,
0001
0100
1000
0000
0100
0000
0001
0000
,
1000
0000
1000
0100
1000
0000
0000
0000
0100
0000
0100
0010
0100
0000
0000
0000
,
1000
0000
1000
0001
0100
0000
0000
0000
0010
0000
0010
1000
0001
0000
0000
0000
,
1000
1000
0100
0010
,
0001
0000
0000
0000
,
1000
0010
1000
0001
1000
0100
0010
0001
,
0100
1000
0100
0010
0100
0001
0010
0100
,
1000
0010
1000
0001
1000
0100
0010
0001
,
0011
1001
0101
0010
,
1000
0100
1000
0001
1000
0010
0100
0001
,
0010
0100
0010
0001
1000
0010
0100
0010
,
0100
1000
0100
0010
0100
0001
1000
0000
,
1001
0000
0010
0010
1000
0100
1000
0000
,
0010
0000
0000
1000
0000
0000
0010
0000
0000
1000
0000
0000
0100
0000
1000
0000
,
0001
0000
0000
0010
0000
0000
0001
0000
0000
0010
0000
0000
0100
0000
0010
0000
,
0001
0000
0000
0100
0000
0000
0010
0000
0000
0100
0000
0000
1000
0000
0100
0000
,
0001
0000
0000
0010
0000
0000
0100
0000
0000
1000
0000
0000
0001
0000
0100
0000
,
0010
0000
0000
1000
0000
0000
0010
0000
0000
1000
0000
0000
0100
0000
0010
0000
,
0001
0000
0000
1000
0000
0000
0001
0000
0000
0000
1000
0000
0010
0000
0100
0000
,
0001
0000
0000
0010
0000
0000
0100
0000
0000
0010
0000
0000
0001
0000
0100
0000
,
1000
0000
0000
0100
0000
0000
0001
0000
0000
1000
0000
0000
0100
0000
0010
0000
,
0001
0000
0001
0000
0001
0000
0001
1000
,
0010
0000
0010
0000
0010
0000
0010
0100
,
0110
0000
0110
0000
1010
0000
1001
0100
,
0101
0000
0110
0000
1000
0010
0100
0001
;

//---------------dance-double - ----------------
#NOTES:
     dance-double:
     :
     Easy:
     3:
     0.229486,0.343089,0.202130,0.000000,0.000000,151.000000,132.000000,19.000000,0.000000,0.000000,0.000000,0.229486,0.343089,0.202130,0.000000,0.000000,151.000000,132.000000,19.000000,0.000000,0.000000,0.000000:
00000000
00000000
00000000
00000000
,
00000000
00000000
00000000
00000000
,
00010000
00000000
10000000
00000000
,
00010000
00000000
00100000
00000000
,
00001000
00000000
00010000
00000000
,
00000100
00000000
00000100
00000000
,
00001000
00000000
00000001
00000000
,
00001000
00000000
00000010
00000000
,
00010000
00000000
00001000
00000000
,
00011000
00000000
00000000
00000000
,
01000000
00000000
00100000
10000000
,
00010000
00000000
01000000
00001000
,
00010000
00000000
00000100
00000010
,
00000100
00010000
00001000
01000000
,
00100000
00000000
10000000
00010000
,
01000000
00000000
10000000
01000000
,
00010000
00000000
00100000
00001000
,
00010000
00000000
00000000
00000000
,
00000100
00000000
00000001
00000000
,
00000100
00000000
00000010
00000000
,
00000100
00000000
00001000
00000000
,
00000001
00000010
00000100
00001000
,
00100000
00000000
01000000
00000000
,
00100000
00000000
10000000
00000000
,
00010000
00000000
00100000
00000000
,
00010000
00100000
01000000
10000000
,
00010000
00000000
00000000
00000000
,
00000000
00000000
00000000
00000000
,
10000000
01000000
00100000
00010000
,
01000000
00001000
00010000
00000100
,
00001000
00000000
00000000
00000000
,
00000000
00000000
00000000
00000000
,
00000001
00000010
00000100
00001000
,
00010000
00000000
00000000
00000000
,
10010000
10010000
01000000
00000000
,
00011000
00011000
00000100
00000000
,
00001001
00001001
00000100
00000000
,
00010000
00001000
01000000
00000000
,
10010000
10010000
00100000
00000000
,
00011000
00011000
00000010
00000000
,
00001001
00001001
00000010
00000000
,
00001000
00000000
00000000
00000000
,
00000100
00000000
00000010
00000001
,
00001000
00000000
00000100
00010000
,
00001000
00000000
01000000
00100000
,
01000000
00001000
00010000
00000100
,
00000010
00000000
00000001
00001000
,
00000100
00000000
00000001
00000100
,
00001000
00000000
00000010
00010000
,
00001000
01000000
00100000
01000000
,
00001000
00000000
00011000
00011000
,
00000010
00000000
00001010
00001010
,
00000001
00000000
00001001
00001001
,
00000100
00000000
00000000
00001000
,
00000000
00000000
00000000
00000000
;

//---------------dance-double - ----------------
#NOTES:
     dance-double:
     :
     Medium:
     5:
     0.351068,0.455324,0.138299,0.000000,0.000000,231.000000,218.000000,13.000000,0.000000,0.000000,0.000000,0.351068,0.455324,0.138299,0.000000,0.000000,231.000000,218.000000,13.000000,0.000000,0.000000,0.000000:
00000000
00000000
00000000
00000000
,
00000000
00000000
00000000
00000000
,
10000000
01000000
00100000
00010000
,
00001000
00000100
00000010
00000001
,
00000001
00000010
00000100
00001000
,
00010000
00100000
01000000
01000000
,
10000000
00100000
01000000
00010000
,
00001000
00000010
00000100
00000001
,
00000001
00000010
00000100
00001000
,
00011000
00000000
00000000
00000000
,
10000000
00100000
10000000
00100000
,
10000000
00010000
10000000
01000000
,
00100000
00001000
00100000
00001000
,
00010000
00000100
00000010
00000100
,
00010000
00000010
00010000
00000010
,
00000100
00001000
00000100
00000001
,
00001000
00000100
00001000
00000100
,
00010000
00001000
00001000
00000000
,
01000000
00010000
00100000
00000000
01000000
00000000
10000000
00000000
,
00100000
01000000
00001000
00000000
00010000
00000000
00000100
00000000
,
00000010
00000100
00001000
00000000
00000001
00000000
00000100
00000000
,
00000001
00000010
00000100
00001000
,
00010000
01000000
00100000
00000000
10000000
00000000
00010000
00000000
,
00100000
01000000
10000000
00000000
00010000
00000000
01000000
00000000
,
00001000
00010000
00000100
00000000
00000010
00000000
00000100
00000000
,
00001000
00000100
00000010
00000001
,
00000001
00000010
00000100
00001000
,
00010000
00100000
01000000
10000000
,
10000000
00100000
01000000
00000000
00010000
00100000
01000000
00000000
,
10000000
00100000
01000000
00000000
00010000
00100000
01000000
00000000
,
10000000
01000000
00100000
00010000
,
00001000
00000100
00000010
00000001
,
00000001
00000100
00000010
00000000
00001000
00000100
00000010
00000000
,
00001001
00000000
00000000
00000000
,
00000010
00001000
00000100
00000000
00011000
00000000
00110000
00000000
,
01000000
00100000
10000000
00000000
10100000
00000000
10010000
00000000
,
00100000
00001000
00010000
00000000
00011000
00000000
00001100
00000000
,
00000001
00000100
00000010
00000000
00001000
00000000
00000001
00000000
,
00000100
00000010
00010000
00000000
00011000
00000000
01010000
00000000
,
00100000
01000000
10000000
00000000
11000000
00000000
01100000
00000000
,
00001000
00010000
00000010
00000000
00001010
00000000
00000000
00000000
,
00000001
00000000
00000000
00000000
,
00000001
00000010
00000001
00000010
,
00000001
00001000
00000001
00000100
,
00000010
00010000
00000010
00010000
,
00001000
01000000
00100000
01000000
,
00001000
00100000
00001000
00100000
,
01000000
00010000
01000000
10000000
,
00010000
01000000
00010000
01000000
,
00001000
00010000
00000100
00001000
,
00000001
00000000
00000001
00000000
00000100
00001000
00000100
00000000
,
00000010
00000000
00000010
00000000
00010000
00001000
00010000
00000000
,
01000000
00000000
01000000
00000000
10000000
00010000
01000000
00000000
,
00001000
00001000
00001000
00000000
,
00000000
00000000
00000000
00000000
;

//---------------dance-double - ----------------
#NOTES:
     dance-double:
     :
     Hard:
     7:
     0.443774,0.486042,0.106384,0.000000,0.079788,292.000000,282.000000,10.000000,0.000000,0.000000,0.000000,0.443774,0.486042,0.106384,0.000000,0.079788,292.000000,282.000000,10.000000,0.000000,0.000000,0.000000:
00000000
00000000
00000000
00000000
,
00000000
00000000
00000000
00000000
,
00010000
00001000
01000000
00000000
00001000
00010000
00000100
00000000
,
00000001
00000100
00001000
00000000
00000010
00010000
00001000
00000000
,
01000000
00100000
10000000
00000000
00010000
00100000
01000000
00000000
,
00001000
00010000
00000010
00000000
00000100
00001000
00000010
00000000
,
00010000
00001000
01000000
00000000
00001000
00010000
00000100
00000000
,
00000001
00000100
00001000
00000000
00000010
00010000
00001000
00000000
,
01000000
00100000
10000000
00000000
00010000
00100000
01000000
00000000
,
10000000
00000000
00000000
00000000
,
00100000
10000000
00100000
01000000
00010000
01000000
00001000
00010000
,
00000100
00001000
00000100
00000010
00000001
00000010
00000100
00001000
,
00000001
00000100
00000010
00001000
00000100
00010000
00001000
00100000
,
00010000
01000000
00100000
10000000
01000000
10000000
00010000
01000000
,
00100000
10000000
00100000
01000000
00010000
01000000
00001000
00010000
,
00000100
00000010
00000100
00001000
00000001
00001000
00000100
00000010
,
00000001
00000100
00000010
00001000
00000100
00010000
00001000
00100000
,
00010000
00000000
00000000
00000000
,
10000000
00000000
00000000
00000000
00000000
00000000
00100000
00000000
00000000
01000000
00000000
00000000
00000000
00010000
00000000
00000000
,
10000000
00000000
00000000
01000000
00000000
00001000
00000000
00010000
,
00000010
00000000
00000000
00000100
00001000
00000001
00000000
00000100
,
00000000
00000100
00000000
00000010
00000000
00000010
00000000
00010000
,
00000000
00000000
00000000
00001000
01000000
00100000
00000000
10000000
,
00000000
00000000
00000000
00010000
00100000
00001000
00000000
00010000
,
00000000
00000000
00000000
00000100
00000010
00000100
00000000
00010000
,
00000000
00010000
00000000
00001000
00000000
00001000
00000000
00100000
,
00000000
00000000
00000000
00000000
,
00000000
00000000
00000000
00000000
00000000
00000000
00000000
00000000
00000000
00000000
00010000
00000000
00000000
01000000
00000000
00000000
,
00100000
00000000
00000000
00100000
00000000
00000000
10000000
00000000
00010000
00000000
00000000
01000000
00000000
00000000
00100000
00000000
,
00000000
00000000
01000000
00000000
00000000
00000000
00000000
00000000
10000000
00000000
00000000
01000000
00000000
00000000
00001000
00000000
,
00010000
00001000
00000000
00000000
00000000
00000000
00000000
00000000
,
00000000
00000000
00000000
00000000
00000000
00000000
00000000
00000000
00000000
00000000
00000010
00000000
00000000
00001000
00000000
00000000
,
00000001
00000000
00000100
00000000
00000000
00000010
00000000
00000000
00001000
00000000
00000000
00001000
00000000
00000000
00000010
00000000
,
00010000
00000000
00000000
00000000
,
00001000
00000000
01000000
00000000
00100000
00000000
10000000
01000000
00000000
00000000
00000000
00000000
00100000
00000000
00100000
00000000
,
00001000
00000000
00010000
00000000
00000100
00000000
00000010
00000001
00000000
00000000
00000000
00000000
00001000
00000000
00001000
00000000
,
00000010
00000000
00010000
00000000
00001000
00000000
01000000
00010000
00000000
00000000
00000000
00000000
10000000
00000000
10000000
00000000
,
00100000
01000000
10010000
00100000
,
00001000
00000000
00010000
00000000
00000100
00000000
00001000
00000001
00000000
00000000
00000000
00000000
00000100
00000000
00000100
00000000
,
00000010
00000000
00010000
00000000
00001000
00000000
01000000
00010000
00000000
00000000
00000000
00000000
00100000
00000000
00100000
00000000
,
00010000
00000000
01000000
00000000
00100000
00000000
10000000
01000000
00000000
00000000
00000000
00000000
00100000
00000000
00000000
00000000
,
00011000
00000000
00000000
00000000
,
00000100
00000001
00000100
00000010
00001000
00000010
00010000
00001000
,
00100000
00010000
00100000
01000000
10000000
01000000
00100000
00010000
,
10000000
00100000
01000000
00010000
00100000
00001000
00010000
00000100
,
00001000
00000010
00000100
00000001
00000010
00000001
00001000
00000010
,
00000100
00000001
00000100
00000010
00001000
00000010
00010000
00001000
,
00100000
01000000
00100000
00010000
10000000
00010000
00100000
01000000
,
10000000
00100000
01000000
00010000
00100000
00001000
00010000
00000100
,
00001000
00000010
00000100
00000001
00000010
00000001
00001000
00000010
,
00000100
00001001
00000010
00011000
,
01000000
10010000
00100000
00011000
,
00000100
00001100
00000010
00001010
,
00010000
00011000
01000000
01010000
,
00000000
00000000
00000000
00000000
;

//---------------dance-single - ----------------
#NOTES:
     dance-single:
     :
     Beginner:
     3:
     0.091186,0.229258,0.106384,0.106384,0.000000,60.000000,50.000000,10.000000,10.000000,0.000000,0.000000,0.091186,0.229258,0.106384,0.106384,0.000000,60.000000,50.000000,10.000000,10.000000,0.000000,0.000000:
0000
0000
0000
0000
,
0000
0000
0000
0000
,
2000
0000
0000
0000
,
3000
0000
0000
0000
,
0020
0000
0000
0000
,
0030
0000
0000
0000
,
0200
0000
0000
0000
,
0300
0000
0000
0000
,
0002
0000
0000
0000
,
0003
0000
0000
0000
,
1000
0000
1000
0000
,
0100
0000
0100
0000
,
0010
0000
0010
0000
,
0001
0000
0001
0000
,
1000
0010
0001
0000
,
0001
0010
1000
0000
,
1000
0100
0001
0000
,
0001
0100
1000
0000
,
1100
0000
0000
0000
,
0000
0000
0000
0000
,
0000
0000
0000
0000
,
0000
0000
0000
0000
,
0011
0000
0000
0000
,
0000
0000
0000
0000
,
0000
0000
0000
0000
,
0000
0000
0000
0000
,
0000
0000
0000
0000
,
0000
0000
1001
0000
,
0000
0000
0000
0000
,
0000
0000
0000
0000
,
0110
0000
0000
0000
,
0000
0000
0000
0000
,
1010
0000
0000
0000
,
0000
0000
0000
0000
,
1100
0000
0000
0000
,
1001
0000
0000
0000
,
0101
0000
0000
0000
,
1001
0000
0000
0000
,
0001
0001
0001
0000
,
0100
0100
0100
0000
,
0010
0010
0010
0000
,
1000
1000
1000
0000
,
2000
0000
0000
0000
,
3000
0000
0000
0000
,
0200
0000
0000
0000
,
0300
0000
0000
0000
,
0020
0000
0000
0000
,
0030
0000
0000
0000
,
0002
0000
0000
0000
,
0003
0000
0000
0000
,
2002
0000
0000
0000
,
0000
0000
0000
0000
,
0000
0000
0000
0000
,
0000
0000
0000
0000
0000
0000
0000
3003
;

//---------------dance-single - ----------------
#NOTES:
     dance-single:
     :
     Challenge:
     14:
     0.706694,0.745088,0.319152,0.276599,0.776604,465.000000,435.000000,30.000000,26.000000,0.000000,0.000000,0.706694,0.745088,0.319152,0.276599,0.776604,465.000000,435.000000,30.000000,26.000000,0.000000,0.000000:
// measure 0
0000
0000
0000
0000
,  // measure 1
0000
0000
0000
0000
,  // measure 2
1001
0000
0000
0001
0000
0000
1000
0000
0000
0001
0000
0000
1001
0000
0001
0000
,  // measure 3
1001
0000
0000
1000
0000
0000
0001
0000
0000
1000
0000
0000
0001
0000
1001
0000
,  // measure 4
1200
0000
0000
0310
0000
0000
0100
0000
0000
0010
0000
0000
0110
0000
0100
0000
,  // measure 5
0120
0000
0000
0031
0000
0000
0010
0000
0000
0001
0000
0000
0010
0000
0011
0000
,  // measure 6
0002
0000
0000
0103
0000
0000
0020
0000
0000
1030
0000
0000
1100
0000
1000
0000
,  // measure 7
2001
0000
0000
3010
0000
0000
0200
0000
0000
0301
0000
0000
0010
0000
0101
0000
,  // measure 8
0010
0000
0000
0001
0000
0000
0100
0000
0000
0010
0000
0000
0010
0000
2000
0000
,  // measure 9
0200
0000
0000
3300
,  // measure 10
1000
0000
0100
1000
0000
0100
1000
0000
0010
0100
0000
0000
0010
1000
0001
1000
,  // measure 11
0001
0000
0010
0001
0000
0100
0010
0000
1000
0100
0000
0000
1000
0100
0010
0001
,  // measure 12
1000
0000
0001
0100
0000
0010
1000
0000
0001
0100
0000
0000
0010
1000
0100
0010
,  // measure 13
0001
0000
0010
0001
0000
0010
0100
0000
0010
0001
0000
0000
0100
0001
0010
0000
,  // measure 14
0002
0000
1000
1000
0000
0100
0103
0000
0001
0010
0000
0000
0100
1000
0010
0000
,  // measure 15
2000
0000
0001
0001
0000
0010
3010
0000
0100
1000
0000
0000
0100
1000
0001
0000
,  // measure 16
0200
0000
0010
0010
0000
0010
0310
0000
0100
0010
0000
0000
0010
0100
0001
0000
,  // measure 17
0010
0001
0100
0010
1000
0001
0100
0000
,  // measure 18
0110
0000
0000
0010
0100
0000
0020
0000
0000
0000
0031
0000
1000
0100
1000
0000
,  // measure 19
1001
0000
0000
0002
0000
0000
1003
0000
0000
0000
0001
0100
0010
0000
1000
0000
,  // measure 20
0200
0000
0000
1300
0100
0000
1000
0100
1000
0000
0000
0010
0000
0000
0100
0000
,  // measure 21
0000
0101
0000
0011
0000
1001
0000
1010
,  // measure 22
1000
0000
0001
0100
0010
0000
1000
0100
1000
0000
1000
0000
0001
0000
0001
0100
,  // measure 23
0010
0000
0010
0000
1000
0000
0001
0010
0100
0000
0010
0000
1000
0000
0001
1000
,  // measure 24
0100
0000
1000
0000
0100
0000
0010
0000
0001
0010
0001
0000
1000
0000
0001
0000
,  // measure 25
0000
0101
0000
1010
0000
0101
1000
0100
,  // measure 26
0010
0001
0010
0100
0010
0000
0001
0010
0100
0010
0001
0000
0010
0100
0010
0001
,  // measure 27
0010
0000
0001
0010
0100
0010
0001
0000
0010
0000
0000
0100
0000
0000
1000
0000
,  // measure 28
0001
0000
0000
0100
0000
0000
0010
0000
1000
0000
0000
0100
0000
0000
0020
0000
,  // measure 29
0000
0032
0000
0003
0001
0100
1000
0100
,  // measure 30
0010
0100
1000
0100
0010
0000
1000
0010
0100
0010
1000
0000
0010
0100
1000
0100
,  // measure 31
0010
0000
1000
0010
0100
0010
1000
0000
0100
0000
0000
1000
0000
0000
0001
0000
,  // measure 32
0100
0000
0010
0100
0000
0001
0010
0000
0100
1000
0000
0100
0000
0000
1000
0000
,  // measure 33
0000
2000
0002
0000
0000
0000
0000
0000
0000
0000
0000
0000
3003
0000
0000
0000
,  // measure 34
1001
0000
0001
0100
0010
0000
1000
0100
0000
0000
1000
0100
1000
0100
1000
0000
,  // measure 35
1001
0000
1000
0010
0100
0000
0010
0100
0000
0000
0001
0010
0001
0100
0001
0000
,  // measure 36
0011
0000
0010
0100
1000
0000
0001
1000
0000
0000
0001
1000
0100
0010
0001
0000
,  // measure 37
1001
0000
0000
0001
0100
0000
0000
0010
1000
0000
0000
0100
1000
0000
0000
0000
,  // measure 38
1100
0000
0100
1000
0010
0000
0010
0100
0000
0000
0010
0100
0001
0010
0001
0000
,  // measure 39
0021
0000
0031
0000
0001
0100
0010
0000
1000
0000
0100
0000
0010
0000
0100
1000
,  // measure 40
0010
0000
0100
0000
0010
0000
0100
0000
0010
0100
0010
0100
0001
1000
0001
1000
,  // measure 41
0001
0000
1000
0000
0100
0000
0010
0000
0002
0000
0000
1000
0000
0000
1003
0000
,  // measure 42
1001
0000
0001
0100
0000
0010
1000
0000
0100
1000
0000
0000
0100
1000
0010
1000
,  // measure 43
0100
0000
1000
0100
0000
0010
0001
0000
0100
0001
0000
0000
0010
0001
0100
0001
,  // measure 44
1000
0000
0001
0100
0000
0010
1000
0000
0100
1000
0000
0000
0100
1000
0001
0010
,  // measure 45
0100
0000
0000
0100
1000
0000
0000
0010
0100
0000
0000
0001
0000
0000
0010
0000
,  // measure 46
0200
0000
0000
1000
0000
0000
0010
0000
0000
1000
0000
0000
0010
0000
0010
0000
,  // measure 47
0320
0000
0000
0100
0000
0000
0001
0000
0000
0100
0000
0000
0001
0000
0001
0000
,  // measure 48
0032
0000
0000
0010
0000
0000
0100
0000
0000
1000
0000
0000
0100
0000
0103
0000
,  // measure 49
2000
0000
0000
0001
0000
0000
0010
0000
0000
0100
0000
0000
0010
0000
0010
0000
,  // measure 50
3010
0000
0000
1000
0010
0000
0100
0000
0001
0010
0001
0000
0011
0000
0001
0000
,  // measure 51
0020
0000
0000
0031
1000
0000
0001
0000
0100
0010
0100
0000
0110
0000
1000
0000
,  // measure 52
0200
0000
0000
1300
0010
0000
0100
0000
0001
0010
0001
0000
0011
0000
0001
0000
,  // measure 53
1000
0001
0000
0001
0100
0000
0001
1000
0000
1000
0100
0000
0010
0001
0010
0000
;
