#VERSION:0.83;
#TITLE:MOONSTER;
#SUBTITLE:;
#ARTIST:kobo uniting Marsha & D.;
#TITLETRANSLIT:;
#SUBTITLETRANSLIT:;
#ARTISTTRANSLIT:;
#GENRE:;
#ORIGIN:;
#CREDIT:;
#BANNER:MOONSTER.png;
#BACKGROUND:MOONSTER-bg.png;
#PREVIEWVID:;
#JACKET:MOONSTER-jacket.png;
#CDIMAGE:;
#DISCIMAGE:;
#LYRICSPATH:;
#CDTITLE:;
#MUSIC:MOONSTER.ogg;
#OFFSET:0.000000;
#SAMPLESTART:64.480003;
#SAMPLELENGTH:15.000000;
#SELECTABLE:YES;
#DISPLAYBPM:140.000000;
#BPMS:0.000=140.078,
4.000=140.012;
#STOPS:;
#DELAYS:;
#WARPS:;
#TIMESIGNATURES:0.000=4=4;
#TICKCOUNTS:0.000=4;
#COMBOS:0.000=1;
#SPEEDS:0.000=1.000=0.000=0;
#SCROLLS:0.000=1.000;
#FAKES:;
#LABELS:0.000=Song Start;
#BGCHANGES:;
#KEYSOUNDS:;
#ATTACKS:
;

//---------------dance-single - ----------------
#NOTEDATA:;
#CHARTNAME:;
#STEPSTYPE:dance-single;
#DESCRIPTION:;
#CHARTSTYLE:;
#DIFFICULTY:Beginner;
#METER:4;
#RADARVALUES:0.125166,0.139670,0.000000,0.019689,0.000000,89.000000,89.000000,0.000000,2.000000,0.000000,0.000000,0.000000,0.000000,0.000000,0.125166,0.139670,0.000000,0.019689,0.000000,89.000000,89.000000,0.000000,2.000000,0.000000,0.000000,0.000000,0.000000,0.000000;
#CREDIT:;
#DISPLAYBPM:140.000000;
#NOTES:
0000
0000
0000
0000
,
0000
0000
0000
0000
,
1000
0000
0000
0000
,
0000
0010
0000
0000
,
0100
0000
0000
0000
,
0000
0001
0000
0000
,
0001
0000
0000
0000
,
0010
0000
0010
0000
,
0100
0000
0000
0000
,
1000
0000
1000
0000
,
0001
0000
0000
0000
,
0100
0000
0100
0000
,
0010
0000
0000
0000
,
1000
0000
1000
0000
,
1000
0000
0000
0000
,
0100
0000
0100
0000
,
0010
0000
0100
0000
,
0001
0000
0001
0000
,
1000
0000
1000
0000
,
0100
0000
0100
0000
,
0001
0000
1000
0000
,
0010
0000
0100
0000
,
0001
0000
0001
0000
,
0100
0000
0100
0000
,
1000
0000
0001
0000
,
0100
0000
0010
0000
,
1000
0000
1000
0000
,
0010
0000
0010
0000
,
1000
0000
0010
0000
,
0001
0000
0100
0000
,
0001
0000
0100
0000
,
1000
0000
0010
0000
,
0001
0000
0001
0000
,
1000
0000
1000
0000
,
0020
0000
0000
0000
,
0000
0000
0030
0000
,
0001
0000
1000
0000
,
0010
0000
0010
0000
,
0010
0000
0000
0000
,
1000
0000
1000
0000
,
0100
0000
0000
0000
,
0001
0000
0001
0000
,
0100
0000
0000
0000
,
0001
0000
0001
0000
,
0010
0000
0000
0000
,
1000
0000
1000
0000
,
1000
0000
0001
0000
,
0100
0000
0100
0000
,
0001
0000
1000
0000
,
0010
0000
0010
0000
,
0100
0000
0100
0000
,
1000
0000
1000
0000
,
0010
0000
0010
0000
,
0001
0000
0001
0000
,
0020
0000
0000
0000
,
0000
0000
0000
0000
,
0000
0000
0000
0030
,
0000
0000
0000
0000
;

//---------------dance-single - ----------------
#NOTEDATA:;
#CHARTNAME:;
#STEPSTYPE:dance-single;
#DESCRIPTION:;
#CHARTSTYLE:;
#DIFFICULTY:Easy;
#METER:5;
#RADARVALUES:0.220799,0.251405,0.009845,0.049223,0.000000,157.000000,156.000000,1.000000,5.000000,0.000000,0.000000,0.000000,0.000000,0.000000,0.220799,0.251405,0.009845,0.049223,0.000000,157.000000,156.000000,1.000000,5.000000,0.000000,0.000000,0.000000,0.000000,0.000000;
#CREDIT:;
#DISPLAYBPM:140.000000;
#NOTES:
0000
0000
0000
0000
,
0000
0000
0000
0000
,
1000
0000
0000
1000
,
0010
0010
0010
0000
,
0100
0000
0000
0100
,
0001
0001
0001
0000
,
0001
0000
1000
0000
,
0010
0100
0010
0000
,
0100
0000
0010
0000
,
1000
0001
1000
0000
,
0001
0000
0010
0000
,
0100
0001
0100
0000
,
0010
0000
0001
0000
,
1000
0001
1000
0000
,
1000
0000
0001
0000
,
0100
0010
0100
0000
,
0010
0000
0100
0000
,
0001
1000
0001
0100
,
0001
0100
1000
0000
,
0100
0010
0100
0000
,
1000
0000
0001
0000
,
1000
0100
0001
0000
,
1000
0100
0001
0000
,
0100
0010
0100
0000
,
0001
0000
1000
0000
,
0001
0100
1000
0100
,
1000
1000
0001
0000
,
0010
0100
0001
0000
,
1000
1000
0010
0000
,
0001
0100
1000
0001
,
0001
0001
1000
0000
,
0010
0100
1000
0000
,
0001
0001
0010
0000
,
1000
0100
0001
1000
,
0220
0000
0000
0000
,
0000
0000
0000
0330
,
0001
0000
1000
0000
,
0010
1000
0001
0100
,
0010
0100
0001
0000
,
0010
0100
1000
0000
,
0001
0010
0100
0000
,
1000
1000
0001
0001
,
0100
0010
1000
0000
,
0100
0010
0001
0000
,
1000
0100
0010
0000
,
0001
0001
1000
1000
,
1000
0100
0001
0000
,
0010
1000
0100
0000
,
1000
0100
0001
0000
,
1000
1000
0001
0001
,
0100
0010
1000
0000
,
0010
0001
0100
0001
,
0010
0100
0001
0000
,
0100
1000
0010
1000
,
0200
0000
0000
0310
,
0020
0000
0000
0030
,
1000
0001
0020
0030
,
0000
0000
0000
0000
;

//---------------dance-single - ----------------
#NOTEDATA:;
#CHARTNAME:;
#STEPSTYPE:dance-single;
#DESCRIPTION:;
#CHARTSTYLE:;
#DIFFICULTY:Medium;
#METER:7;
#RADARVALUES:0.360029,0.419932,0.177202,0.137824,0.014767,256.000000,238.000000,18.000000,14.000000,0.000000,0.000000,0.000000,0.000000,0.000000,0.360029,0.419932,0.177202,0.137824,0.014767,256.000000,238.000000,18.000000,14.000000,0.000000,0.000000,0.000000,0.000000,0.000000;
#CREDIT:;
#DISPLAYBPM:140.000000;
#NOTES:
0000
0000
0000
0000
,
0000
0000
0000
0000
,
1000
0100
0001
0100
,
0001
1000
0001
2000
0000
0000
3100
0000
,
1000
0010
0100
0001
,
1000
0001
0100
0020
0000
0000
0130
0000
,
0001
0100
1000
0100
,
1000
0001
1000
0002
0003
0000
0001
0100
,
0001
0010
0100
1000
,
0001
1000
0100
0020
0000
0000
0130
0000
,
0010
0010
2000
3001
,
0100
0001
0010
1000
,
0010
0010
0002
1003
,
0100
1000
0100
1000
0000
0000
0000
0000
,
0100
0100
0001
0010
,
0010
1000
0100
0001
,
0100
0100
1000
0100
,
0100
0001
0100
0001
0000
0000
0000
0000
,
0010
1000
0001
1100
,
0010
1000
0001
0010
,
0100
0001
1000
1001
,
0100
1000
0100
1000
0000
0000
0000
0000
,
1000
0100
0001
1100
,
0001
0100
1000
0100
,
0010
0010
0001
0100
,
0010
0000
0100
0000
0001
0000
0000
0000
0020
0000
0000
0200
0330
0000
0000
0000
,
1000
0001
0010
0100
,
1000
0001
1000
0000
0010
0000
0101
0000
,
0001
1000
0010
0100
,
0001
1000
0001
0000
0010
0000
1100
0000
,
0010
0000
0000
0001
0000
0000
1000
0000
0000
0100
0000
0000
0010
0000
0000
0000
,
0001
0010
1000
0000
0001
0000
0001
0000
,
0100
1000
0001
0010
,
1000
0100
1000
0000
0001
0000
1000
0000
,
0220
0000
0000
0000
,
0000
0000
0000
0330
,
0001
0000
1000
0000
,
0001
1000
0001
1000
0110
0000
1001
0000
,
1000
1100
0010
0101
,
1000
0100
1000
0000
0010
0000
1000
0000
,
0001
1000
0001
0000
0010
0000
0100
0000
,
1000
0010
0100
0000
0010
0000
0101
0000
,
1001
0010
1001
0100
,
0010
0100
1000
0000
0010
0000
0010
0000
,
0002
0010
0100
1003
,
0100
0010
0001
0000
1000
0001
1000
0000
,
0001
0101
0010
1100
,
0001
0100
0001
0000
0010
0000
0001
0000
,
1000
0001
1000
0000
0010
0000
0100
0000
,
0001
0010
0100
0000
0010
0000
1100
0000
,
1001
0010
1001
0100
,
0010
0100
0001
0000
0010
0000
0010
0000
,
2000
0010
0100
3001
,
0100
0010
1000
0000
0001
1000
0001
1000
,
0002
0000
0000
0013
,
0020
0000
0001
0031
,
1000
0001
1000
0001
0010
0100
0010
0100
,
0000
0000
0000
0000
;

//---------------dance-single - ----------------
#NOTEDATA:;
#CHARTNAME:;
#STEPSTYPE:dance-single;
#DESCRIPTION:;
#CHARTSTYLE:;
#DIFFICULTY:Hard;
#METER:12;
#RADARVALUES:0.440192,0.559909,0.078756,0.374093,0.196891,313.000000,305.000000,8.000000,38.000000,0.000000,0.000000,0.000000,0.000000,0.000000,0.440192,0.559909,0.078756,0.374093,0.196891,313.000000,305.000000,8.000000,38.000000,0.000000,0.000000,0.000000,0.000000,0.000000;
#CREDIT:;
#DISPLAYBPM:140.000000;
#NOTES:
0000
0000
0000
0000
,
0000
0000
0000
0000
0000
0000
0000
0010
,
0010
0000
0000
0000
1000
0000
0100
0000
0010
0000
0000
0001
0000
0000
2000
0000
,
0000
3001
2000
0002
0000
0000
0000
0000
,
3003
0000
0000
0000
0002
0000
0023
0000
0230
0000
0000
1300
0000
0000
0002
0000
,
0000
1003
0002
2000
0000
0000
0000
0000
,
3003
0000
0000
0000
0001
0000
0010
0000
0100
0000
0000
1000
0000
0000
0010
0000
,
0010
0100
0002
2000
3003
0000
0001
1000
,
0000
0000
0000
0000
2000
0000
3200
0000
0320
0000
0000
0031
0000
0000
0200
0000
,
0000
0310
2000
0002
0000
0000
3003
0000
,
0010
0000
0010
0000
1000
0001
1000
0000
,
0100
0001
0010
1000
,
0010
0000
0001
0000
0010
0100
1000
0000
,
0100
0000
0010
0000
0001
0100
1000
0100
0000
0001
0000
0010
0000
0000
0100
0000
,
0010
0000
0010
0000
0001
1000
0001
0000
,
0001
0020
0000
0032
0000
2003
0000
3100
,
0010
0001
1000
0100
,
1000
0000
0000
0000
0010
0100
0001
1000
0100
0000
0000
0010
0000
0000
0001
0000
,
1000
0010
1000
0000
0001
0010
1000
0000
,
0010
0001
1000
0000
0001
0000
1100
0000
,
0001
0100
0001
0000
0010
0100
1000
0001
,
0010
0000
0000
0000
0001
0100
1000
0100
0000
0001
0000
0010
0000
0000
1000
0000
,
0010
0100
1000
0000
0010
0100
1000
0000
,
0100
0010
1000
0000
0010
0000
0101
0000
,
0010
1000
0100
0000
0010
0100
1000
1000
,
1000
0000
0010
0000
0001
0000
0000
0000
0020
0000
0000
0200
0330
0000
0000
0000
,
0001
0000
0000
0000
0010
0000
0100
0000
0000
1000
0000
0000
0001
0000
1000
0000
,
0001
0000
0000
1000
0000
0000
0010
0000
0000
0100
0000
0000
0001
0000
2000
0000
,
0000
0000
3000
0000
0010
0000
0100
0000
0000
0001
0000
0000
1000
0000
0001
0000
,
1000
0000
0000
0001
0000
0000
0010
0000
0000
0100
0000
0000
1000
0000
0000
0000
,
0001
0000
0000
0100
0000
0000
0010
0000
0000
1000
0000
0000
0001
0000
1000
0000
,
0001
0000
0000
0000
1000
0000
0001
0000
0000
1000
0000
0000
0001
0000
0000
0000
,
1000
0000
0000
0000
0100
0000
0010
0000
0000
0001
0000
0000
1000
0000
0001
0000
,
1000
0000
0000
0001
0000
0000
1000
0000
0000
0001
0000
0000
1000
0000
0000
0000
,
0020
0000
0000
0001
,
0000
0000
0000
1030
,
2002
0000
0000
0000
0000
0000
0000
0000
3000
0000
0000
0000
1003
0000
0010
0100
,
0001
0000
0010
0100
1000
0000
0010
0100
0001
0000
0010
0100
1000
0000
0001
0000
,
1000
0001
1000
0000
0010
0100
0001
0000
,
1000
0010
0100
0001
0010
0000
1100
0000
,
0001
1000
0001
0000
0010
0100
1000
0000
,
0001
0010
0100
1000
0010
0000
0101
0000
,
0010
0100
1000
0000
0010
0100
0001
0010
,
0001
0100
0010
1000
0010
0000
0101
0000
,
0010
0100
0001
0000
0010
0100
1000
0010
,
1000
0010
0100
0001
0010
0000
1100
0000
,
0010
0001
0000
0000
0000
0000
0000
0000
1000
0100
0000
0000
0000
0000
0020
0000
,
0000
0031
2000
0000
3001
0100
0001
0020
,
0030
0100
1000
0010
0200
0000
0301
2000
,
0000
0000
3000
0000
0010
1000
0010
0000
,
0010
1000
0000
0000
0000
0000
0000
0000
0001
0100
0000
0000
0000
0000
0020
0000
,
0000
1030
0002
0000
1003
0100
1000
0020
,
0030
0100
0001
0010
0200
0000
1300
0002
,
0000
0000
0000
0000
0003
0000
0000
0000
0001
0010
0100
1000
0001
0010
0100
1000
,
0020
0000
0000
0000
0000
0100
0130
0000
,
1000
0100
0010
0001
0100
1000
0100
0010
,
1000
0000
0001
0020
0000
0130
0010
1001
,
0000
0000
0000
0000
;

//---------------dance-double - ----------------
#NOTEDATA:;
#CHARTNAME:;
#STEPSTYPE:dance-double;
#DESCRIPTION:;
#CHARTSTYLE:;
#DIFFICULTY:Easy;
#METER:4;
#RADARVALUES:0.203923,0.223964,0.059067,0.019689,0.000000,145.000000,139.000000,6.000000,2.000000,0.000000,0.000000,0.000000,0.000000,0.000000,0.203923,0.223964,0.059067,0.019689,0.000000,145.000000,139.000000,6.000000,2.000000,0.000000,0.000000,0.000000,0.000000,0.000000;
#CREDIT:;
#DISPLAYBPM:140.000000;
#NOTES:
00000000
00000000
00000000
00000000
,
00000000
00000000
00000000
00000000
,
00100000
00000000
00000000
00000000
,
10000000
10000000
10000000
00000000
,
00010000
00000000
00010000
00000000
,
00000010
00000010
00000010
00000000
,
00000001
00000000
00000001
00000000
,
00000001
00000100
00000100
00000000
,
00001000
00000000
00001000
00000000
,
00010000
00010000
00010000
00000000
,
01000000
00000000
01000000
00000000
,
00100000
00100000
00010000
00000000
,
01000000
00000000
01000000
00000000
,
00001000
00010000
00001000
00000000
,
00000100
00000000
00000100
00000000
,
00000010
00000010
00000001
00000000
,
00000100
00000000
00000100
00000000
,
00001000
00010000
00001000
00000000
,
00100000
00000000
01000000
00000000
,
10000000
00100000
01000000
00000000
,
00001000
00000000
00010000
00000000
,
00000100
00000010
00000001
00000000
,
00000100
00000000
00000001
00000000
,
00000010
00000100
00010000
00000000
,
00001000
00000000
00010000
00000000
,
00100000
10000000
01000000
00000000
,
00100000
00100000
00100000
00000000
,
00001000
00010000
00001000
00000000
,
00000100
00000100
00000100
00000000
,
00000001
00001000
00000001
00000000
,
00000010
00000010
00000010
00000000
,
00001000
00001000
00010000
00000000
,
01000000
01000000
01000000
00000000
,
00100000
01000000
00010000
00000000
,
00022000
00000000
00000000
00000000
,
00000000
00000000
00000000
00033000
,
00001000
00000000
00010000
00000000
,
00000010
00010000
00001000
01000000
,
00100000
00000000
10000000
00000000
,
01000000
00100000
01100000
00000000
,
00010000
00000000
00001000
00000000
,
00000010
00000100
00000110
00000000
,
00000010
00000000
00000001
00000000
,
00000100
00000010
00000110
00000000
,
00001000
00000000
00010000
00000000
,
00100000
01000000
01100000
00000000
,
01000000
00000000
00001000
00000000
,
00010000
00000000
00000010
00000000
,
00000100
00000100
00000100
00000000
,
00000100
00000100
00000001
00000000
,
00000100
00000000
00001000
00000000
,
00010000
00000000
00100000
00000000
,
01000000
01000000
00100000
00000000
,
10000000
10000000
01000000
00000000
,
00100000
00010000
01000000
00000000
,
00001000
00000000
00010000
00000000
,
00001000
00000000
00010000
00000000
00001000
00000000
00000000
00011000
,
00000000
00000000
00000000
00000000
;

//---------------dance-double - ----------------
#NOTEDATA:;
#CHARTNAME:;
#STEPSTYPE:dance-double;
#DESCRIPTION:;
#CHARTSTYLE:;
#DIFFICULTY:Medium;
#METER:7;
#RADARVALUES:0.347372,0.391936,0.157513,0.118135,0.000000,247.000000,231.000000,16.000000,12.000000,0.000000,0.000000,0.000000,0.000000,0.000000,0.347372,0.391936,0.157513,0.118135,0.000000,247.000000,231.000000,16.000000,12.000000,0.000000,0.000000,0.000000,0.000000,0.000000;
#CREDIT:;
#DISPLAYBPM:140.000000;
#NOTES:
00000000
00000000
00000000
00000000
,
00000000
00000000
00000000
00000000
,
00100000
10000000
01000000
00000000
,
00010000
00000000
01000000
00000000
10000000
01000000
10000000
00000000
,
01000000
00010000
00001000
00000010
,
00000100
00000000
00001000
00000000
00000001
00000100
00000001
00000000
,
00000100
00000001
00000010
00000000
,
00001000
00000000
00000010
00000000
00000001
00000010
00000001
00000000
,
00000100
00001000
00010000
00100000
,
10000000
00000000
00010000
00000000
10000000
00100000
10000000
00000000
,
20000000
00000000
00000000
30010000
,
01000000
00010000
00001000
00000010
,
00000002
00000000
00001000
00001003
,
00000010
00000000
00000100
00000000
00001000
01000000
01000000
00000000
,
02000000
00000000
00010000
03010000
,
00100000
00100000
00000000
00001000
00000000
00010000
00000000
00000100
,
00000020
00000000
00000001
00000031
,
00000100
00000000
00001000
00000000
00010000
00100000
00100000
00000000
,
10000000
01000000
00100000
00010000
,
10000000
00100000
01000000
00000000
00100000
00000000
10000000
00000000
,
01000000
00010000
00001000
00000100
,
00000001
00000010
00000100
00000000
00001000
00000000
00000110
00000000
,
00000001
00000010
00000100
00001000
,
00000001
00000100
00000010
00000000
00000100
00000000
00000001
00000000
,
00000100
00001000
00010000
00100000
,
10000000
01000000
00100000
00000000
00010000
00000000
01100000
00000000
,
10000000
00100000
01000000
00010000
,
00100000
00000000
01000000
00000000
10000000
00010000
10000000
00000000
,
00100000
00010000
00001000
00000100
,
00000001
00000000
00000010
00000000
00000001
00001000
00000001
00000000
,
00001000
00000010
00000100
00000001
,
00000010
00000000
00000100
00000000
00001000
00000001
00001000
00000001
,
00000200
00001300
00020000
00130000
,
02000000
13000000
00200000
00310000
,
00022000
00000000
00000000
00000000
,
00000000
00000000
00000000
00033000
,
00001000
00000000
00010000
00000000
,
00011000
00001010
00000110
00000101
,
00000001
00001000
00000001
00000000
00000100
00000000
00000010
00000000
,
00001000
00000100
00000010
00000000
00000001
00000000
00000101
00000000
,
00000010
00001000
00000010
00000000
00000100
00000000
00001000
00000000
,
00100000
00010000
00100000
00000000
01000000
00000000
11000000
00000000
,
10000000
00010000
10000000
00000000
00100000
00000000
01000000
00000000
,
00010000
00100000
01000000
00000000
10000000
00000000
10100000
00000000
,
01000000
00010000
01000000
00000000
00100000
00000000
00010000
00000000
,
00000100
00001000
00000100
00000000
00000010
00000000
00000011
00000000
,
00002000
00000001
00000001
00003001
,
00000100
00000010
00000100
00000000
00000010
00000000
00001010
00000000
,
00000100
00001000
00010000
00100000
,
10000000
01000000
00100000
00000000
01000000
00000000
10010000
00000000
,
00020000
10000000
10000000
10030000
,
00100000
10000000
00100000
00000000
01000000
00000000
01010000
00000000
,
00100000
00010000
00001000
00000100
,
00000010
00001000
00000010
00000000
00000100
00000000
00001001
00000000
,
00000001
00000100
00001000
00010000
,
00100000
10000000
01000000
00010000
,
10000000
00000000
00100000
00000000
00010000
00000000
00000000
00011000
,
00000000
00000000
00000000
00000000
;

//---------------dance-double - ----------------
#NOTEDATA:;
#CHARTNAME:;
#STEPSTYPE:dance-double;
#DESCRIPTION:;
#CHARTSTYLE:;
#DIFFICULTY:Hard;
#METER:10;
#RADARVALUES:0.396595,0.447927,0.157513,0.216580,0.083679,282.000000,266.000000,16.000000,22.000000,0.000000,0.000000,0.000000,0.000000,0.000000,0.396595,0.447927,0.157513,0.216580,0.083679,282.000000,266.000000,16.000000,22.000000,0.000000,0.000000,0.000000,0.000000,0.000000;
#CREDIT:;
#DISPLAYBPM:140.000000;
#NOTES:
00000000
00000000
00000000
00000000
,
00000000
00000000
00000000
00000000
,
00100000
10000000
10000000
00010000
,
00100000
00000000
00010000
00000000
10000000
01000000
10000000
00000000
,
01000000
00010000
00001000
00000010
,
00000100
00000000
00001000
00000000
00000001
00000100
00000001
00000000
,
00000100
00000001
00000001
00001000
,
00000100
00000000
00001000
00000000
00000001
00000010
00000001
00000000
,
00000010
00001000
00010000
01000000
,
00100000
00000000
00010000
00000000
10000000
00100000
10000000
00000000
,
00020000
00100000
01000000
10030000
,
01000000
00010000
00001000
00000010
,
00000200
00001000
00001300
00000001
,
00000010
00000000
00001000
00000000
00010000
00100000
10000000
00000000
,
02000000
00000000
00010000
00010000
00000000
10000000
03000000
00010000
,
01000000
00100000
00000000
00001000
00000000
00010000
00000000
00000100
,
00000020
00000000
00000001
00000001
00000000
00001000
00000030
00000001
,
00000000
00000100
00000000
00001000
00000000
00010000
00100000
00000000
,
10000000
01000000
10000000
00000000
00100000
00000000
10010000
00000000
,
10000000
00100000
01000000
00010000
10000000
00000000
01010000
00000000
,
00100000
00001000
00010000
00000000
00000100
00000000
00001010
00000000
,
00000001
00000010
00000100
00001000
00000010
00000000
00000101
00000000
,
00001000
00000010
00001000
00000000
00000100
00000000
00001001
00000000
,
00000001
00000100
00000100
00001000
00010000
00000000
00011000
00000000
,
02000000
00000000
23000000
00000000
30200000
00000000
00320000
00030000
,
00100000
00000000
10000000
00000000
01000000
00000000
00000000
00000000
20000000
00000000
00000000
00020000
30030000
00000000
00000000
00000000
,
10000000
00000000
00000000
00000000
00100000
00000000
10000000
00000000
00000000
01000000
00000000
00000000
00010000
00000000
00001000
00000000
,
00000100
00000000
00000000
00000001
00000000
00000000
00000010
00000000
00000000
00001000
00000000
00000000
00000010
00000000
00000001
00000000
,
00000000
00000000
00000000
00000000
00000100
00000000
00001000
00000000
00000000
00000100
00000000
00000000
00001000
00000000
00010000
00000000
,
00001000
00000000
00000000
00000100
00000000
00000000
00000001
00000000
00000000
00000010
00000000
00000000
00000001
00000000
00000000
00000000
,
00000001
00000000
00000000
00000100
00000000
00000000
00000001
00000000
00000000
00000010
00000000
00000000
00001000
00000000
00010000
00000000
,
00100000
00000000
00000000
00000000
10000000
00000000
01000000
00000000
00000000
10000000
00000000
00000000
01000000
00000000
00000000
00000000
,
10000000
00000000
00000000
00000000
00100000
00000000
00010000
00000000
00000000
00100000
00000000
00000000
00010000
00000000
00001000
00000000
,
00010000
00000000
00000000
00100000
00000000
00000000
10000000
00000000
00000000
01000000
00000000
00000000
00010000
00000000
00000000
00000000
,
00022000
00000000
00000000
00000000
,
00000000
00000000
00000000
00033000
,
00001000
00000000
00000000
00000000
00010000
00000000
00001000
00010000
,
00011000
00000000
00001010
00000000
00000110
00000100
00000101
00000000
,
00000001
00001000
00000001
00000000
00000100
00000000
00000010
00000000
,
00001000
00000100
00000010
00000001
00001000
00000000
00000101
00000000
,
00000010
00001000
00000010
00000000
00000100
00001000
00010000
00000000
,
01000000
00100000
00010000
01000000
10000000
00000000
01100000
00000000
,
10000000
00010000
10000000
00000000
00100000
00000000
01000000
00000000
,
00010000
00100000
01000000
10000000
00010000
00000000
10100000
00000000
,
01000000
00010000
01000000
00000000
00100000
00010000
00001000
00000000
,
00000010
00000100
00001000
00000010
00000001
00000000
00000110
00000000
,
00001000
00000001
00000000
00000000
00000000
00000000
00000000
00000000
00001000
00000001
00000000
00000000
00000000
00000000
00002000
00000000
,
00003000
00000001
00000002
00000003
00000010
00000100
00000010
00000002
,
00000003
00000001
00001000
00000010
00000200
00000300
00001000
00020000
,
00000000
00030000
00100000
10000000
,
00010000
10000000
00000000
00000000
00000000
00000000
00000000
00000000
00010000
10000000
00000000
00000000
00000000
00000000
00020000
00000000
,
00030000
10000000
20000000
30000000
01000000
00100000
01000000
20000000
,
30000000
10000000
00010000
01000000
00200000
00300000
00010000
00002000
,
00000000
00003000
00000100
00000001
,
00001000
00000010
00000100
00000001
,
00000010
00001000
00010000
01000000
,
10000000
00010000
00100000
01000000
00010000
00000000
00000000
00011000
,
00000000
00000000
00000000
00000000
;

//---------------dance-single - ----------------
#NOTEDATA:;
#CHARTNAME:;
#STEPSTYPE:dance-single;
#DESCRIPTION:;
#CHARTSTYLE:;
#DIFFICULTY:Challenge;
#METER:17;
#RADARVALUES:0.912731,1.231800,0.285492,0.561140,1.294559,649.000000,620.000000,29.000000,57.000000,0.000000,0.000000,0.000000,0.000000,0.000000,0.912731,1.231800,0.285492,0.561140,1.294559,649.000000,620.000000,29.000000,57.000000,0.000000,0.000000,0.000000,0.000000,0.000000;
#CREDIT:;
#DISPLAYBPM:140.000000;
#NOTES:
// measure 0
0000
0000
0000
0000
,  // measure 1
0000
0000
0000
0000
0000
0000
0000
0010
,  // measure 2
0010
0000
0001
0000
1000
0100
0010
0001
0100
0000
0001
0010
0100
1000
0010
0000
,  // measure 3
0100
0000
0010
1000
0100
0000
0020
0000
0000
0000
0031
0010
0001
0000
0100
0000
,  // measure 4
0010
0000
1000
0010
1000
0000
0001
0100
0001
0100
0010
0000
1000
0100
0010
0001
,  // measure 5
0100
0000
0010
1000
0200
0000
0000
0300
0000
1100
0000
1010
0000
0100
0001
0000
,  // measure 6
0010
0000
0001
0000
1000
0010
0100
0001
1000
0000
0010
0100
0001
1000
0100
0000
,  // measure 7
0010
0000
0001
0010
0100
0000
0020
0000
0000
0000
1030
0010
1000
0000
0100
0000
,  // measure 8
0010
0000
0001
0100
0001
0000
0010
1000
0010
1000
0100
0000
0010
0001
1000
0010
,  // measure 9
0100
0000
0010
0001
0000
0100
0001
0000
1001
0000
1100
0000
1000
0010
0100
0001
,  // measure 10
0020
0000
0000
2030
0000
0000
3020
0000
0032
0000
0000
2003
0000
0000
3200
0000
,  // measure 11
0000
0000
0320
0000
0000
0032
0000
0000
0013
0000
0000
0200
0310
0000
2000
0000
,  // measure 12
0000
0000
3002
0000
0000
2003
0000
0000
3200
0000
0310
0000
0001
0010
0100
1000
,  // measure 13
0010
0000
0100
0000
0001
1000
0100
0010
0000
0011
0000
0011
0000
1000
0001
0100
,  // measure 14
0020
0000
0000
0032
0000
0000
0203
0000
0320
0000
0000
2030
0000
0000
3020
0000
,  // measure 15
0000
0000
0130
0000
0001
0000
0100
0000
0010
0000
1000
0100
0010
0001
0200
0000
,  // measure 16
0320
2030
0000
3020
0130
0001
0000
0101
,  // measure 17
1010
0000
0101
0000
1100
0100
1000
0010
0100
0000
0000
0101
0000
0000
1010
0000
,  // measure 18
1001
0000
0001
1000
0100
0010
0001
0000
1001
0000
0001
1000
0000
1000
0100
0010
,  // measure 19
0001
0000
0100
0010
1000
0000
0100
1000
0010
0100
1000
0000
0100
0000
0010
0000
,  // measure 20
0001
0000
1000
0100
0000
0010
0001
0100
0020
0000
2000
0000
3030
0000
0000
0000
,  // measure 21
1100
0000
0000
0000
0000
0000
1010
0000
0000
0000
0000
0000
0101
0000
0000
0001
0000
0000
1000
0000
0000
0100
0000
0000
0010
0000
0100
0000
0000
0000
0000
0000
0000
0110
0000
0000
0000
0000
0000
0000
0000
0000
1001
0000
0000
0000
0000
0000
,  // measure 22
2000
0000
3002
0000
1000
0003
0001
1000
0001
0000
0010
0001
0000
0100
0010
1000
,  // measure 23
0002
0000
2003
0000
0001
3000
0001
1000
0001
0000
0100
0010
0000
1000
0001
0010
,  // measure 24
0100
0000
1000
0100
0000
0010
0001
0100
0010
0000
0000
1010
0000
0010
0001
0100
,  // measure 25
0010
0000
1000
0010
1000
0000
0000
0000
1010
0000
0000
0202
0000
0000
0303
0000
,  // measure 26
1000
0100
1000
0000
0100
0000
0010
0000
0001
1000
0001
0000
1000
0000
0001
0000
0010
0100
0010
0000
0100
0000
0010
0000
1000
0100
1000
0000
0100
0000
0010
0000
,  // measure 27
0001
0010
0001
0000
0010
0000
1000
0000
0001
0010
0001
0000
0010
0000
0100
0000
1000
0010
1000
0000
0010
0000
1000
0000
0001
0010
0001
0000
0010
0000
0100
0000
,  // measure 28
1000
0010
1000
0000
0010
0000
1000
0000
0100
0010
0100
0000
0010
0000
0001
0000
1000
0001
1000
0000
0001
0000
1000
0000
0010
0100
0010
0000
0100
0000
0010
0000
,  // measure 29
0001
0010
0001
0000
0010
0000
0100
0000
1000
0100
1000
0000
0100
0000
1000
0000
0010
0100
0010
0000
0100
0000
0001
0000
1000
0100
1000
0000
0100
0000
0010
0000
,  // measure 30
0001
0010
0001
0000
0010
0000
0100
0000
1000
0010
1000
0000
0010
0000
0100
0000
0001
1000
0001
0000
1000
0000
0100
0000
0010
0100
0010
0000
0100
0000
0001
0000
,  // measure 31
1000
0100
1000
0000
0100
1000
0100
0000
1000
0010
1000
0000
0010
1000
0010
0000
1000
0001
1000
0000
0001
1000
0001
0000
0001
0000
0010
0000
0100
0000
1000
0000
,  // measure 32
0010
0001
0100
0001
0010
0001
0100
0001
1000
0100
0010
0100
1000
0100
0010
0100
,  // measure 33
1000
0000
0010
0000
0100
0000
0001
0000
1000
0000
0100
0000
0010
0000
0001
0000
0010
0000
0100
0000
1000
0000
0010
0000
0100
0010
0100
0010
0100
0010
0100
0010
,  // measure 34
0200
0000
0001
0001
0000
0000
1000
1000
,  // measure 35
0000
0000
0010
0010
0000
0000
0001
0001
,  // measure 36
0301
0010
0100
1000
0001
0100
0010
1000
0100
0010
0001
1000
0010
0100
0001
1000
,  // measure 37
0100
0000
0010
1000
0001
0000
0010
0001
1000
0000
1000
0100
0010
0001
0100
0010
,  // measure 38
2000
0000
0000
0000
3001
0000
0000
0000
0101
0000
0000
0100
0001
0000
0020
0000
,  // measure 39
0000
0000
1030
0000
0020
0000
0000
0000
0031
0000
0100
0010
1000
0001
0020
0000
,  // measure 40
0000
0000
0130
0000
0001
0000
1000
0000
0200
0000
0000
0000
0310
1000
0001
0100
,  // measure 41
0010
1000
0100
0010
0001
1000
0010
0000
0011
0000
0000
2200
0000
0000
3300
0000
,  // measure 42
0002
0000
0000
0000
1003
0000
0000
0000
1100
0000
0000
0100
1000
0000
0020
0000
,  // measure 43
0000
0000
0031
0000
0020
0000
0000
0000
1030
0010
0100
0001
1000
0000
0200
0000
,  // measure 44
0000
0000
0301
1000
0010
0000
0100
0001
0020
0000
0000
0000
0031
0100
0010
1000
,  // measure 45
0100
0000
0010
1000
0100
0000
0010
0001
1000
0000
0001
0100
0010
1000
0100
0010
,  // measure 46
0002
0000
0000
0000
0103
0000
0000
0000
1010
0000
0000
0010
1000
0000
0200
0000
,  // measure 47
0000
0000
0301
0000
0200
0000
0000
0000
1300
0100
0010
0001
0100
0000
0020
0000
,  // measure 48
0000
0000
0031
1000
0100
0000
0010
0001
2000
0000
0000
0000
3001
0100
0010
1000
,  // measure 49
0100
0000
0010
1000
0100
0000
0010
0001
1000
0000
0100
0001
0000
0100
0010
0001
,  // measure 50
2000
0000
0000
0000
3010
0000
0000
0000
0011
0000
0000
0001
1000
0000
0020
0000
,  // measure 51
0000
0000
0031
0000
0200
0000
0000
0000
1300
0010
0100
0001
1000
0000
0020
0000
,  // measure 52
0000
0000
0031
1000
0100
0000
0010
0001
0200
0000
0000
0000
1300
0010
0001
0100
,  // measure 53
0010
0100
0010
0000
0100
0000
0001
0000
0100
0010
0100
0000
0010
0000
1000
0000
0010
0100
0010
0000
0100
0000
0001
0000
0100
0010
0100
0010
0100
0000
0010
0000
,  // measure 54
1000
0100
0001
0010
0001
0100
1000
0010
0001
0010
1000
0100
0001
0100
1000
0010
,  // measure 55
0001
1000
0100
0001
0010
1000
0010
0001
0100
1000
0100
0001
0010
1000
0001
0100
,  // measure 56
1000
0010
0001
1000
0100
0001
0010
1000
0100
0010
0001
0010
1000
0000
1001
0000
;
