#TITLE:MOONLIGHT SHADOW (New Vocal Version);
#SUBTITLE:;
#ARTIST:MISSING HEART;
#TITLETRANSLIT:;
#SUBTITLETRANSLIT:;
#ARTISTTRANSLIT:;
#GENRE:;
#CREDIT:;
#BANNER:MOONLIGHT SHADOW (New Vocal Version).png;
#BACKGROUND:MOONLIGHT SHADOW (New Vocal Version)-bg.png;
#LYRICSPATH:;
#CDTITLE:;
#MUSIC:MOONLIGHT SHADOW (New Vocal Version).ogg;
#OFFSET:0.000000;
#SAMPLESTART:39.323002;
#SAMPLELENGTH:15.000000;
#SELECTABLE:YES;
#DISPLAYBPM:140.000000;
#BPMS:0.000000=140.276001
,4.000000=139.996994
;
#STOPS:
;
#BGCHANGES:;
#KEYSOUNDS:;
#ATTACKS:;

//---------------dance-single - ----------------
#NOTES:
     dance-single:
     :
     Beginner:
     3:
     0.159940,0.219568,0.228263,0.000000,0.000000,103.000000,82.000000,21.000000,0.000000,0.000000,0.000000,0.159940,0.219568,0.228263,0.000000,0.000000,103.000000,82.000000,21.000000,0.000000,0.000000,0.000000:
0000
0000
0000
0000
,
0000
0000
0000
0000
,
0000
0000
0000
0000
,
0000
0000
0000
0000
,
0000
0000
0000
0000
,
0000
0000
0000
0000
,
0000
0000
0000
0000
,
1000
0000
1000
0000
,
0100
0000
0100
0000
,
0001
0000
0001
0000
,
1001
0000
1001
0000
,
1000
0000
1000
0000
,
0100
0000
0100
0000
,
0001
0000
0001
0000
,
1001
0000
1001
0000
,
0010
0000
0010
0000
,
0010
0000
0010
0000
,
0110
0000
0000
0000
,
0110
0000
0000
0000
,
0100
0000
0100
0000
,
0100
0000
0100
0000
,
0110
0000
0000
0000
,
0110
0000
0000
0000
,
0001
0000
0001
0000
,
0010
0000
0010
0000
,
1000
0000
1000
0000
,
1001
0000
1001
0000
,
0001
0000
0001
0000
,
0010
0000
0010
0000
,
1000
0000
1000
0000
,
1001
0000
1001
0000
,
0010
0000
0010
0000
,
0010
0000
0010
0000
,
0110
0000
0000
0000
,
0110
0000
0000
0000
,
0100
0000
0100
0000
,
0100
0000
0100
0000
,
0110
0000
0000
0000
,
0110
0000
0000
0000
,
1000
1000
1000
0000
,
0001
0001
0001
0000
,
1001
0000
0000
0000
,
0100
0100
0100
0000
,
1000
0000
1000
0000
,
0100
0000
0100
0000
,
0001
0000
0001
0000
,
1001
0000
1001
0000
,
1000
0000
1000
0000
,
0100
0000
0100
0000
,
0001
0000
0001
0000
,
1001
0000
1001
0000
;

//---------------dance-single - ----------------
#NOTES:
     dance-single:
     :
     Easy:
     5:
     0.214288,0.247014,0.021739,0.000000,0.000000,138.000000,136.000000,2.000000,0.000000,0.000000,0.000000,0.214288,0.247014,0.021739,0.000000,0.000000,138.000000,136.000000,2.000000,0.000000,0.000000,0.000000:
0000
0000
0000
0000
,
0000
0000
0000
0000
,
0000
0000
0000
0000
,
0000
0000
0000
0000
,
0000
0000
0000
0000
,
0000
0000
0000
0000
,
0000
0000
0000
0000
,
1000
0100
0001
0010
,
1000
0100
1000
0100
,
0001
0100
0001
0100
,
1000
0000
0001
0000
,
0010
1000
0100
0001
,
0010
0001
0100
1000
,
0010
1000
0100
0001
,
0001
0000
1000
0000
,
1000
0100
0001
0100
,
1000
0100
0001
0000
,
1000
0000
0001
0000
,
1000
1000
1000
0000
,
1000
0100
0001
0100
,
1000
0100
0001
0000
,
1000
0000
1000
0000
,
1000
0000
1000
0000
,
0001
0100
1000
0010
,
0001
0100
0001
0100
,
1000
0100
1000
0100
,
0001
0000
1000
0000
,
0010
0001
0100
1000
,
0010
1000
0100
0001
,
0010
0001
0100
1000
,
1000
0000
0001
0000
,
1000
0100
0001
0100
,
1000
0100
0001
0000
,
1000
0000
0001
0000
,
1000
1000
1000
0000
,
0001
0000
0001
0000
,
1000
0000
1000
0000
,
0001
0000
0001
0000
,
1000
0000
1000
0000
,
0000
0001
1001
0000
,
0000
1000
1001
0000
,
1000
1000
1000
0000
,
0000
1000
0100
0000
,
1000
0100
0001
0010
,
1000
0100
1000
0100
,
0001
0100
0001
0100
,
1000
0000
0001
0000
,
0010
1000
0100
0001
,
0010
0001
0100
1000
,
0010
1000
0100
0001
,
0001
0000
1000
0000
;

//---------------dance-single - ----------------
#NOTES:
     dance-single:
     :
     Medium:
     9:
     0.341619,0.415765,0.260872,0.021739,0.000000,220.000000,196.000000,24.000000,2.000000,0.000000,0.000000,0.341619,0.415765,0.260872,0.021739,0.000000,220.000000,196.000000,24.000000,2.000000,0.000000,0.000000:
0000
0000
0000
0000
,
0000
0000
0000
0000
,
0000
0000
0000
0000
,
0000
0000
0000
0000
,
0000
0000
1100
0101
,
0000
0000
0000
0000
,
0000
0000
0000
0000
,
0010
1000
0100
0000
0010
0001
0100
0000
,
0010
1000
0100
0000
0010
0001
0100
0000
,
1000
0100
0001
0000
1000
0000
0001
0000
,
1000
0000
1100
0101
,
0001
0100
1000
0000
0001
0100
1000
0000
,
1000
0100
0001
0000
1000
0100
0001
0000
,
0001
0100
1000
0000
0001
0000
1000
0000
,
0001
0000
0101
1100
,
0001
0100
0001
0000
1000
0100
1000
0000
,
0001
0100
0001
0000
1001
0000
0000
0000
,
1000
0000
0001
0000
,
1000
0100
0001
0000
0101
0000
0000
0000
,
0010
0001
0010
0000
0100
1000
0100
0000
,
0010
0001
0010
0000
1100
0000
0000
0000
,
1000
0000
1000
0000
,
1000
0000
1000
0000
,
0010
1000
0100
0000
0001
0100
1000
0000
,
0010
1000
0100
0000
1000
0100
0001
0000
,
1000
0100
0001
0000
1000
0000
0001
0000
,
1000
0000
1100
0101
,
0010
0001
0100
0000
0001
0100
1000
0000
,
0010
1000
0100
0000
1000
0100
0001
0000
,
0001
0100
1000
0000
0001
0000
1000
0000
,
0001
0000
0101
1100
,
0001
0100
0001
0000
1000
0100
1000
0000
,
0001
0100
0001
0000
1001
0000
0000
0000
,
1000
0000
0001
0000
,
1000
0100
0001
0000
0101
0000
0000
0000
,
0010
0001
0010
0000
0100
1000
0100
0000
,
0010
1000
0010
0000
1010
0000
0000
0000
,
0001
0000
0001
0000
,
1000
0000
1000
0000
,
0000
0010
1001
0100
,
1001
0000
0100
0000
1001
0000
1000
0100
,
0001
0100
1000
0000
1100
0000
0000
0000
,
0000
1000
0100
0000
,
0010
1000
0100
0000
1000
0100
0001
0000
,
0010
0001
0100
0000
0001
0100
1000
0000
,
1000
0100
0001
0000
1000
0000
0001
0000
,
1000
0000
1100
0101
,
0010
0001
0100
0000
0010
1000
0100
0000
,
0010
0001
0100
0000
1000
0100
0001
0000
,
0001
0100
1000
0000
0001
0000
1000
0000
,
0001
0000
0101
2200
,
3300
0000
0000
0000
;

//---------------dance-single - ----------------
#NOTES:
     dance-single:
     :
     Hard:
     11:
     0.428576,0.471201,0.076088,0.010870,0.076088,276.000000,269.000000,7.000000,1.000000,0.000000,0.000000,0.428576,0.471201,0.076088,0.010870,0.076088,276.000000,269.000000,7.000000,1.000000,0.000000,0.000000:
0000
0000
0000
0000
,
0000
0000
0000
0000
,
0000
0000
0000
0000
,
1000
0100
0001
0001
0000
0000
1000
0100
,
0001
0000
0000
0000
0001
0000
0000
0000
1000
0100
0000
0000
0001
0100
0000
0000
,
0000
0000
0000
0000
,
0000
0000
0000
0000
0000
0000
0010
0001
,
1000
0100
0001
0100
1000
0010
1000
0100
,
0001
0000
0001
0100
0000
0000
0000
0000
,
0001
0010
1000
1000
0000
0000
0001
0100
,
1000
0000
0000
0000
0001
0000
0000
0000
1000
0100
0000
0000
0001
0100
0000
0000
,
0010
1000
0001
0100
1000
0100
0001
0100
,
1000
0000
1000
0100
0000
0000
0000
0000
,
1000
0010
0001
0001
0000
0000
1000
0100
,
0001
0000
0000
0000
1000
0000
0000
0000
0001
0100
0000
0000
1000
0100
0000
0000
,
0010
0000
0100
1000
0010
0100
0001
0010
,
0100
1000
0010
0100
0001
0000
0000
0000
,
0101
0000
0000
0000
1100
0000
0001
0010
,
1000
0010
0001
0100
1000
0000
0100
0010
,
1000
0100
0010
0001
0100
0010
1000
0100
,
0010
0001
0100
0010
1000
0000
0010
1000
,
0100
0001
0001
0001
,
0001
0100
1000
0000
0000
0000
0000
0000
,
1000
0100
0001
0100
1000
0010
1000
0100
,
0001
0000
0001
0100
0000
0000
0000
0000
,
1000
0010
0001
0001
0000
0000
1000
0100
,
0001
0000
0000
0000
1000
0000
0000
0000
0001
0100
0000
0000
1000
0100
0000
0000
,
0001
0100
1000
0010
0001
0010
1000
0100
,
0001
0100
1000
0010
0001
0010
1000
0100
,
0001
0100
1000
0010
0000
0000
1000
0100
,
0001
0000
0000
0000
1000
0000
0000
0000
0001
0100
0000
0000
1000
0100
0000
0000
,
0010
0000
0100
1000
0010
0100
0001
0010
,
0100
1000
0010
0100
0001
0000
0000
0000
,
0101
0000
0000
0000
1100
0000
1000
0010
,
0001
0010
1000
0100
0001
0000
0100
0010
,
0001
0100
0010
1000
0100
0010
0001
0100
,
0010
1000
0100
0010
0001
0000
0010
0001
,
0100
0000
1000
0100
0001
0000
0001
0100
,
1000
0100
0001
0000
0000
0000
0000
0000
,
0000
0010
1100
0100
,
0011
0000
0010
0000
1001
1000
0100
0001
,
0100
1000
0100
0000
1000
0000
0000
0000
,
0000
0010
0100
0000
,
1000
0100
0001
0100
1000
0010
1000
0100
,
0001
0000
0001
0100
0000
0000
0000
0000
,
0001
0010
1000
1000
0000
0000
0001
0100
,
1000
0000
0000
0000
0001
0000
0000
0000
1000
0100
0000
0000
0001
0100
0000
0000
,
1000
0100
0001
0010
1000
0010
0001
0100
,
1000
0100
0001
0010
1000
0010
0001
0100
,
1000
0100
0001
0010
0000
0000
0001
0100
,
1000
0000
0000
0000
0001
0000
0000
0000
1000
0100
0000
0000
0001
0200
0000
0000
,
0300
0000
0000
0000
;

//---------------dance-double - ----------------
#NOTES:
     dance-double:
     :
     Easy:
     4:
     0.218946,0.247014,0.021739,0.000000,0.000000,141.000000,139.000000,2.000000,0.000000,0.000000,0.000000,0.218946,0.247014,0.021739,0.000000,0.000000,141.000000,139.000000,2.000000,0.000000,0.000000,0.000000:
00000000
00000000
00000000
00000000
,
00000000
00000000
00000000
00000000
,
00000000
00000000
00000000
00000000
,
00000000
00000000
00000000
00000000
,
00000000
00000000
00000000
00000000
,
00000000
00000000
00000000
00000000
,
00000000
00000000
00000000
00000000
,
10000000
01000000
00010000
00001000
,
00000100
00000001
00000100
00001000
,
00010000
01000000
10000000
01000000
,
00010000
00000000
00001000
00000000
,
00010000
01000000
10000000
01000000
,
00010000
00001000
00000100
00000001
,
00000100
00001000
00010000
01000000
,
10000000
00000000
00010000
00000000
,
00001000
00100000
00010000
01000000
,
10000000
01000000
00010000
00000000
,
10000000
00000000
10000000
00000000
,
01000000
00010000
00001000
00000000
,
00000100
00000001
00000100
00001000
,
00000100
00000001
00000100
00000000
,
00001000
00000000
00010000
00000000
,
01000000
00000000
10000000
00000000
,
10000000
01000000
00010000
00001000
,
00000100
00000001
00000100
00001000
,
00010000
01000000
10000000
01000000
,
00010000
00000000
00001000
00000000
,
00010000
01000000
10000000
01000000
,
00010000
00001000
00000100
00000001
,
00000100
00001000
00010000
01000000
,
10000000
00000000
00010000
00000000
,
00001000
00100000
00010000
01000000
,
10000000
01000000
00010000
00000000
,
10000000
00000000
10000000
00000000
,
01000000
00010000
00001000
00000000
,
00000100
00000001
00000100
00001000
,
00000100
00000001
00000100
00000000
,
00001000
00000000
00010000
00000000
,
01000000
00000000
10000000
00000000
,
00000000
00010000
10010000
00000000
,
00000000
10000000
10010000
00000000
,
01000000
00010000
00001000
00000000
,
00000000
00000100
00000001
00000000
,
00000001
00000100
00001000
00010000
,
01000000
10000000
01000000
00010000
,
00001000
00000100
00000001
00000100
,
00001000
00000000
00010000
00000000
,
00001000
00000100
00000001
00000100
,
00001000
00010000
01000000
10000000
,
01000000
00010000
00001000
00000100
,
00000001
00000000
00001000
00000000
,
00000000
00000000
00000000
00000000
;

//---------------dance-double - ----------------
#NOTES:
     dance-double:
     :
     Medium:
     5:
     0.318326,0.413727,0.228263,0.000000,0.000000,205.000000,184.000000,21.000000,0.000000,0.000000,0.000000,0.318326,0.413727,0.228263,0.000000,0.000000,205.000000,184.000000,21.000000,0.000000,0.000000,0.000000:
00000000
00000000
00000000
00000000
,
00000000
00000000
00000000
00000000
,
00000000
00000000
00000000
00000000
,
00000000
00000000
00000000
00000000
,
00000000
00000000
10100000
01010000
,
00000000
00000000
00000000
00000000
,
00000000
00000000
00000000
00000000
,
10000000
00000000
01000000
00000000
00010000
00001000
00000100
00000000
,
00001000
00010000
01000000
00010000
,
00001000
00000100
00000001
00000000
00000100
00000000
00001000
00000000
,
00010000
00000000
00110000
01010000
,
10000000
00000000
01000000
00000000
00010000
00001000
00000100
00000000
,
00000001
00000000
00000100
00000000
00001000
00010000
01000000
00000000
,
00010000
00000000
00001000
00000000
00000100
00001000
00010000
00000000
,
01000000
00000000
00110000
11000000
,
00010000
00001000
00000100
00001000
,
00010000
01000000
10000000
00100000
00010000
00000000
00000000
00000000
,
10000000
00000000
01000000
00000000
,
10000000
01000000
00010000
00000000
01010000
00000000
00000000
00000000
,
00001000
00010000
01000000
00010000
,
00001000
00000100
00000001
00000010
00001000
00000000
00000000
00000000
,
00000001
00000000
00000100
00000000
,
00000001
00000100
00001000
00000000
00001100
00000000
00000000
00000000
,
00000001
00000000
00000100
00000000
00001000
00010000
01000000
00000000
,
10000000
00000000
01000000
00000000
00010000
00001000
00000100
00000000
,
00000001
00000100
00001000
00000000
00000000
00000000
00010000
00000000
,
01000000
00000000
00110000
11000000
,
10000000
00000000
01000000
00000000
00010000
00001000
00000100
00000000
,
00000001
00000100
00001000
00000000
00001000
00010000
01000000
00000000
,
10000000
01000000
00010000
00001000
00000100
00000000
00001000
00000000
,
00000100
00000000
00001010
00000101
,
00001000
00010000
01000000
00010000
,
00001000
00000100
00000001
00000010
00001000
00000000
00000000
00000000
,
00000001
00000000
00000100
00000000
,
00000001
00000100
00001000
00000000
00001100
00000000
00000000
00000000
,
00010000
00001000
00000100
00001000
,
00010000
01000000
10000000
00100000
00010000
00000000
00000000
00000000
,
00010000
00000000
01000000
00000000
,
10000000
00000000
10000000
00000000
,
00000000
00100000
00110000
00001000
,
00001100
00000000
00000001
00000000
00000011
00000000
00000001
00000100
,
00001000
00010000
01000000
00000000
11000000
00000000
00000000
00000000
,
00000000
10000000
01000000
00000000
,
10000000
00000000
01000000
00000000
00010000
00001000
00000100
00000000
,
00000001
00000000
00000100
00000000
00001000
00010000
01000000
00000000
,
10000000
01000000
00010000
00000000
00000000
00000000
00001000
00000000
,
00000100
00000000
00001010
00000101
,
00000010
00000001
00000100
00000000
00000001
00000100
00001000
00000000
,
00001000
00010000
01000000
00000000
00010000
01000000
10000000
00000000
,
00010000
00001000
00000100
00000001
00000100
00000000
00001000
00000000
,
00010000
00000000
00110000
11000000
,
00000000
00000000
00000000
00000000
;

//---------------dance-double - ----------------
#NOTES:
     dance-double:
     :
     Hard:
     7:
     0.470502,0.469468,0.076088,0.000000,0.076088,303.000000,296.000000,7.000000,0.000000,0.000000,0.000000,0.470502,0.469468,0.076088,0.000000,0.076088,303.000000,296.000000,7.000000,0.000000,0.000000,0.000000:
00000000
00000000
00000000
00000000
,
00000000
00000000
00000000
00000000
,
00000000
00000000
00000000
00000000
,
10000000
01000000
00010000
00001000
00000100
00000001
00000100
00001000
,
00010000
00000000
01000000
00000000
10000000
00000000
00000000
00000000
10000000
01000000
00000000
00000000
00010000
01000000
00000000
00000000
,
00000000
00000000
00000000
00000000
,
00000000
00000000
00000000
00000000
00000000
00000000
00010000
01000000
,
10000000
01000000
00010000
00001000
00000001
00000100
00001000
00010000
,
01000000
10000000
01000000
00010000
00001000
00000000
00000000
00000000
,
00000001
00000010
00001000
00010000
00100000
10000000
01000000
00010000
,
00001000
00000000
00000000
00000000
00000100
00000000
00000000
00000000
00000001
00000100
00000000
00000000
00001000
00000100
00000000
00000000
,
00000001
00000100
00001000
00010000
10000000
01000000
00010000
00001000
,
00000100
00000001
00000100
00001000
00010000
00000000
00000000
00000000
,
10000000
00100000
00010000
00001000
00000010
00000001
00000100
00001000
,
00010000
00000000
00000000
00000000
01000000
00000000
00000000
00000000
10000000
01000000
00000000
00000000
00010000
01000000
00000000
00000000
,
00100000
00010000
00001000
00000010
00001000
00010000
00100000
00010000
,
00001000
00000010
00001000
00010000
00100000
00000000
00000000
00000000
,
00011000
00000000
00000000
00000000
00001100
00000000
00000001
00000100
,
00001000
00010000
10000000
01000000
00010000
00000000
00001000
00010000
,
00000010
00000100
00010000
00001000
00000010
00000100
00010000
00001000
,
00000010
00000100
00010000
00001000
00000010
00000000
00000001
00000010
,
00001000
00010000
00010000
00010000
,
00010000
00001000
00000100
00000000
00000000
00000000
00000000
00000000
,
00000001
00000100
00001000
00010000
10000000
01000000
00010000
00001000
,
00000100
00000001
00000100
00001000
00010000
00000000
00000000
00000000
,
10000000
00100000
00010000
00001000
00000010
00000001
00000100
00001000
,
00010000
00000000
00000000
00000000
01000000
00000000
00000000
00000000
10000000
01000000
00000000
00000000
00010000
01000000
00000000
00000000
,
10000000
01000000
00010000
00001000
00000001
00000100
00001000
00010000
,
01000000
10000000
01000000
00010000
00001000
00000000
00000000
00000000
,
00000001
00000010
00001000
00010000
00100000
10000000
01000000
00010000
,
00001000
00000000
00000000
00000000
00000100
00000000
00000000
00000000
00000001
00000100
00000000
00000000
00001000
00000100
00000000
00000000
,
00000010
00001000
00010000
00100000
00010000
00001000
00000010
00001000
,
00010000
00100000
00010000
00001000
00000010
00000000
00000000
00000000
,
00011000
00000000
00000000
00000000
01010000
00000000
10000000
01000000
,
00010000
00001000
00000001
00000100
00001000
00000000
00010000
00001000
,
00100000
01000000
00010000
00000010
00000100
00001000
00100000
01000000
,
00010000
00000010
00000100
00001000
00100000
01000000
00010000
00000000
,
00001000
00000000
00000001
00000100
00001000
00010000
10000000
01000000
,
00010000
00001000
00000100
00000000
00000000
00000000
00000000
00000000
,
00000000
00000001
00000011
00001000
,
00001100
00000000
00010000
00000000
00011000
00010000
00100000
00010000
,
00001000
00000010
00001000
00010000
00100000
00000000
00000000
00000000
,
00000000
00010000
00001000
00000000
,
10000000
01000000
00010000
00001000
00010000
01000000
00010000
00001000
,
00000100
00000001
00000100
00001000
00010000
01000000
00010000
00001000
,
00000100
00000001
00000100
00001000
00010000
01000000
10000000
01000000
,
00010000
00000000
00000000
00000000
10000000
00000000
00000000
00000000
10000000
01000000
00000000
00000000
00010000
01000000
00000000
00000000
,
10000000
01000000
00010000
00001000
00010000
00100000
00010000
00001000
,
00000010
00000001
00000100
00001000
00010000
00100000
00010000
00001000
,
00000010
00000001
00000100
00001000
00010000
00100000
10000000
00100000
,
00010000
00000000
00000000
00000000
10000000
00000000
00000000
00000000
10000000
01000000
00000000
00000000
00010000
01000000
00000000
00000000
,
00000000
00000000
00000000
00000000
;

//---------------dance-single - ----------------
#NOTES:
     dance-single:
     :
     Challenge:
     15:
     0.875786,0.921409,0.663051,0.086957,0.880444,564.000000,503.000000,61.000000,8.000000,0.000000,0.000000,0.875786,0.921409,0.663051,0.086957,0.880444,564.000000,503.000000,61.000000,8.000000,0.000000,0.000000:
// measure 0
0000
0000
0000
0000
,  // measure 1
0000
0000
0000
0000
,  // measure 2
0000
0000
0000
0000
,  // measure 3
1000
0010
0001
0200
0000
0000
0310
1000
,  // measure 4
0100
0000
0101
0000
2000
0200
0000
0000
,  // measure 5
3300
0000
0000
0000
0000
0000
0010
0100
0010
0100
0010
0100
0010
0100
0010
0100
,  // measure 6
0010
0100
0010
0100
0010
0100
0010
0100
0010
0100
0010
0100
0010
0100
0010
0100
,  // measure 7
0010
0000
0001
1000
0100
0000
0010
1000
0100
0000
0010
0000
0001
0100
0010
1000
,  // measure 8
0100
0000
1000
0001
0010
0000
0100
0001
0010
0000
0001
0010
0100
1000
0010
0000
,  // measure 9
0100
1000
0010
0000
0100
0000
0001
0010
0100
0000
0010
0000
1000
0100
0010
0001
,  // measure 10
0100
0000
0000
0001
0100
0000
0000
1000
0100
0000
1100
0000
0101
0000
1100
0000
,  // measure 11
1000
0000
0010
0100
1000
0000
0100
0010
0001
0000
0100
0000
0010
1000
0100
0001
,  // measure 12
0010
0000
0100
0001
0010
0000
1000
0100
0010
0000
0001
0010
0100
1000
0010
0000
,  // measure 13
0001
0010
0100
0000
0010
0000
1000
0100
0010
0000
0001
0000
1000
0010
0001
0100
,  // measure 14
0010
0000
0000
1000
0010
0000
0000
0001
0010
0000
0011
0000
1010
0000
0011
0000
,  // measure 15
1010
0000
0000
1000
0100
0000
0010
0100
0001
0000
0010
0000
0100
0010
1000
0001
,  // measure 16
0010
0000
0000
0010
0001
0000
0100
1000
0010
0000
0000
0000
0101
0000
0000
0000
,  // measure 17
2000
0000
3010
0100
0002
0000
0013
1000
,  // measure 18
0100
0000
0010
0000
1000
0010
0100
0001
0010
0000
0011
0000
0001
0100
0010
1000
,  // measure 19
0100
0000
0000
0100
1000
0000
0010
1000
0100
0000
0010
0000
0001
0100
0010
1000
,  // measure 20
0100
0000
0000
0100
1000
0000
0010
0100
0001
0000
0000
0000
1001
0000
0001
0010
,  // measure 21
0001
0000
0100
0001
0100
0000
0001
1000
0001
0000
1000
0100
1000
0100
0010
0000
,  // measure 22
0001
0010
0001
0010
0001
0010
0001
0010
0001
0010
0001
0010
0001
0000
0010
0000
,  // measure 23
0100
1000
0010
0000
0100
0000
0010
0001
0100
0000
0010
0000
1000
0100
0010
0000
,  // measure 24
0001
0010
0100
0000
1000
0000
0010
1000
0100
0000
0010
0000
1000
0100
0010
0000
,  // measure 25
0011
0000
1010
0000
0011
0000
1010
0000
0000
0000
0100
1000
0010
0000
1010
0000
,  // measure 26
0101
0000
0110
0000
1100
0101
1100
0101
,  // measure 27
1000
0010
0100
0000
0010
0000
0001
0100
0010
0000
1000
0000
0010
0100
0001
0000
,  // measure 28
0010
0001
0100
0000
1000
0000
0100
1000
0010
0000
0100
0000
1000
0100
0010
0000
,  // measure 29
0101
0000
1100
0000
0101
0000
1100
0000
0000
0000
0010
0001
0100
0000
0101
0000
,  // measure 30
1010
0000
0110
0000
0011
1010
0011
1010
,  // measure 31
1000
0100
0010
0000
0001
0000
0010
0100
1000
0000
0100
0000
0010
1000
0100
0000
,  // measure 32
0010
0001
0100
0000
0001
0000
0010
0100
1000
0000
0100
0000
1000
0100
0010
0000
,  // measure 33
0001
1000
0100
1000
0010
0000
1000
0001
0100
0001
0010
0000
1000
0010
0100
0000
,  // measure 34
0001
0010
0100
0000
0010
0000
1000
0100
0010
0000
0001
0000
0100
0010
1000
0010
,  // measure 35
0001
0000
0000
0000
0101
0000
0000
0000
1010
0000
0000
0000
1000
0100
0010
0000
,  // measure 36
0001
0010
0100
0000
0010
0000
1000
0100
0010
0000
0001
0000
1000
0001
0100
0001
,  // measure 37
0010
0001
0010
0000
1000
0010
1000
0000
0001
0100
0001
0000
1000
0100
1000
0100
,  // measure 38
0020
0000
0000
0000
0000
0000
0000
0130
,  // measure 39
0100
1000
0100
0001
0100
1000
0100
0001
0100
1000
0100
0001
0100
1000
0100
0010
,  // measure 40
0001
0010
1000
0010
0001
0010
1000
0010
0001
0010
1000
0010
0001
0100
0010
1000
,  // measure 41
0100
0000
1000
0010
0100
0000
0001
0010
0100
0000
1000
0100
0010
0001
0100
0010
,  // measure 42
0100
0000
0010
0000
0100
1000
0001
0000
0010
1000
0001
0000
0010
0001
0100
0010
,  // measure 43
1000
0010
1000
0010
1000
0010
1000
0100
1000
0100
1000
0100
1000
0001
1000
0001
,  // measure 44
1000
0010
0100
0001
0010
0100
1000
0001
0100
0010
1000
0100
0010
0001
1000
0000
,  // measure 45
1001
0110
1001
0110
0000
0110
0011
0110
,  // measure 46
1010
0000
0101
0000
0110
1001
0110
1001
,  // measure 47
0001
0010
0001
0010
0001
0010
0001
0100
0001
0100
0001
0100
0001
1000
0001
1000
,  // measure 48
0001
0010
0100
1000
0100
0010
0001
1000
0010
0100
0001
0010
1000
0100
0010
0000
,  // measure 49
0011
1100
0011
1100
0000
0110
1001
0110
,  // measure 50
1001
0000
0011
0000
1010
0110
0011
0220
,  // measure 51
0000
0000
0000
0330
0000
0000
0000
0000
;
