#TITLE:MODERN GIRL;
#SUBTITLE:;
#ARTIST:SHEENA EASTON;
#TITLETRANSLIT:;
#SUBTITLETRANSLIT:;
#ARTISTTRANSLIT:;
#GENRE:;
#CREDIT:;
#BANNER:MODERN GIRL.png;
#BACKGROUND:MODERN GIRL-jacket.png;
#LYRICSPATH:;
#CDTITLE:;
#MUSIC:MODERN GIRL.ogg;
#OFFSET:0.000000;
#SAMPLESTART:27.410000;
#SAMPLELENGTH:15.000000;
#SELECTABLE:YES;
#DISPLAYBPM:120.000000;
#BPMS:0.000000=118.811996
,4.000000=119.205002
,24.000000=120.401001
,32.000000=120.000000
,36.000000=119.205002
,40.000000=120.000000
,44.000000=119.336998
,56.000000=119.700996
,104.000000=118.811996
,108.000000=119.681000
,128.000000=119.205002
,136.000000=119.600998
,140.000000=120.805008
,144.000000=119.600998
,160.000000=119.008003
,168.000000=119.600998
,172.000000=120.805008
,176.000000=120.401001
;
#STOPS:
;
#BGCHANGES:;
#KEYSOUNDS:;
#ATTACKS:;

//---------------dance-single - ----------------
#NOTES:
     dance-single:
     :
     Beginner:
     3:
     0.123404,0.171519,0.033224,0.000000,0.000000,78.000000,75.000000,3.000000,0.000000,0.000000,0.000000,0.123404,0.171519,0.033224,0.000000,0.000000,78.000000,75.000000,3.000000,0.000000,0.000000,0.000000:
0000
0000
0000
0000
,
0000
0000
0000
0000
,
0000
0001
0000
0100
,
0000
1000
0000
0100
,
0000
0010
0000
0001
,
0000
1000
0000
0100
,
0000
0001
0000
0100
,
0000
1000
0000
0100
,
0000
0000
0001
0000
,
1000
0000
1000
0000
,
0001
0000
0100
0000
,
1000
0000
1000
0000
,
0001
0000
0001
0000
,
0010
0000
0010
0000
,
0001
0000
0000
1000
,
0000
0000
0010
0000
,
0001
0000
0000
1000
,
0000
0000
0100
0000
,
0001
0000
0000
1000
,
0000
0000
0010
0000
,
0001
0000
0000
1000
,
0000
0000
0100
0000
,
0001
0001
0001
0000
,
1000
1000
1000
0000
,
0001
0001
0001
0000
,
0010
0000
0010
0000
,
0001
0000
0000
0000
,
0001
0000
0000
0000
,
0001
0000
0000
0000
,
1000
0000
0100
0000
,
0001
0000
0000
0000
,
0001
0000
0000
0000
,
1001
0000
0000
0000
,
1001
0000
0000
0000
,
1001
0000
0000
0000
,
1000
0000
0010
0000
,
1000
0000
0001
0000
,
1000
0000
0100
0000
,
0010
0000
0001
0000
,
1000
0000
0001
0000
,
0100
0000
0100
0000
,
0010
0000
0100
0000
,
0010
0000
0010
0000
,
0001
0000
0000
0100
,
0000
0100
0000
0000
;

//---------------dance-single - ----------------
#NOTES:
     dance-single:
     :
     Easy:
     4:
     0.145553,0.172488,0.033224,0.000000,0.000000,92.000000,89.000000,3.000000,0.000000,0.000000,0.000000,0.145553,0.172488,0.033224,0.000000,0.000000,92.000000,89.000000,3.000000,0.000000,0.000000,0.000000:
0000
0000
0000
0000
,
0000
0000
0000
0000
,
0000
0001
0000
0100
,
0000
1000
0000
0100
,
0000
0010
0000
0001
,
0000
1000
0000
0100
,
0000
0001
0000
0100
,
0000
1000
0000
0100
,
0010
0000
0001
0000
,
1000
0000
1000
0000
,
0001
0010
0100
0000
,
1000
0000
1000
0000
,
0001
0000
0001
0000
,
0010
0100
0010
0000
,
0001
0000
0000
1000
,
0100
0000
0010
0000
,
0001
0000
0000
1000
,
0010
0000
0100
0000
,
0001
0000
0000
1000
,
0100
0000
0010
0000
,
0001
0000
0000
1000
,
0010
0000
0100
0000
,
0001
0001
0001
0000
,
1000
1000
1000
0000
,
0001
0001
0001
0000
,
0010
0100
0010
0000
,
0001
0000
0000
0000
,
0001
0000
0000
0000
,
0001
0000
0000
0000
,
1000
0010
0100
0000
,
0001
0000
0000
0000
,
0001
0000
0000
0000
,
1001
0000
0000
0000
,
1001
0000
0000
0000
,
1001
0000
0000
0000
,
1000
0100
0010
0001
,
1000
0000
0001
0000
,
1000
0000
0100
0000
,
0010
0000
0001
0000
,
1000
0000
0001
0000
,
0100
0000
0100
0000
,
0010
1000
0100
0000
,
0010
0000
0010
0000
,
0001
1000
0000
0100
,
0000
0100
0010
0000
;

//---------------dance-single - ----------------
#NOTES:
     dance-single:
     :
     Medium:
     6:
     0.240479,0.271053,0.199344,0.000000,0.000000,152.000000,134.000000,18.000000,0.000000,0.000000,0.000000,0.240479,0.271053,0.199344,0.000000,0.000000,152.000000,134.000000,18.000000,0.000000,0.000000,0.000000:
0000
0000
0000
0000
,
0000
0000
0000
0000
,
0001
1000
0100
0000
,
1000
0100
0001
0010
,
1001
0000
1001
0000
,
1000
0001
0010
0000
,
0001
1000
0010
0000
,
0001
0010
0100
0000
,
1001
0000
0110
0000
,
1000
0000
0001
1000
,
0100
0000
0100
0000
,
0001
0000
1000
0001
,
0100
0000
0000
0010
,
0100
1000
0001
0000
,
0100
0100
0010
0000
,
0001
0001
1000
0000
,
0100
0010
0100
0000
,
1001
1001
1001
0000
,
0010
0010
0100
0000
,
1000
1000
0001
0000
,
0010
0100
0010
0000
,
1001
1001
1001
0000
,
1000
0100
0010
0000
,
0001
0100
0010
0000
,
1000
0001
0100
0000
,
1001
0110
1001
0100
,
0010
0000
1000
0001
,
0010
0000
0001
1000
,
0010
0000
1000
0001
,
0010
1001
0100
1001
,
0100
0000
0010
1000
,
0100
0000
0010
0001
,
1001
0000
0100
0100
,
1001
0000
0010
0010
,
1001
0000
0100
0100
,
0010
0000
1000
0100
0010
0001
1000
0000
,
0100
0000
0001
0000
,
0100
0010
1000
0000
,
0001
0000
0010
0000
,
1000
0000
0010
0100
0010
0000
0001
0000
,
1000
0000
0100
0010
,
0001
0000
1000
0100
1000
0000
0000
0000
,
0001
0000
0100
0010
,
1000
0000
0001
0010
0001
0000
1000
0000
,
0010
0100
0001
0000
;

//---------------dance-single - ----------------
#NOTES:
     dance-single:
     :
     Hard:
     9:
     0.362300,0.394259,0.044299,0.000000,0.127359,229.000000,225.000000,4.000000,0.000000,0.000000,0.000000,0.362300,0.394259,0.044299,0.000000,0.127359,229.000000,225.000000,4.000000,0.000000,0.000000,0.000000:
0000
0000
0000
0000
,
0000
0000
0000
0000
,
0001
0000
1000
0000
0001
0100
0010
0000
,
1000
0000
0001
0000
0010
0100
1000
0010
,
0100
1001
0100
1001
,
0010
0000
0100
0000
1000
0001
0100
0000
,
0010
0000
1000
0000
0100
0010
0001
0000
,
1000
0000
0010
0000
0100
0001
1000
0100
,
0010
1001
0010
1001
,
0100
0000
0010
1000
0010
0000
0100
0000
,
0001
0000
1000
0100
0010
0000
0000
0000
,
0001
0000
0100
0010
0100
0000
0001
0000
,
1000
0000
0000
0100
0000
0000
0010
0000
0000
0000
0001
0000
0100
0000
0000
0000
,
0010
1000
0001
0000
,
0010
0000
0000
0100
0000
0000
1000
0000
0000
0000
0001
0000
0000
0000
0100
0000
,
0010
0000
0000
1000
0000
0000
0100
0000
0000
0000
0010
0000
0000
0000
0001
0000
,
1000
0000
0000
0001
0000
0000
1000
0000
0000
0000
0100
0000
0000
0000
0010
0000
,
0001
0000
0000
0100
0000
0000
0010
0000
0000
0000
1000
0000
0000
0000
0001
0000
,
0010
0000
0000
0100
0000
0000
1000
0000
0000
0000
0001
0000
0000
0000
0100
0000
,
0010
0000
0000
1000
0000
0000
0100
0000
0000
0000
0010
0000
0000
0000
0001
0000
,
1000
0000
0000
0001
0000
0000
1000
0000
0000
0000
0100
0000
0000
0000
0010
0000
,
0001
0000
0000
0100
0000
0000
0010
0000
0000
0000
1000
0000
0000
0000
0001
0000
,
1000
0000
0000
0001
0000
0000
1000
0000
0000
0000
1000
0000
0000
0000
0001
0000
,
1000
0000
0000
0001
0000
0000
1000
0000
0000
0000
1000
0000
0000
0000
0001
0000
,
1000
0000
0000
0001
0000
0000
1000
0000
0000
0000
0010
0000
0000
0000
0100
0000
,
0001
0000
0000
0010
0000
0000
0100
0000
1000
0000
0000
0000
0001
0000
0000
0000
,
0000
0000
1000
0000
0100
0000
1000
0000
0100
0000
0010
0001
0000
0000
0000
0000
,
0000
0000
0100
0000
0010
0000
0100
0000
0010
0000
1000
0100
0000
0000
1000
0000
,
0000
0000
0010
0000
0100
0000
0010
0000
0100
0000
0001
0010
0000
0000
0100
0000
,
1000
0001
1000
0100
,
0000
0000
0010
0000
0001
0000
0010
0000
0001
0000
0100
0010
0000
0000
0000
0000
,
0000
0000
1000
0000
0100
0000
1000
0000
0100
0000
0010
0001
0000
0000
0000
0000
,
0000
0000
0100
0000
0010
0000
1000
0000
0100
0000
0010
0001
0000
0000
0100
0000
,
0000
0000
0010
0000
1000
0000
0100
0000
0010
0000
0001
0100
0000
0000
0010
0000
,
0000
0000
1000
0100
0000
0000
1000
0000
0100
0000
0010
0001
0000
0000
0100
0000
,
0010
1000
0100
0010
0001
1000
0010
0100
,
0001
0000
1000
0100
0010
0000
0001
0100
,
0010
1000
0001
1000
,
1000
0100
0010
0001
0100
0000
0000
0000
,
0010
0000
1000
0100
1000
0000
0001
0000
,
0100
0000
0010
1000
0100
0000
0010
0000
,
0001
0000
0000
1000
0000
0000
0001
0000
0100
0000
0000
0000
0000
0000
0000
0000
,
0010
0000
1000
0100
0010
0000
0001
0000
,
1000
0000
0010
0100
0001
0000
1000
0000
,
0100
0000
0010
0001
1000
0000
0000
0000
;

//---------------dance-double - ----------------
#NOTES:
     dance-double:
     :
     Easy:
     2:
     0.137643,0.147847,0.033224,0.000000,0.000000,87.000000,84.000000,3.000000,0.000000,0.000000,0.000000,0.137643,0.147847,0.033224,0.000000,0.000000,87.000000,84.000000,3.000000,0.000000,0.000000,0.000000:
00000000
00000000
00000000
00000000
,
00000000
00000000
00000000
00000000
,
00100000
00000000
00010000
01000000
,
00001000
00000000
00000000
00010000
,
00000010
00000000
00001000
00000000
,
00000001
00000000
00000000
00000100
,
00000010
00000000
00001000
00000100
,
00010000
00000000
00000000
00001000
,
00100000
00000000
00010000
00000000
,
10000000
00000000
10000000
00000000
,
01000000
00000000
01000000
00000000
,
00100000
00000000
00100000
00000000
,
00010000
00000000
00010000
00000000
,
01000000
00001000
00010000
00000000
,
00000010
00000000
00000000
00001000
,
00000100
00000000
00000000
00010000
,
01000000
00000000
00000000
00001000
,
00000100
00000000
00010000
00000000
,
00000010
00000000
00000000
00001000
,
00000100
00000000
00000000
00010000
,
00100000
00000000
00000000
00001000
,
00000010
00000000
00010000
00000000
,
00100000
10000000
01000000
00000000
,
00010000
00000000
00001000
00000000
,
00000010
00000001
00000100
00000000
,
00001000
00000000
00010000
00000000
,
00000010
00000000
00000000
00000000
,
00001000
00000000
00000000
00000000
,
00000001
00000000
00000000
00000000
,
00000100
00000000
00001000
00000000
,
00010000
00000000
00000000
00000000
,
00100000
00000000
00000000
00000000
,
10010000
00000000
00000000
00000000
,
10010000
00000000
00000000
00000000
,
10010000
00000000
00000000
00000000
,
01000000
00000000
01000000
00100000
,
00010000
00000000
00010000
00000000
,
01000000
00000000
00000000
00000000
,
00001000
00000000
00001000
00000000
,
00010000
00000000
00000010
00000000
,
00001000
00000000
00000000
00001000
,
00000001
00000000
00000010
00000000
,
00001000
00000000
00000000
00010000
,
00100000
00000000
10000000
00000000
,
01000000
00010000
00001000
00000000
;

//---------------dance-double - ----------------
#NOTES:
     dance-double:
     :
     Medium:
     6:
     0.246807,0.271053,0.000000,0.000000,0.000000,156.000000,156.000000,0.000000,0.000000,0.000000,0.000000,0.246807,0.271053,0.000000,0.000000,0.000000,156.000000,156.000000,0.000000,0.000000,0.000000,0.000000:
00000000
00000000
00000000
00000000
,
00000000
00000000
00000000
00000000
,
00001000
00000000
00010000
00000000
00000010
00001000
00000100
00000000
,
00010000
00001000
00100000
00000000
,
00001000
00000000
00010000
00000000
00100000
10000000
01000000
00000000
,
00010000
00001000
00100000
00000000
,
00010000
00000000
00001000
00000000
00100000
00010000
01000000
00000000
,
00001000
00010000
00000010
00000000
,
00001000
00000000
00000001
00000000
00000010
00000100
00001000
00000000
,
00000001
00000000
00000100
00000000
00001000
00000000
00010000
00000010
,
00000100
00001000
00010000
00000000
,
01000000
00000000
10000000
00000000
00010000
00000000
01000000
00001000
,
00010000
01000000
10000000
00010000
,
01000000
00001000
00010000
00000000
,
00000010
00001000
00000100
00000000
,
00010000
00001000
01000000
00000000
,
00100000
10000000
01000000
00000000
,
00010000
00000000
00001000
00010000
00001000
00000000
00000000
00000000
,
00100000
00010000
01000000
00000000
,
00001000
00010000
00000100
00000000
,
00000010
00000001
00000100
00000000
,
00001000
00000000
00010000
00001000
00010000
00000000
00000000
00000000
,
00100000
10000000
01000000
00000000
,
00010000
00001000
00000100
00000000
,
00000001
00000010
00000100
00000000
,
00001000
00000000
00000010
00010000
00001000
00000000
01000000
00000000
,
00000000
00000000
00100000
00000000
10000000
01000000
00100000
00000000
,
00000000
00000000
00010000
00000000
01000000
00100000
10000000
00000000
,
00000000
00000000
01000000
00000000
00100000
00010000
01000000
00000000
,
00001000
00000000
00010000
00000000
,
00000000
00000000
00000010
00000000
00001000
00000100
00000010
00000000
,
00000000
00000000
00000001
00000000
00000100
00001000
00010000
00000000
,
00000000
00000000
00100000
00000000
01000000
00010000
00100000
00000000
,
00000000
00000000
00001000
00000000
00010000
00000010
00001000
00000000
,
00000000
00000100
00000000
00000010
,
00000001
00001000
00000010
00000100
,
00001000
00010000
00000100
00000000
,
00001000
00000000
00000010
00000100
00000001
00000000
00000000
00000000
,
00001000
00000100
00010000
00000000
,
00001000
00000000
00100000
00010000
01000000
00000000
00100000
00000000
,
10000000
00000000
00010000
00000000
,
01000000
00000000
00100000
00010000
00001000
00000000
00000000
00000000
,
00000010
00000000
00000001
00000000
,
00000100
00001000
00010000
00100000
,
10000000
00000000
01000000
00010000
00001000
00000000
00000000
00000000
;

//---------------dance-double - ----------------
#NOTES:
     dance-double:
     :
     Hard:
     7:
     0.341733,0.369618,0.143971,0.000000,0.022149,216.000000,203.000000,13.000000,0.000000,0.000000,0.000000,0.341733,0.369618,0.143971,0.000000,0.022149,216.000000,203.000000,13.000000,0.000000,0.000000,0.000000:
00000000
00000000
00000000
00000000
,
00000000
00000000
00000000
00000000
,
00100000
10000000
01000000
00000000
00100000
00000000
00010000
00000000
,
10000000
00100000
01000000
00000000
00001000
00000000
00010000
00000000
,
00000010
00000000
00001000
00000100
00000010
00000000
00000001
00000000
,
00001000
00000000
00000000
00000010
00000000
00000000
00000100
00000000
00000001
00000000
00000000
00000000
00001000
00000000
00000000
00000000
,
00000100
00000000
00000000
00000010
00000000
00000000
00000001
00000000
00001000
00000000
00000000
00000000
00000010
00000000
00000000
00000000
,
00000100
00000000
00000000
00001000
00000000
00000000
00010000
00000000
01000000
00000000
00000000
00000000
10000000
00000000
00000000
00000000
,
00010000
00000000
00000000
01000000
00000000
00000000
00001000
00000000
00010000
00000000
00000000
00000000
00000010
00000000
00000000
00000000
,
00001000
00000000
00000100
00000010
00000001
00000000
00001000
00000010
,
00000100
00000000
00000001
00001000
00000001
00000000
00000000
00000000
,
00000100
00000000
00001000
00010000
00000010
00000000
00000100
00000000
,
00001000
00000000
00010000
00100000
10000000
00000000
00000000
00000000
,
00010000
00100000
01000000
00000000
,
10000000
00010000
01000000
00000000
00011000
00000000
00000000
00000000
,
00000010
00000100
00000001
00000000
00001100
00000000
00000000
00000000
,
00010000
00000010
00000100
00000000
00001001
00000000
00000000
00000000
,
00000100
00000000
00010000
00001000
00100000
00000000
00000000
00000000
,
00010000
10000000
01000000
00000000
00110000
00000000
00000000
00000000
,
00001000
00010000
00000100
00000000
00001001
00000000
00000000
00000000
,
00000010
00000100
00001000
00000000
00011000
00000000
00000000
00000000
,
00100000
00000000
01000000
10000000
00100000
00000000
00000000
00000000
,
01000000
00010000
00100000
00000000
11000000
00000000
00000000
00000000
,
00010000
01000000
00100000
00000000
10010000
00000000
00000000
00000000
,
01000000
00010000
00001000
00000000
00001010
00000000
00000000
00000000
,
00000001
00000000
00000010
00000100
00001000
00000000
00000001
00000000
,
00000100
00000000
00000010
00000100
00000001
00000000
00001000
00000000
,
00000100
00000000
00010000
00001000
00100000
00000000
00010000
00000000
,
01000000
00000000
00001000
00010000
00000010
00000000
00001000
00000000
,
00000001
00000010
00000100
00000000
00001000
00000010
00000100
00000000
,
00000001
00000000
00001000
00000100
00010000
00000000
00001000
00000000
,
00100000
00000000
00010000
01000000
00100000
00000000
10000000
00000000
,
01010000
00000000
10000000
01000000
00010000
00000000
00001000
00000000
,
00001010
00000000
00000100
00000001
00000010
00000000
00000100
00000000
,
00001001
00000010
00011000
00100000
,
00010000
01000000
00100000
10000000
01000000
00100000
00010000
00000000
,
10000000
00100000
01000000
00010000
10000000
00000000
01000000
00000000
,
00010000
00001000
00000100
00000000
00000001
00000000
00001000
00000000
,
00000100
00010000
00001000
00100000
00010000
00000000
01000000
00000000
,
00001000
00010000
01000000
00000000
10000000
00000000
00010000
00000000
,
01000000
00100000
10000000
00000000
01000000
00000000
00010000
00000000
,
00001000
00000100
00000001
00000000
00001000
00000000
00000000
00000000
,
00000100
00000010
00000001
00000000
00000100
00000000
00001000
00000000
,
00010000
01000000
10000000
00000000
00010000
00000000
01000000
00000000
,
00001000
00000000
00000010
00000001
00000100
00000000
00000000
00000000
;

//---------------dance-single - ----------------
#NOTES:
     dance-single:
     :
     Challenge:
     12:
     0.605944,0.665312,0.509436,0.000000,0.520510,383.000000,337.000000,46.000000,0.000000,0.000000,0.000000,0.605944,0.665312,0.509436,0.000000,0.520510,383.000000,337.000000,46.000000,0.000000,0.000000,0.000000:
// measure 0
0000
0000
0000
0000
,  // measure 1
0000
0000
0000
0000
,  // measure 2
0100
0000
0010
0000
0001
0000
0010
0000
0100
0000
0010
0100
0000
0000
1100
0000
,  // measure 3
0100
0000
0010
0000
0001
0000
1000
0000
0010
0000
0100
0010
0000
0000
0011
0000
,  // measure 4
0101
0000
1100
0000
0101
0000
1100
1000
,  // measure 5
1001
0000
0001
0000
0100
0000
0010
0000
1000
0000
0100
1000
0000
0000
1100
0000
,  // measure 6
1000
0000
0010
0000
0001
0000
0100
0000
0010
0000
0100
0010
0000
0000
0110
0000
,  // measure 7
0010
0000
0001
0000
0100
0000
0010
1000
0000
1000
0010
0100
1000
0000
1001
0000
,  // measure 8
0001
0000
0000
0001
1000
0000
0010
1000
0010
0000
0100
0001
0000
0000
0101
0000
,  // measure 9
0110
0000
0000
1010
0000
0000
1100
0000
0101
0000
0000
0011
0000
0000
1001
0000
,  // measure 10
0001
0000
0000
0010
0000
0000
0100
0000
1100
0000
0000
0000
1001
0000
0000
0001
,  // measure 11
1000
0000
0100
0010
0000
0100
0000
0010
0000
0000
0011
0000
0001
0000
0100
0000
,  // measure 12
0010
0000
0000
1010
0000
0000
1100
0000
0000
0000
0101
0000
0001
0000
0010
0000
,  // measure 13
0100
0000
1000
0000
0010
0100
0010
0100
0010
0000
0001
0000
0000
0010
0000
0000
,  // measure 14
0010
0000
1000
0010
0000
1000
0010
0000
0000
0000
0001
0000
0100
0000
0010
0000
,  // measure 15
1000
0000
0100
1000
0000
0100
1000
0000
0000
0000
0100
0000
0000
0010
0000
0000
,  // measure 16
0001
0000
0100
0001
0000
0100
0001
0000
0000
0000
0010
0000
0001
0000
0100
0000
,  // measure 17
0010
0000
1000
0001
0000
1000
0001
0000
0000
0000
0100
0000
0000
0010
0000
0000
,  // measure 18
1000
0000
0010
0100
0000
0010
0100
0000
0000
0000
0001
0000
0010
0000
1000
0000
,  // measure 19
0100
0000
0010
0001
0000
0100
0010
0000
0000
0000
1000
0000
0000
0010
0000
0000
,  // measure 20
0001
0000
0010
0001
0000
0010
0001
0000
0000
0000
0010
0000
1000
0000
0100
0000
,  // measure 21
0010
0000
1000
0100
0000
1000
0100
0000
0000
0000
1000
0000
0000
0100
0000
0000
,  // measure 22
0001
0000
0000
0010
0000
0000
1000
0000
0000
0000
1000
0000
0000
0010
0000
0000
,  // measure 23
0001
0000
0000
0100
0000
0000
1000
0000
0000
0000
1000
0000
0000
0100
0000
0000
,  // measure 24
0001
0000
0000
0010
0000
0000
1000
0000
0000
0000
1000
0000
0000
0010
0000
0000
,  // measure 25
0001
0000
0000
0100
0000
0000
1000
0000
0001
0000
0000
0000
1001
0000
0000
0000
,  // measure 26
1000
0000
0100
0000
0010
0000
0001
0000
0100
0000
0010
0100
0000
0000
0010
0100
,  // measure 27
0010
0000
0001
0000
0010
0000
1000
0000
0100
0000
0010
0001
0000
0001
0100
0000
,  // measure 28
0100
0000
0010
0000
1000
0000
0100
0000
0010
0000
0001
0100
0000
0100
0010
0100
,  // measure 29
0010
0000
1010
0000
0011
0000
0101
0100
,  // measure 30
0010
0000
0001
0000
0100
0000
0010
0000
1000
0000
0100
1000
0000
0000
0100
0010
,  // measure 31
0001
0000
0010
0000
0100
0000
1000
0000
0010
0000
0100
0001
0100
0001
0100
0001
,  // measure 32
0100
0000
0010
0100
1000
0000
0001
0000
0010
0000
0100
0010
0000
0010
0100
0010
,  // measure 33
1000
0010
0100
0001
0010
0000
0100
0000
1000
0000
0001
1000
0001
1000
0001
1000
,  // measure 34
0001
0000
0010
0001
0000
0000
0101
0000
0010
0000
1000
0010
0000
0000
1100
0000
,  // measure 35
1000
0100
1000
0100
0001
0100
0001
0100
0010
0100
0010
0100
0010
0000
1000
0000
,  // measure 36
0001
0010
0100
1000
1010
0000
0011
0000
,  // measure 37
0101
0000
0000
0110
0000
0000
0101
0000
1010
0000
0000
0000
1100
0000
0100
0000
,  // measure 38
0101
0000
0001
0000
0010
0000
0100
0010
0000
0000
0010
0100
0010
0000
0001
0010
,  // measure 39
0001
0000
0000
0101
0000
0000
0100
0000
0010
0000
1000
0010
1000
0010
0100
0000
,  // measure 40
0010
0000
0001
0100
0000
0001
0100
0000
0010
0000
1000
0100
0000
1000
0100
0000
,  // measure 41
0010
0000
0000
0011
0000
0000
0101
0000
1100
0000
0000
0000
0000
0000
0000
1000
,  // measure 42
0001
0000
0010
0000
0100
0000
1000
0000
0010
0000
0100
0001
0000
0000
0101
0000
,  // measure 43
1001
0000
0000
1010
0000
0000
0011
0000
0000
0000
0101
0000
0001
0000
0100
0000
,  // measure 44
0010
0000
1000
0000
0001
0010
1000
0100
0001
0000
0000
0000
0000
0000
0000
0000
;
