#TITLE:MIRACLE;
#SUBTITLE:;
#ARTIST:ST.JENNARO;
#TITLETRANSLIT:;
#SUBTITLETRANSLIT:;
#ARTISTTRANSLIT:;
#GENRE:;
#CREDIT:;
#BANNER:MIRACLE.png;
#BACKGROUND:MIRACLE-bg.png;
#LYRICSPATH:;
#CDTITLE:;
#MUSIC:MIRACLE.ogg;
#OFFSET:0.000000;
#SAMPLESTART:47.810001;
#SAMPLELENGTH:15.000000;
#SELECTABLE:YES;
#DISPLAYBPM:128.000000;
#BPMS:0.000000=127.378990
,4.000000=127.926010
;
#STOPS:
;
#BGCHANGES:;
#KEYSOUNDS:;
#ATTACKS:;

//---------------dance-single - ----------------
#NOTES:
     dance-single:
     :
     Beginner:
     2:
     0.119108,0.175089,0.144518,0.000000,0.000000,75.000000,62.000000,13.000000,0.000000,0.000000,0.000000,0.119108,0.175089,0.144518,0.000000,0.000000,75.000000,62.000000,13.000000,0.000000,0.000000,0.000000:
0000
0000
0000
0000
,
0000
0000
0000
0000
,
0000
0000
0000
0000
,
0000
0000
0000
0000
,
0000
0000
0000
0000
,
0001
0000
0001
0000
,
0001
0000
0001
0000
,
0001
0000
0001
0000
,
0001
0000
0001
0000
,
1000
0000
1000
0000
,
1000
0000
1000
0000
,
1000
0000
1000
0000
,
1000
0000
1000
0000
,
0010
0000
0010
0000
,
0010
0000
0010
0000
,
0100
0000
0100
0000
,
0100
0100
0100
0000
,
1001
0000
0000
0000
,
0000
0000
0000
0000
,
1001
0000
0000
0000
,
0000
0000
0000
0000
,
1001
0000
0000
0000
,
0000
0000
0000
0000
,
1001
0000
0010
0000
,
0010
0000
0010
0000
,
0000
0000
0100
0000
,
1001
0000
0000
0000
,
0010
0000
0010
0000
,
1001
0000
0000
0000
,
0010
0000
0010
0000
,
1001
0000
0000
0000
,
0010
0000
0010
0000
,
1001
0000
0000
0000
,
0010
0000
0010
0000
,
0100
0000
0010
0000
,
1001
0000
0000
0000
,
0100
0000
0010
0000
,
1001
0000
0000
0000
,
0010
0000
0100
0000
,
1001
0000
0000
0000
,
0010
0000
0100
0000
,
1001
0000
0000
0000
,
1000
0000
0100
0000
,
0010
0000
0001
0000
,
0000
0000
0000
0000
,
1001
0000
0000
0000
;

//---------------dance-single - ----------------
#NOTES:
     dance-single:
     :
     Easy:
     4:
     0.149283,0.200102,0.222336,0.022234,0.000000,94.000000,74.000000,20.000000,2.000000,0.000000,0.000000,0.149283,0.200102,0.222336,0.022234,0.000000,94.000000,74.000000,20.000000,2.000000,0.000000,0.000000:
0000
0000
0000
0000
,
0000
0000
0000
0000
,
0000
0000
0000
0000
,
0000
0000
0000
0000
,
0000
0000
0010
0100
,
0001
0000
0001
0000
,
0001
0000
1000
1000
,
0001
0000
0001
0000
,
0001
0000
0100
0100
,
0001
0000
0001
0000
,
0001
0000
0010
0100
,
1000
0000
1000
0000
,
1000
0000
0010
0100
,
0001
0000
0001
0000
,
0001
0000
0010
0100
,
1000
0000
1000
0000
,
1000
0000
0010
0100
,
1001
0000
0000
0000
,
1001
0000
0000
0000
,
0110
0000
0000
0000
,
0110
0000
0000
0000
,
1001
0000
0000
0000
,
1001
0000
0000
0000
,
0100
0000
0010
0000
,
0002
0000
0000
0003
,
0000
0000
0100
0010
,
1001
0000
0000
0000
,
1001
0000
0000
0000
,
0110
0000
0000
0000
,
0110
0000
0000
0000
,
1001
0000
0100
0000
,
1001
0000
0010
0000
,
1001
0000
0100
0000
,
1001
0000
0010
0000
,
0100
0000
0010
0000
,
1001
0000
0000
0000
,
1001
0000
0010
0000
,
1001
0000
0100
0000
,
0010
0000
0100
0000
,
1001
0000
0100
0000
,
0010
0000
0100
0000
,
1001
0000
0000
0000
,
0100
0000
0010
0000
,
0002
0000
0000
0003
,
0000
0000
0000
0100
,
1001
0000
0000
0000
;

//---------------dance-single - ----------------
#NOTES:
     dance-single:
     :
     Medium:
     7:
     0.263627,0.300153,0.133402,0.066701,0.000000,166.000000,154.000000,12.000000,6.000000,0.000000,0.000000,0.263627,0.300153,0.133402,0.066701,0.000000,166.000000,154.000000,12.000000,6.000000,0.000000,0.000000:
0000
0000
0000
0000
,
0000
0000
0000
0000
,
0000
0000
0000
0000
,
0002
0000
0000
0000
,
0000
0003
0010
1001
,
2000
0010
0100
0010
,
0100
0010
0100
3010
,
0002
0010
0100
0010
,
0100
0010
0100
0013
,
2001
0100
0001
0100
,
0001
0100
0001
3100
,
1002
0100
1000
0100
,
1000
0100
1000
0103
,
0010
0010
0100
0100
,
0010
0100
0010
1001
,
0010
0000
0100
0000
,
0010
0010
0010
0000
,
0010
0000
1000
0000
0010
1000
0100
0000
,
0010
0000
1000
0000
0010
1000
0100
0000
,
0001
0000
0100
0000
1000
0001
0100
0000
,
1000
0000
0100
0000
0001
1000
0100
0000
,
0001
0000
1000
0000
0001
1000
0100
0000
,
0001
1000
0001
0001
,
1001
0000
1001
0000
,
1001
0000
0001
0000
,
0001
0000
0001
0000
,
1001
0000
0100
0000
0001
1000
0100
0000
,
0001
0100
1000
0100
,
1001
0000
0100
0000
0010
1000
0100
0000
,
0001
0100
1000
1000
,
1001
0000
0100
0000
0001
1000
0100
0000
,
1000
0100
0001
0001
,
1001
0000
0100
0000
0010
0001
0100
0000
,
1000
1000
0100
0010
,
0001
0000
0001
0000
,
1000
0000
1000
0000
,
0010
0010
0100
0100
,
0010
0000
1000
0000
0100
1000
0001
0000
,
1000
0000
1000
0000
,
1000
0100
0100
0100
,
1000
0100
0001
0100
,
0010
0000
1000
0000
0001
1000
0100
0000
,
0010
0000
0010
0000
,
0010
0001
0200
0000
,
0000
0000
0300
0010
,
1001
0000
0000
0000
;

//---------------dance-single - ----------------
#NOTES:
     dance-single:
     :
     Hard:
     11:
     0.376383,0.475243,0.277920,0.144518,0.216777,237.000000,212.000000,25.000000,13.000000,0.000000,0.000000,0.376383,0.475243,0.277920,0.144518,0.216777,237.000000,212.000000,25.000000,13.000000,0.000000,0.000000:
0000
0000
0000
0000
,
0000
0000
0000
0000
,
0000
0000
0000
0000
,
0001
0000
1000
0000
0000
0000
0001
1000
0001
0000
1000
0000
0000
0000
0001
1000
,
0001
0000
1000
0000
0000
0000
0001
1000
0001
0000
0000
0000
0110
0000
0000
0000
,
1001
0000
0100
0000
0000
0000
1000
0100
0010
0000
0001
0000
0000
0000
0010
0001
,
0010
0000
0100
0000
0000
0000
0010
0100
0110
0000
0000
0000
1001
0000
0000
0000
,
1000
0000
0001
0000
0000
0000
1000
0001
1000
0000
0001
0000
0000
0000
1000
0001
,
1000
0000
0001
0000
0000
0000
1000
0001
1001
0000
0000
0000
0110
0000
0000
0000
,
1001
0000
0100
0000
0000
0000
0001
0100
0010
0000
1000
0000
0000
0000
0010
1000
,
0010
0000
0100
0000
0000
0000
0010
0100
0110
0000
0000
0000
1001
0000
0000
0000
,
0100
0000
1000
0000
0000
0000
1000
0100
1000
0000
0001
0000
0000
0000
0001
1000
,
0001
0000
0100
0000
0000
0000
0100
0010
0110
0000
0000
0000
1001
0000
0000
0000
,
0100
0000
0010
0000
0000
0000
0010
0100
0010
0000
0001
0000
0000
0000
0001
0100
,
0001
0000
0100
0000
0000
0000
0100
0010
0110
0000
0000
0000
1001
0000
0000
0000
,
1000
0000
0001
0000
,
0010
1000
0100
0001
0010
0000
0110
0000
,
0001
0000
1000
0001
0000
0000
0000
0000
0000
0000
0000
0000
0001
0000
0000
0000
,
0010
0000
0000
1000
0000
0000
0100
0000
0000
0000
0000
0000
0001
0000
1000
0000
,
0100
0000
1000
0001
0000
0000
0000
0000
0000
0000
0000
0000
0010
0000
0000
0000
,
0001
0000
0000
0001
0000
0000
0001
0000
0000
0000
0000
0000
1000
0000
0010
0000
,
0100
0000
0001
1000
0000
0000
0000
0000
0000
0000
0000
0000
0100
0000
0000
0000
,
0001
0000
0000
1000
0000
0000
0001
0000
0000
0000
0000
0000
0000
0000
0000
0000
,
2000
0000
0002
3003
,
0010
0000
0000
1000
0000
0000
0100
0000
0010
0000
0000
0010
0000
0000
0000
0000
,
0010
0000
0000
0010
0000
0000
0000
0000
0011
0000
0000
0000
1100
0000
0000
0000
,
1001
0000
0100
0000
1000
1000
0101
0000
,
0001
0000
0100
0000
0010
0010
1001
0000
,
1000
0000
0100
0000
0001
0001
1100
0000
,
0001
0000
0100
0000
1000
1000
1100
0000
,
0001
0000
0000
0000
0100
0000
0000
0000
0001
0100
0001
0000
2000
0000
0000
0000
,
0010
0000
0000
0000
3100
0000
0000
0000
1000
0100
1000
0000
0020
0000
0000
0000
,
0001
0000
0000
0000
0130
0000
0000
0000
1000
0001
1000
0000
0200
0000
0000
0000
,
0010
0000
0000
0000
1300
0000
0000
0000
0001
0100
0001
0000
1000
0000
0000
0000
,
0002
0000
2000
3003
,
0010
0000
0000
1000
0000
0000
0001
0000
0100
0000
0000
0010
0000
0000
0000
0000
,
1001
0000
0100
0000
0010
1000
0100
0000
,
0001
0000
0000
0001
0000
0000
0001
0000
0000
0000
0000
0000
1000
0000
0000
0000
,
0020
0000
0200
0330
,
0001
0000
0000
0001
0000
0000
1000
0000
0010
0000
0000
0100
0000
0000
0000
0000
,
1001
0000
0100
0000
0010
1000
0100
0000
,
1000
0000
0000
0001
0000
0000
0100
0000
0000
0000
0000
0000
0100
0000
0000
0000
,
0002
0000
2000
3003
,
0010
0000
0000
0010
0000
0000
0010
0000
0100
0000
0000
2002
0000
0000
0000
0000
,
0000
0000
0000
3003
,
0110
0000
0000
0000
;

//---------------dance-double - ----------------
#NOTES:
     dance-double:
     :
     Easy:
     2:
     0.144518,0.175089,0.011117,0.011117,0.000000,91.000000,90.000000,1.000000,1.000000,0.000000,0.000000,0.144518,0.175089,0.011117,0.011117,0.000000,91.000000,90.000000,1.000000,1.000000,0.000000,0.000000:
00000000
00000000
00000000
00000000
,
00000000
00000000
00000000
00000000
,
00000000
00000000
00000000
00000000
,
00000000
00000000
00000000
00000000
,
00000000
00000000
00000001
00000100
,
00001000
00000000
00010000
00000000
,
01000000
00000000
10000000
00010000
,
01000000
00000000
00001000
00000000
,
00010000
00000000
00000010
00000010
,
00001000
00000000
00000100
00000000
,
00000010
00000000
00000001
00000100
,
00001000
00000000
00010000
00000000
,
00100000
00000000
10000000
00010000
,
01000000
00000000
00001000
00000000
,
00010000
00000000
00000010
00000100
,
00000001
00000000
00000100
00000000
,
00001000
00010000
01000000
01000000
,
10000000
00000000
00000000
00010000
,
01000000
00000000
00000000
00001000
,
00010000
00000000
00000000
00000010
,
00001000
00000000
00000000
00000001
,
00000010
00000000
00000000
00000100
,
00001000
00000000
00000000
00000000
,
00000001
00000000
00000100
00000000
,
00001000
00010000
01000000
00000000
,
00000000
00000000
10000000
10000000
,
00100000
00000000
00000000
01000000
,
00001000
00000000
00000000
00010000
,
00000100
00000000
00000000
00000010
,
00000001
00000000
00000000
00000100
,
00001000
00000000
00000000
00010000
,
00100000
00000000
00000000
10000000
,
00010000
00000000
00000000
01000000
,
00001000
00000000
00000000
00010000
,
00000010
00000000
00000100
00000000
,
00000001
00001000
00000100
00000000
,
00000100
00000000
00000000
00010000
,
01000000
00000000
00000000
10000000
,
00100000
00000000
01000000
00000000
,
00001000
00010000
00000010
00000000
,
00000010
00000000
00000000
00001000
,
00000100
00000000
00000000
00000000
,
00000010
00000000
00000010
00000000
,
00000001
00000000
00000200
00000000
,
00000300
00000000
00000000
00001000
,
00011000
00000000
00000000
00000000
,
00000000
00000000
00000000
00000000
;

//---------------dance-double - ----------------
#NOTES:
     dance-double:
     :
     Medium:
     5:
     0.287448,0.325166,0.155635,0.133402,0.000000,181.000000,167.000000,14.000000,12.000000,0.000000,0.000000,0.287448,0.325166,0.155635,0.133402,0.000000,181.000000,167.000000,14.000000,12.000000,0.000000,0.000000:
00000000
00000000
00000000
00000000
,
00000000
00000000
00000000
00000000
,
00000000
00000000
00000000
00000000
,
00000010
00000001
00000100
00001000
,
00010000
01000000
10000000
01100000
,
10000000
01000000
00010000
01000000
,
10000000
01000000
00010000
00001000
,
00000100
00000100
00000001
00000001
,
00000010
00000100
00000010
00001001
,
00000100
00010000
00001000
01000000
,
00010000
10000000
00010000
00010000
,
01000000
00001000
00010000
00000100
,
00001000
00000001
00000110
00000101
,
00000010
00000010
00000100
00000100
,
00001000
00010000
01000000
01000000
,
10000000
10000000
01000000
01000000
,
00010000
00001000
01001000
00000000
,
00100000
00000000
10000000
00000000
01000000
10000000
01000000
00000000
,
00010000
00001000
00000100
00000001
,
00001000
00000000
00000001
00000000
00001000
00000100
00001000
00000000
,
00000001
00000100
00001000
00010000
,
01000000
00000000
10000000
00000000
00010000
10000000
01000000
00000000
,
00010000
00001000
00000100
00000001
,
00000002
00000003
00000002
00000003
,
00000001
00000100
00001000
00010000
,
01000000
01000000
01000000
10010000
,
00100000
00000000
00100000
00000000
00100000
10000000
01000000
00000000
,
00010000
00000000
00001000
00000000
00000010
00001000
00000100
00000000
,
00000010
00000000
00000010
00000000
00000010
00000001
00000100
00000000
,
00001000
00000000
00010000
00000000
00100000
00010000
01000000
00000000
,
10000000
00000000
01000000
00000000
00100000
00010000
01000000
00000000
,
00001000
00000000
00000100
00000000
00000010
00000001
00000100
00000000
,
00001001
00000000
00000100
00000000
00000010
00000001
00000100
00000000
,
00010100
00000000
00001000
00000000
00000010
00010000
00001000
00000000
,
00200000
00300000
00002000
00003000
,
01000000
01000000
00100000
10000000
,
10010000
00000000
01000000
00010000
,
00001000
00000000
00001000
00000000
00001000
00000100
00000001
00000000
,
00002002
00003003
00000200
00000300
,
00001000
00010000
01000000
01000000
,
10010000
00000000
00000000
00000000
00010000
10000000
01000000
00000000
,
00010000
00001000
00000100
00000001
,
00002002
00003003
00000220
00000330
,
00001000
00010000
00100000
00020000
,
00000000
00000000
00000000
00030000
,
01001000
00000000
00000000
00000000
,
00000000
00000000
00000000
00000000
;

//---------------dance-double - ----------------
#NOTES:
     dance-double:
     :
     Hard:
     8:
     0.490727,0.625320,0.366854,0.077818,0.261245,309.000000,276.000000,33.000000,7.000000,0.000000,0.000000,0.490727,0.625320,0.366854,0.077818,0.261245,309.000000,276.000000,33.000000,7.000000,0.000000,0.000000:
00000000
00000000
00000000
00000000
,
00000000
00000000
00000000
00000000
,
00000000
00000000
00000000
00000000
,
00010000
00000000
10000000
00000000
00010000
10000000
01000000
00000000
10000000
00000000
01000000
00000000
00100000
01000000
00100000
00000000
,
01000000
00000000
00010000
00000000
00001000
00010000
00001000
00000000
00011000
00000000
00000000
00000000
00010100
00000000
00000000
00000000
,
00000010
00000000
00000010
00000000
00000001
00000010
00000001
00000000
00001000
00000000
00001000
00000000
00000100
00001000
00000100
00000000
,
00010000
00000000
00010000
00000000
00001000
00010000
00001000
00000000
00011000
00000000
00000000
00000000
01001000
00000000
00000000
00000000
,
00100000
00000000
00100000
00000000
10000000
01000000
10000000
00000000
00100000
00000000
00100000
00000000
00001000
00010000
00001000
00000000
,
00000100
00000000
00000100
00000000
00000001
00000100
00000001
00000000
00001001
00000000
00000000
00000000
00001100
00000000
00000000
00000000
,
00000010
00000000
00000010
00000000
00000001
00001000
00000001
00000000
00000100
00000000
00000100
00000000
00001000
00010000
00001000
00000000
,
00010000
00000000
00010000
00000000
01000000
00100000
01000000
00000000
10010000
00000000
00000000
00000000
11000000
00000000
00000000
00000000
,
00100000
00000000
00100000
00000000
00010000
10000000
01000000
00000000
00100000
00000000
00100000
00000000
00010000
10000000
01000000
00000000
,
00100000
00000000
00100000
00000000
00010000
10000000
01000000
00000000
01010000
00000000
00000000
00000000
00011000
00000000
00000000
00000000
,
00000010
00000000
00000010
00000000
00001000
00000001
00000100
00000000
00000010
00000000
00000010
00000000
00001000
00000001
00000100
00000000
,
00000010
00000000
00000010
00000000
00001000
00000001
00000100
00000000
00001100
00000000
00000000
00000000
00010100
00000000
00000000
00000000
,
00001000
00000000
00001000
00000000
00010000
00001000
01000000
00000000
00001000
00000000
00001000
00000000
00010000
00001000
01000000
00000000
,
00001000
00010000
00001000
00010000
00001000
00010000
00001000
00010000
00001000
00010000
00001000
00010000
00001000
00000000
00000000
00000000
,
00001000
00000000
00000000
00000000
00000010
00000000
00000000
00000001
00000010
00000000
00000001
00000000
00000100
00000000
00000000
00000000
,
00000001
00000000
00000000
00000000
00000001
00000000
00000000
00000100
00000010
00000000
00001000
00000000
00000000
00000000
00000000
00000000
,
00010000
00000000
00000000
00000000
00001000
00000000
00000000
00010000
01000000
00000000
10000000
00000000
00010000
00000000
00000000
00000000
,
10000000
00000000
00000000
00000000
01000000
00000000
00000000
00100000
00001000
00000000
00010000
00000000
00000000
00000000
00000000
00000000
,
00001000
00000000
00000000
00000000
00000100
00000000
00000000
00000001
00000010
00000000
00000001
00000000
00000100
00000000
00000000
00000000
,
00001000
00000000
00000000
00000000
00010000
00000000
00000000
01000000
10000000
00000000
00010000
00000000
00000000
00000000
00000000
00000000
,
02000000
03000000
00020000
00030000
,
00001000
00000000
00000000
00000100
00000000
00000000
00000001
00000000
00000010
00000000
00000000
00000110
00000000
00000000
00000000
00000000
,
00000001
00000000
00000000
00000101
00000000
00000000
00000000
00000000
00001001
00000000
00000000
00000000
00001001
00000000
00000000
00000000
,
00010000
00000000
00000000
00000000
00001000
00000000
00000000
00010000
01000000
00000000
00010000
00000000
00001000
00000000
00000000
00000000
,
00001000
00000000
00000000
00000000
00010000
00000000
00000000
00001000
00000100
00000000
00001000
00000000
00000000
00000000
00000000
00000000
,
00010000
00000000
00000000
00000000
01000000
00000000
00000000
10000000
00100000
00000000
01000000
00000000
00010000
00000000
00000000
00000000
,
00001000
00000000
00000000
00000000
00010000
00000000
00000000
00001000
00000100
00000000
00000001
00000000
00000000
00000000
00000000
00000000
,
00000101
00000000
00000000
00000000
00000101
00000000
00000000
00000010
00001000
00000000
00000001
00000000
00000100
00000000
00000000
00000000
,
00001001
00000000
00000000
00000000
00000101
00000000
00000000
00000010
00001000
00000000
00000100
00000000
00000000
00000000
00000000
00000000
,
00010100
00000000
00000000
00000000
00011000
00000000
00000000
00001000
00010000
00000000
01000000
00000000
10000000
00000000
00000000
00000000
,
10010000
00000000
00000000
00000000
11000000
00000000
00000000
00100000
00001000
00000000
00010000
00000000
00000000
00000000
00000000
00000000
,
00100000
10000000
01000000
00010000
00001000
00000100
00000001
00000010
,
00000001
00000100
00001000
00010000
01000000
10000000
00010000
00010000
,
00010000
10000000
01000000
00100000
00010000
01000000
00001000
00010000
,
00011000
00000000
00000000
00010100
00000000
00000000
00011000
00000000
00000000
00000000
00000000
00000000
00000000
00000000
00000000
00000000
,
00000010
00000001
00000100
00001000
00010000
01000000
10000000
00100000
,
10000000
01000000
00010000
00001000
00000100
00000001
00001000
00001000
,
00001000
00000001
00000100
00000010
00001000
00000100
00010000
00001000
,
00011000
00000000
00000000
01001000
00000000
00000000
00011000
00000000
00000000
00000000
00000000
00000000
00000000
00000000
00000000
00000000
,
00022000
00033000
00020200
00030300
,
00000010
00000000
00000000
00000001
00000000
00000000
00000100
00000000
00001000
00000000
00000000
00020000
00000000
00000000
00000000
00000000
,
00000000
00000000
00030000
00001000
,
01100000
00000000
00000000
00000000
,
00000000
00000000
00000000
00000000
;

//---------------dance-single - ----------------
#NOTES:
     dance-single:
     :
     Challenge:
     15:
     0.600307,0.576892,0.144518,0.300153,0.528048,378.000000,365.000000,13.000000,27.000000,0.000000,0.000000,0.600307,0.576892,0.144518,0.300153,0.528048,378.000000,365.000000,13.000000,27.000000,0.000000,0.000000:
// measure 0
0000
0000
0000
0000
,  // measure 1
0000
0000
0000
0000
,  // measure 2
0000
0000
0000
0000
,  // measure 3
0001
0000
1000
0000
0001
1000
0100
1000
0001
0000
1000
0000
0001
1000
0100
1000
,  // measure 4
0001
0000
1000
0000
0001
1000
0100
1000
0001
0000
0000
0000
2002
0000
3003
0000
,  // measure 5
1000
0000
0001
0000
0010
0001
0100
0010
1000
0000
0001
0000
0010
0001
0100
0010
,  // measure 6
1000
0000
0001
0000
0010
0001
0100
0010
1000
0000
0000
1000
0001
0000
0000
0000
,  // measure 7
0001
0000
1000
0000
0010
1000
0100
1000
0001
0000
1000
0000
0010
1000
0100
1000
,  // measure 8
0001
0000
1000
0000
0001
1000
0100
1000
0010
0000
0000
0100
0001
0000
0000
0000
,  // measure 9
1000
0000
0001
0000
0100
0010
1000
0001
0100
0000
0001
0000
0100
0010
1000
0001
,  // measure 10
0100
0000
0001
0000
0100
0010
1000
0001
0100
0000
0000
0010
0100
0000
0000
0000
,  // measure 11
0010
0000
1000
0000
0001
1000
0100
1000
0010
0000
1000
0000
0001
1000
0100
1000
,  // measure 12
0010
0000
1000
0000
0001
1000
0100
1000
0010
0000
0000
0100
0001
0000
0000
0000
,  // measure 13
0001
0000
0010
0000
0001
0010
0100
1000
0001
0000
0010
0000
0001
0010
0100
1000
,  // measure 14
0001
0000
0010
0000
0001
0010
0100
1000
0001
0000
0000
1000
0001
0000
0000
0000
,  // measure 15
2002
3003
2200
3300
,  // measure 16
1000
0000
0010
0000
0100
0000
0001
0000
1000
0000
0000
1000
0001
0000
0000
0000
,  // measure 17
0001
0010
0000
0001
0010
0000
0001
0000
0100
0000
0010
0000
1000
0010
0100
0000
,  // measure 18
0001
0000
0010
0001
0000
0010
0001
0000
0010
0000
0100
0000
1000
0100
1000
0100
,  // measure 19
1000
0100
0000
1000
0100
0000
1000
0000
0001
0000
0100
0000
0010
0100
0001
0000
,  // measure 20
0010
0000
0001
0010
0000
0100
0010
0000
0001
0000
1000
0000
0010
1000
0100
0000
,  // measure 21
1000
0100
0000
1000
0100
0000
0010
0000
0001
0000
1000
0000
0001
0010
0100
0000
,  // measure 22
1000
0000
0100
1000
0000
0010
0100
0000
0001
0000
1000
0000
0010
0100
0010
0000
,  // measure 23
0220
0000
0330
0200
0002
0000
0303
0000
,  // measure 24
1010
0000
0000
0101
0000
0000
0001
0010
0100
0000
1000
0200
0000
0000
0300
0000
,  // measure 25
0100
0000
1000
0200
0000
0000
0000
0300
0020
0000
0000
0000
0032
0000
0000
0000
,  // measure 26
0103
0000
0001
0000
1000
0000
0100
0000
0010
0000
0001
0000
1000
0100
0010
0000
,  // measure 27
0100
0000
1000
0000
1000
0000
0010
0000
0100
0000
0001
0000
0010
0001
0100
0000
,  // measure 28
0001
0000
0100
0000
0010
0000
1000
0000
0001
0000
1000
0000
0100
0010
0001
0000
,  // measure 29
1000
0000
0001
0000
0010
0000
0100
0000
1000
0000
0001
0000
0100
1000
0100
0000
,  // measure 30
0010
0000
0100
0000
0100
0000
0010
0000
1000
0000
0001
0000
0010
0100
1000
0000
,  // measure 31
0001
0000
1000
0000
0100
0000
0010
0000
0001
0000
1000
0000
0001
0100
0010
0000
,  // measure 32
0010
0000
0100
0000
0001
0000
1000
0000
0100
0000
0010
0000
0100
1000
0100
0000
,  // measure 33
1000
0000
0001
0000
0100
0000
0010
0000
1000
0000
0001
0000
0010
0100
1000
0000
,  // measure 34
2200
0000
3300
2000
0002
0000
3003
0000
,  // measure 35
0011
0000
0000
0101
0000
0000
0001
1000
0100
0000
1000
0020
0000
0130
0001
0000
,  // measure 36
1000
0000
0010
0000
1000
0000
0100
0000
0010
0000
0001
0000
0010
0100
1000
0000
,  // measure 37
0001
0000
1000
0100
0000
0001
0100
0000
0010
0000
1000
0000
0001
0010
0001
0000
,  // measure 38
0010
0001
0000
0010
0001
0000
0100
0000
0010
0000
1000
0000
0100
0000
1000
0000
,  // measure 39
0001
0000
0100
0010
0000
0100
0010
1000
0001
0000
1000
0001
0000
1000
0100
0010
,  // measure 40
0001
0000
0010
0000
0001
0000
0100
0000
0010
0000
1000
0000
0001
1000
0100
0000
,  // measure 41
0100
0000
1000
0100
0000
0100
1000
0000
0100
0000
1000
0000
0001
0000
0010
0000
,  // measure 42
0220
0000
0330
0020
0002
0000
0033
0000
,  // measure 43
0101
0000
0000
1010
0000
0000
1000
0010
0100
0000
0001
0020
0000
0000
0000
0000
,  // measure 44
0200
0000
0030
1300
,  // measure 45
2002
3003
0000
0000
0000
0000
0000
0000
;
