#VERSION:0.83;
#TITLE:ME AGAINST THE MUSIC;
#SUBTITLE:;
#ARTIST:HELEN;
#TITLETRANSLIT:;
#SUBTITLETRANSLIT:;
#ARTISTTRANSLIT:;
#GENRE:;
#ORIGIN:;
#CREDIT:;
#BANNER:ME AGAINST THE MUSIC.png;
#BACKGROUND:ME AGAINST THE MUSIC-bg.png;
#PREVIEWVID:;
#JACKET:ME AGAINST THE MUSIC-jacket.png;
#CDIMAGE:;
#DISCIMAGE:;
#LYRICSPATH:;
#CDTITLE:;
#MUSIC:ME AGAINST THE MUSIC.ogg;
#OFFSET:0.000000;
#SAMPLESTART:42.459999;
#SAMPLELENGTH:15.000000;
#SELECTABLE:YES;
#DISPLAYBPM:130.000000;
#BPMS:0.000=130.435,
4.000=130.007;
#STOPS:;
#DELAYS:;
#WARPS:;
#TIMESIGNATURES:0.000=4=4;
#TICKCOUNTS:0.000=4;
#COMBOS:0.000=1;
#SPEEDS:0.000=1.000=0.000=0;
#SCROLLS:0.000=1.000;
#FAKES:;
#LABELS:0.000=Song Start;
#BGCHANGES:;
#KEYSOUNDS:;
#ATTACKS:
;

//---------------dance-single - ----------------
#NOTEDATA:;
#CHARTNAME:;
#STEPSTYPE:dance-single;
#DESCRIPTION:;
#CHARTSTYLE:;
#DIFFICULTY:Beginner;
#METER:2;
#RADARVALUES:0.115363,0.155845,0.039392,0.019696,0.000000,82.000000,78.000000,4.000000,2.000000,0.000000,0.000000,0.000000,0.000000,0.000000,0.115363,0.155845,0.039392,0.019696,0.000000,82.000000,78.000000,4.000000,2.000000,0.000000,0.000000,0.000000,0.000000,0.000000;
#CREDIT:;
#DISPLAYBPM:130.000000;
#NOTES:
0000
0000
0000
0000
,
0000
0000
0000
0000
,
1001
0000
0000
0000
,
0100
0000
0000
0000
,
0001
0000
0000
0000
,
1000
0000
0000
0000
,
0001
0000
0000
0000
,
0100
0000
0100
0000
,
0100
0000
0000
0000
,
0010
0000
0010
0000
,
0010
0000
0000
0000
,
1000
0000
1000
0000
,
1000
0000
0000
0000
,
0001
0000
0001
0000
,
0001
0000
0000
0000
,
1000
0000
0001
0000
,
1000
0000
0001
0000
,
1000
0000
0000
0000
,
1001
0000
0000
0000
,
1000
0000
0001
0000
,
1000
0000
0001
0000
,
1000
0000
0000
0000
,
1001
0000
0000
0000
,
0100
0100
0100
0000
,
0100
0000
0000
0000
,
1000
1000
1000
0000
,
1000
0000
0000
0000
,
0010
0010
0010
0000
,
0010
0000
0000
0000
,
0001
0001
0001
0000
,
0001
0000
0000
0000
,
0010
0000
0010
0000
,
0100
0000
0100
0000
,
0010
0000
0000
0000
,
0100
0000
0000
0000
,
1000
0000
1000
0000
,
0001
0000
0001
0000
,
1000
0000
0000
0000
,
0010
0000
0000
0000
,
0100
0000
0000
0100
,
0100
0000
0000
0000
,
0001
0000
0000
0001
,
0001
0000
0000
0000
,
1000
0000
0000
1000
,
1000
0000
0000
0000
,
0010
0000
0000
0000
,
0100
0100
0100
0000
,
1000
0000
0000
0000
,
0001
0000
1000
0000
,
0001
0000
0000
0000
,
0001
0000
1000
0000
,
0001
0000
0000
0000
,
2002
0000
0000
3003
,
0000
0000
0000
0000
;

//---------------dance-single - ----------------
#NOTEDATA:;
#CHARTNAME:;
#STEPSTYPE:dance-single;
#DESCRIPTION:;
#CHARTSTYLE:;
#DIFFICULTY:Easy;
#METER:4;
#RADARVALUES:0.227912,0.258511,0.118177,0.108328,0.000000,162.000000,150.000000,12.000000,11.000000,0.000000,0.000000,0.000000,0.000000,0.000000,0.227912,0.258511,0.118177,0.108328,0.000000,162.000000,150.000000,12.000000,11.000000,0.000000,0.000000,0.000000,0.000000,0.000000;
#CREDIT:;
#DISPLAYBPM:130.000000;
#NOTES:
0000
0000
0000
0000
,
0000
0000
0000
0000
,
0002
0003
0200
0300
,
0001
0001
1000
1000
,
0001
0010
0100
1000
,
0001
0001
1000
1000
,
0001
0010
0100
1000
,
1001
0000
0100
0000
,
0010
0010
0100
0000
,
1001
0000
0010
0000
,
0100
0100
0010
0000
,
0110
0000
0001
0000
,
1000
1000
0001
0000
,
0110
0000
1000
0000
,
0001
0001
1000
0000
,
0100
0010
0100
0010
,
0001
1000
0001
1000
,
1001
0000
0000
0010
,
0110
0000
0000
0000
,
0100
0010
0100
0010
,
0001
1000
0001
1000
,
1001
0000
0000
0100
,
0110
0000
0000
0000
,
1000
0100
0001
0100
,
1000
0100
0010
0000
,
0001
0100
1000
0100
,
0001
0100
0010
0000
,
1000
0100
0001
0100
,
1000
0100
0010
0000
,
0001
0100
1000
0100
,
0001
0100
0010
0000
,
1000
1000
0001
0001
,
1000
0100
0010
0001
,
1001
0000
0000
0010
,
0110
0000
0000
0000
,
0001
0001
1000
1000
,
0001
0010
0100
1000
,
1001
0000
0000
0010
,
0110
0000
0000
0000
,
0002
0003
0200
0300
,
0001
0001
0100
0000
,
2000
3000
0200
0300
,
1000
1000
0100
0000
,
0002
0003
0020
0030
,
0001
0001
0010
0000
,
2000
3000
0020
0030
,
1000
0010
0010
0020
,
0000
0030
0100
0001
,
1000
0100
0010
0000
,
0001
0100
1000
0100
,
0001
0100
0010
0000
,
1000
0100
0001
0100
,
1000
0100
0010
0000
,
0000
0000
0000
0000
;

//---------------dance-single - ----------------
#NOTEDATA:;
#CHARTNAME:;
#STEPSTYPE:dance-single;
#DESCRIPTION:;
#CHARTSTYLE:;
#DIFFICULTY:Medium;
#METER:8;
#RADARVALUES:0.334834,0.363639,0.226505,0.039392,0.000000,238.000000,215.000000,23.000000,4.000000,0.000000,0.000000,0.000000,0.000000,0.000000,0.334834,0.363639,0.226505,0.039392,0.000000,238.000000,215.000000,23.000000,4.000000,0.000000,0.000000,0.000000,0.000000,0.000000;
#CREDIT:;
#DISPLAYBPM:130.000000;
#NOTES:
0000
0000
0000
0000
,
0000
0000
0000
0000
,
0010
0000
0100
0000
0001
1000
0001
1000
,
0001
0000
1000
0100
0000
0100
0000
0010
,
0100
0000
0100
0010
0000
1001
0000
0000
,
1000
0000
0001
0100
0000
0100
0000
0010
,
0100
0000
0100
0010
0000
1001
0000
0000
,
0100
0001
0100
1000
,
0010
0100
0010
0000
1000
0000
0001
0000
,
0100
1000
0100
0001
,
1000
0001
1000
0000
0001
0000
0100
0000
,
0010
1000
0010
0001
,
0010
0100
0010
0000
1000
0000
0100
0000
,
0001
0100
1000
0100
,
0001
1000
0001
0000
0100
0000
0010
0000
,
1000
0100
1000
0000
0001
0100
0001
0000
,
0010
0100
0010
0000
0100
0000
1100
0000
,
0101
0000
0000
1100
,
0101
0000
0000
0000
,
0001
0010
0001
0000
1000
0010
1000
0000
,
0100
0010
0100
0000
0010
0000
0011
0000
,
1100
0000
0000
0011
,
1100
0000
0000
0000
,
0010
1000
0100
0000
0010
0000
0100
0000
,
0001
0100
1000
0000
0110
0000
0000
0000
,
0001
0100
0010
0000
1000
0000
0100
0000
,
1000
0010
0100
0000
1001
0000
0000
0000
,
0010
0001
0100
0000
0010
0000
0100
0000
,
1000
0100
0001
0000
0110
0000
0000
0000
,
1000
0010
0100
0000
0001
0000
0010
0000
,
0001
0100
0010
0000
1001
0000
0000
0000
,
0002
0010
0100
0103
,
1000
0000
0100
0000
0010
0100
0010
0100
,
0000
0000
0000
0000
,
1100
0100
1010
0010
,
2000
0100
0010
3010
,
0001
0000
0010
0000
0100
0010
0100
0010
,
0000
0000
0000
0000
,
1001
0100
1001
0010
,
0100
0000
0001
0100
0000
0100
0001
0000
,
1000
0000
1000
0010
0000
0010
1000
0000
,
0001
0000
0100
0010
0000
0010
0100
0000
,
0010
0000
1000
0001
0000
0001
1000
0000
,
0010
0000
0100
0001
0000
0001
0100
0000
,
0010
0000
1000
0100
0000
0100
1000
0000
,
0001
0000
0100
0010
0000
0010
0100
0000
,
1001
0101
1001
0101
,
0002
0010
0100
0103
,
1000
0100
0010
0100
,
2000
0100
0010
3010
,
0001
0010
0100
0010
,
1000
0010
0100
0001
,
1000
0001
0100
1001
,
0000
0000
0000
0000
;

//---------------dance-single - ----------------
#NOTEDATA:;
#CHARTNAME:;
#STEPSTYPE:dance-single;
#DESCRIPTION:;
#CHARTSTYLE:;
#DIFFICULTY:Hard;
#METER:10;
#RADARVALUES:0.467079,0.493510,0.334834,0.098480,0.059088,332.000000,298.000000,34.000000,10.000000,0.000000,0.000000,0.000000,0.000000,0.000000,0.467079,0.493510,0.334834,0.098480,0.059088,332.000000,298.000000,34.000000,10.000000,0.000000,0.000000,0.000000,0.000000,0.000000;
#CREDIT:;
#DISPLAYBPM:130.000000;
#NOTES:
0000
0000
0000
0000
,
0000
0000
0000
0000
,
0010
0000
1000
0000
0100
0000
0010
0000
0001
1000
0100
0000
1000
0000
0010
0000
,
0200
0000
0000
0010
0000
0000
0310
0000
0000
0000
0001
0000
0100
0000
0010
0000
,
1000
0000
0000
0110
0000
0000
0001
0000
0000
0000
0110
0000
0000
0000
0000
0000
,
0200
0000
0000
0001
0000
0000
0301
0000
0000
0000
0010
0000
0100
0000
0001
0000
,
1000
0000
0000
0101
0000
0000
1000
0000
0000
0000
0101
0000
0000
0000
0000
0000
,
0000
1000
0100
0000
0000
1001
0000
0010
,
0001
0010
0100
1000
0010
0100
0001
0100
,
0000
0001
0010
0000
0000
0110
0000
0100
,
1000
0100
0010
0001
0100
0010
1000
0010
,
0000
0010
0100
0000
0000
0101
0000
0100
,
0010
0001
0010
0100
1000
0100
0001
0100
,
0000
0100
0010
0000
0000
1010
0000
1000
,
0100
0010
0100
1000
0001
0100
0001
0000
,
0100
0010
1000
0001
0100
0010
1000
0001
,
0100
1000
0100
0001
0010
0100
1000
0010
,
0100
0000
0000
0000
0000
0101
0100
0010
,
0100
0000
0000
0000
,
0010
0100
0001
1000
0010
0100
0001
1000
,
0010
0001
0010
1000
0100
0010
0001
0100
,
0010
0000
0000
0000
0000
1010
0010
1000
,
0010
0110
0101
1100
,
0010
0001
0100
0010
1000
0100
0001
0000
,
0100
1000
0010
0100
0001
0000
0000
0000
,
0100
0001
0010
0100
1000
0010
0100
0000
,
0001
0010
0001
0100
0010
0000
0000
0000
,
0001
0010
0100
0001
0010
0100
0001
0000
,
0100
1000
0010
0100
1000
0000
0000
0000
,
1000
0100
0010
1000
0100
0010
1000
0000
,
0010
0001
0100
0010
0001
0000
0000
0000
,
0001
1000
0010
0001
0010
1000
0010
0100
,
0010
0001
0010
0100
0010
1000
0010
0001
,
0010
0000
2010
0000
0000
0001
3001
0000
,
0100
0000
0102
0000
0000
1000
1003
0000
,
0001
1000
0100
0001
0100
1000
0100
0010
,
0100
1000
0100
0010
0100
0001
0100
1000
,
0100
0000
0102
0000
0000
1000
1003
0000
,
0010
0000
2010
0000
0000
0001
3001
0000
,
0110
0000
0000
0101
0000
0000
0010
0000
1000
0000
0100
0000
0010
0000
0000
0000
,
1001
0000
0000
1100
0000
0000
0001
0000
0100
0000
1000
0000
0100
0000
0000
0000
,
0110
0000
0000
1100
0000
0000
0010
0000
0100
0000
0001
0000
0100
0000
1000
0000
,
1001
0000
0000
0101
0000
0000
0010
0000
1000
0000
0010
0000
0100
0000
0000
0000
,
0101
0000
0000
0110
0000
0000
0010
0000
0100
0000
1000
0000
0010
0000
0000
0000
,
1100
0000
0000
1001
0000
0000
0100
0000
1000
0000
0100
0000
0001
0000
0000
0000
,
1100
0000
0000
0110
0000
0000
0001
0000
1000
0000
0100
0000
0001
0000
0100
0000
,
0020
0032
0203
0320
,
0000
0000
0000
0000
1030
0010
0100
0000
,
0001
0010
0100
1000
0100
0000
1001
0000
,
0100
0010
0001
0100
0010
0001
0010
0000
,
1000
0100
0001
0100
1000
0000
0101
0000
,
0100
1000
0100
0010
0100
0001
0100
0000
,
0010
1000
0100
1001
,
0000
0000
0000
0000
;

//---------------dance-double - ----------------
#NOTEDATA:;
#CHARTNAME:;
#STEPSTYPE:dance-double;
#DESCRIPTION:;
#CHARTSTYLE:;
#DIFFICULTY:Easy;
#METER:5;
#RADARVALUES:0.216657,0.258511,0.039392,0.206809,0.000000,154.000000,150.000000,4.000000,21.000000,0.000000,0.000000,0.000000,0.000000,0.000000,0.216657,0.258511,0.039392,0.206809,0.000000,154.000000,150.000000,4.000000,21.000000,0.000000,0.000000,0.000000,0.000000,0.000000;
#CREDIT:;
#DISPLAYBPM:130.000000;
#NOTES:
00000000
00000000
00000000
00000000
,
00000000
00000000
00000000
00000000
,
00000200
00000000
00000000
00000300
,
00000001
00000010
00000100
00000000
,
00000001
00000100
00001000
00000000
,
00000100
00001000
00010000
00000000
,
00001000
00010000
01000000
00000000
,
10000000
00100000
01000000
01000000
,
00010000
00010000
00100000
00100000
,
00000000
10000000
01000000
01000000
,
00010000
00010000
00001000
00001000
,
00000000
00000100
00000001
00000001
,
00000100
00000100
00000010
00000010
,
00000000
00001000
00000001
00000001
,
00000100
00000100
00001000
00001000
,
00010000
01000000
00010000
01000000
,
10000000
01000000
10000000
00100000
,
02000000
00000000
03000000
00001000
,
00020000
00000000
00000000
00030000
,
00001000
00000100
00001000
00000100
,
00000001
00000100
00000001
00000010
,
00000200
00000000
00000300
00010000
,
00002000
00000000
00000000
00003000
,
00010000
01000000
20000000
30000000
,
00200000
00300000
02000000
03000000
,
00010000
00100000
02000000
03000000
,
20000000
30000000
02000000
03000000
,
00010000
00001000
00000200
00000300
,
00000002
00000003
00000020
00000030
,
00000001
00000100
00002000
00003000
,
00020000
00030000
00002000
00003000
,
00000100
00000010
00000100
00000010
,
00010000
00001000
00010000
00001000
,
00021000
00000000
00000000
00030000
,
02000000
00000000
00000000
03000000
,
00100000
01000000
00100000
01000000
,
00010000
00001000
00010000
00001000
,
00012000
00000000
00000000
00003000
,
00000200
00000000
00000000
00000300
,
00000001
00000010
00000001
00000000
,
00000100
00001000
00000100
00000000
,
00001000
00010000
00001000
00000000
,
00010000
00001000
00010000
00000000
,
01000000
10000000
01000000
00000000
,
10000000
00100000
10000000
00000000
,
01000000
00010000
01000000
00000000
,
10010000
01000000
01000000
00100000
,
10000000
01000000
00010000
00010000
,
00001000
00001000
00010000
00000000
,
00001000
00000100
00000001
00000001
,
00000010
00000010
00000100
00000000
,
00001000
00000001
00000100
00000100
,
00001000
00001000
00011000
00000000
,
00000000
00000000
00000000
00000000
;

//---------------dance-double - ----------------
#NOTEDATA:;
#CHARTNAME:;
#STEPSTYPE:dance-double;
#DESCRIPTION:;
#CHARTSTYLE:;
#DIFFICULTY:Medium;
#METER:8;
#RADARVALUES:0.353123,0.415587,0.334834,0.039392,0.000000,251.000000,217.000000,34.000000,4.000000,0.000000,0.000000,0.000000,0.000000,0.000000,0.353123,0.415587,0.334834,0.039392,0.000000,251.000000,217.000000,34.000000,4.000000,0.000000,0.000000,0.000000,0.000000,0.000000;
#CREDIT:;
#DISPLAYBPM:130.000000;
#NOTES:
00000000
00000000
00000000
00000000
,
00000000
00000000
00000000
00000000
,
00001000
00000001
00000100
00000001
,
00001001
00000000
00000010
00000100
00000000
00000100
00000000
00010000
,
00001000
00000000
00001000
00010000
00000000
00000000
01000000
00000000
,
10010000
00000000
01000000
00100000
00000000
00100000
00000000
00001000
,
00010000
00000000
00010000
00001000
00000000
00000000
00011000
00000000
,
00002000
00000100
00000100
00003100
,
00000001
00001000
00000001
00000000
00000010
00000000
00000100
00000000
,
00020000
00001000
00001000
00031000
,
01000000
00100000
01000000
00000000
00010000
00000000
10000000
00000000
,
02000000
00100000
00100000
03100000
,
00010000
10000000
00010000
00000000
01000000
00000000
00100000
00000000
,
00020000
00001000
00001000
00031000
,
00000100
00000010
00000100
00000000
00001000
00000000
00000001
00000000
,
00000110
00000000
00001001
00000000
00000010
00000001
00000010
00000000
,
00000100
00001000
00000100
00000000
00000010
00000001
00000010
00000000
,
00000100
00000000
00000000
00000000
00000000
00010000
00001000
00010000
,
01000000
00000000
00000000
00000000
,
01100000
00000000
10010000
00000000
00100000
10000000
00100000
00000000
,
01000000
00010000
01000000
00000000
00100000
10000000
00100000
00000000
,
01000000
00000000
00000000
00000000
00000000
00001000
00010000
00001000
,
00000100
00000000
00000000
00000000
,
00001000
00000000
00000001
00000000
00001000
00000100
00000010
00000000
,
00000100
00000010
00000001
00000000
00001001
00000000
00000000
00000000
,
00000010
00000000
00000001
00000000
00000100
00001000
00010000
00000000
,
00001000
00010000
01000000
00000000
01100000
00000000
00000000
00000000
,
00010000
00000000
10000000
00000000
00010000
00100000
01000000
00000000
,
00100000
01000000
10000000
00000000
10010000
00000000
00000000
00000000
,
00100000
00000000
10000000
00000000
01000000
00010000
00001000
00000000
,
00010000
00001000
00000100
00000000
00000110
00000000
00000000
00000000
,
00000010
00000001
00000100
00000000
00001000
00000000
00000100
00000000
,
00000001
00000000
00000100
00000000
00001000
00010000
00001000
00010000
,
00000000
00000000
00000000
01100000
,
10010000
00000000
00000000
00000000
,
00100000
10000000
01000000
00000000
00010000
00000000
01000000
00000000
,
10000000
00000000
01000000
00000000
00010000
00001000
00010000
00001000
,
00000000
00000000
00000000
00000110
,
00001001
00000000
00000000
00000000
,
00001010
00000000
00000101
00000000
00000001
00000100
00000001
00000000
,
00001100
00000000
00011000
00000000
00010000
01000000
00010000
00000000
,
01010000
00000000
11000000
00000000
00100000
01000000
00100000
00000000
,
01100000
00000000
10010000
00000000
10000000
00010000
10000000
00000000
,
00110000
00000000
11000000
00000000
10000000
01000000
10000000
00000000
,
01010000
00000000
00011000
00000000
00001000
00000100
00001000
00000000
,
00001100
00000000
00000101
00000000
00000010
00000100
00000010
00000000
,
00001001
00000010
00001001
00000100
,
00001000
00000000
00000001
00000000
00001000
00000100
00000010
00000000
,
00000100
00000010
00000001
00000000
00001001
00000000
00000000
00000000
,
00000010
00000000
00000001
00000000
00000100
00001000
00010000
00000000
,
00001000
00010000
01000000
00000000
01100000
00000000
00000000
00000000
,
10000000
00010000
10000000
00100000
,
01000000
00010000
00100000
10010000
,
00000000
00000000
00000000
00000000
;

//---------------dance-double - ----------------
#NOTEDATA:;
#CHARTNAME:;
#STEPSTYPE:dance-double;
#DESCRIPTION:;
#CHARTSTYLE:;
#DIFFICULTY:Hard;
#METER:11;
#RADARVALUES:0.482554,0.519484,0.246201,0.098480,0.201885,343.000000,318.000000,25.000000,10.000000,0.000000,0.000000,0.000000,0.000000,0.000000,0.482554,0.519484,0.246201,0.098480,0.201885,343.000000,318.000000,25.000000,10.000000,0.000000,0.000000,0.000000,0.000000,0.000000;
#CREDIT:;
#DISPLAYBPM:130.000000;
#NOTES:
00000000
00000000
00000000
00000000
,
00000000
00000000
00000000
00000000
,
00100000
10000000
00100000
10000000
01000000
00010000
00001000
00010000
,
00001000
00000000
00000000
00000100
00000000
00000000
00000001
00000000
00000000
00000000
00000100
00000000
00000000
00000000
00000010
00000000
,
00000100
00000000
00000000
00000101
00000000
00000000
00000110
00000000
00000000
00000000
00001010
00000000
00000000
00000000
00000000
00000000
,
00000100
00000000
00000000
00001000
00000000
00000000
00010000
00000000
00000000
00000000
00001000
00000000
00000000
00000000
01000000
00000000
,
00001000
00000000
00000000
00011000
00000000
00000000
01001000
00000000
00000000
00000000
01010000
00000000
00000000
00000000
00000000
00000000
,
00100000
10000000
00020000
00000000
00000000
01030000
00000000
00001000
,
00010000
00100000
10000000
01000000
00100000
01000000
10000000
01000000
,
00000000
00100000
00002000
00000000
00000000
00013000
00000000
00001000
,
00000100
00000010
00001000
00000100
00000001
00000100
00001000
00000100
,
00000000
00000010
00000002
00000000
00000000
00000103
00000000
00001000
,
00010000
00000000
01000000
00000000
00010000
00000000
00001000
00000000
00010000
00001000
00010000
00000000
01000000
00000000
10000000
00000000
,
00000000
01000000
00100000
00000000
00100000
00010000
00000000
01000000
,
00100000
01000000
10000000
01000000
00100000
00010000
00001000
00010000
,
00001000
00010000
00000100
00000000
00001000
00000000
00000100
00000000
00000010
00000000
00000001
00000000
00000010
00000000
00000001
00000000
,
00000100
00000000
00001000
00000000
00000100
00000000
00001000
00000000
00010000
00000000
00001000
00000000
01000000
00010000
01000000
00010000
,
00000000
00000000
00000000
00000000
00000000
00000000
00000000
00000000
00000000
00000000
00100000
01000000
10000000
00010000
01000000
00010000
,
00000000
00000000
00000000
00000000
00000000
00000000
00000000
00000000
00000000
00000000
00000000
00000000
00000000
00000000
00010000
00001000
,
00010000
00001000
00010000
00000000
01000000
00000000
00010000
00000000
00001000
00000000
00000100
00000000
00001000
00000000
00000100
00000000
,
00000001
00000000
00000010
00000000
00000001
00000000
00000010
00000000
00000100
00000000
00001000
00000000
00000001
00000100
00000001
00000100
,
00000000
00000000
00000000
00000000
00000000
00000000
00000000
00000000
00000000
00000000
00000100
00000010
00001000
00000001
00000100
00000001
,
00000000
00001001
00011000
01001000
,
00100000
00000000
00000000
10000000
00000000
00000000
01000000
00000000
00000000
00100000
00000000
00000000
00010000
00000000
01000000
00000000
,
00100000
00000000
00000000
10000000
00000000
00000000
01000000
00000000
00000000
00010000
00000000
00000000
00001000
00000000
00000100
00000000
,
00000010
00000000
00000000
00001000
00000000
00000000
00000100
00000000
00000000
00000001
00000000
00000000
00000100
00000000
00001000
00000000
,
00000010
00000000
00000000
00000100
00000000
00000000
00000001
00000000
00000000
00000010
00000000
00000000
00001000
00000000
00010000
00000000
,
00100000
00000000
00000000
10000000
00000000
00000000
00010000
00000000
00000000
01000000
00000000
00000000
00100000
00000000
00010000
00000000
,
00001000
00000000
00000000
00010000
00000000
00000000
01000000
00000000
00000000
10000000
00000000
00000000
00100000
00000000
01000000
00000000
,
00010000
00000000
00000000
00100000
00000000
00000000
00001000
00000000
00000000
00010000
00000000
00000000
00000100
00000000
00001000
00000000
,
00000010
00000000
00000000
00000001
00000000
00000000
00000010
00000000
00000000
00001000
00000000
00000000
00000100
00000000
00000010
00000000
,
00000001
00000100
00001000
00000100
00000010
00000001
00000010
00001000
,
00000010
00000100
00001000
00010000
00001000
00000100
00001000
00010000
,
00011000
01000000
00010000
01010000
00000000
00100000
10000000
01000000
,
01100000
00100000
00010000
01010000
00000000
00000000
00000000
00000000
,
10000000
01000000
00010000
01000000
00100000
10000000
00100000
00010000
,
00100000
01000000
00010000
00001000
00010000
01000000
00010000
00001000
,
00011000
00000100
00001000
00001100
00000000
00000010
00000001
00000100
,
00000110
00000010
00001000
00001100
00000000
00000000
00000000
00000000
,
00000200
00000000
00000000
00000010
00000000
00000000
00000310
00000000
00000000
00000000
00001000
00000000
00010000
00000000
00100000
00000000
,
02000000
00000000
00000000
00010000
00000000
00000000
03010000
00000000
00000000
00000000
00010000
00000000
10000000
00000000
01000000
00000000
,
00200000
00000000
00000000
01000000
00000000
00000000
01300000
00000000
00000000
00000000
00010000
00000000
00001000
00000000
00000100
00000000
,
00000020
00000000
00000000
00000100
00000000
00000000
00000130
00000000
00000000
00000000
00000001
00000000
00001000
00000000
00000001
00000000
,
00002000
00000000
00000000
00000010
00000000
00000000
00003010
00000000
00000000
00000000
00001000
00000000
00000100
00000000
00010000
00000000
,
00002000
00000000
00000000
00100000
00000000
00000000
00103000
00000000
00000000
00000000
00010000
00000000
01000000
00000000
00100000
00000000
,
20000000
00000000
00000000
01000000
00000000
00000000
31000000
00000000
00000000
00000000
01000000
00000000
00010000
00000000
00001000
00000000
,
00011000
00010100
00011000
00010010
,
00001000
00000100
00000010
00000001
00000100
00001000
00010000
00001000
,
00010000
01000000
10000000
00100000
00010000
00000000
01100000
00000000
,
00010000
00100000
01000000
10000000
01000000
00010000
00001000
00010000
,
00001000
00000100
00000001
00000010
00001000
00000000
00000110
00000000
,
00001001
00000100
00000010
00000100
,
00001000
00000100
00010000
00001000
00000100
00000000
00001001
00000000
,
00000000
00000000
00000000
00000000
;

//---------------dance-single - ----------------
#NOTEDATA:;
#CHARTNAME:;
#STEPSTYPE:dance-single;
#DESCRIPTION:;
#CHARTSTYLE:;
#DIFFICULTY:Challenge;
#METER:16;
#RADARVALUES:0.856780,0.904051,0.206809,0.413618,1.058665,609.000000,588.000000,21.000000,42.000000,0.000000,0.000000,0.000000,0.000000,0.000000,0.856780,0.904051,0.206809,0.413618,1.058665,609.000000,588.000000,21.000000,42.000000,0.000000,0.000000,0.000000,0.000000,0.000000;
#CREDIT:;
#DISPLAYBPM:130.000000;
#NOTES:
// measure 0
0000
0000
0000
0000
,  // measure 1
0000
0000
0000
0000
,  // measure 2
0100
0000
0010
1000
0010
0000
0001
0000
0100
0010
0001
0100
0010
0000
1010
0000
,  // measure 3
1000
0000
0100
1000
0000
0001
0200
0000
0000
0010
1300
0010
0100
0000
0001
0000
,  // measure 4
0010
0000
0001
1000
0000
0100
0020
0000
0000
0001
0100
0031
0100
0000
0000
0000
,  // measure 5
0001
0000
0010
0001
0000
0100
2000
0000
0000
0100
0010
3100
1000
0000
0001
0000
,  // measure 6
1000
0000
0010
1000
0000
0010
0002
0000
0000
0010
0100
0013
1000
0000
0000
0000
,  // measure 7
1001
0000
1000
0100
0010
0001
0100
0000
0010
0000
0001
0010
0100
0000
1000
0010
,  // measure 8
0100
0000
0001
1000
0100
0000
0010
0001
1000
0001
0010
0001
0100
0000
0101
0000
,  // measure 9
0100
0000
0010
1000
0001
1000
0100
0000
1000
0000
0100
1000
0010
0000
0100
0001
,  // measure 10
1000
0000
0010
1000
0100
0000
0001
1000
0100
0010
0001
0010
0001
0000
1001
0000
,  // measure 11
0010
0000
0100
0010
1000
0100
0010
0000
0001
0000
1000
0100
0010
0000
0001
0100
,  // measure 12
0010
0000
1000
0001
0100
0000
0001
0010
0100
1000
0100
1000
0010
0000
1010
0000
,  // measure 13
1000
0000
0100
1000
0010
1000
0100
0000
0010
0000
0001
0010
0100
0000
1000
0010
,  // measure 14
0100
0000
1000
0100
0010
0000
0001
0010
0100
1000
0100
0010
0002
0000
1003
0000
,  // measure 15
1000
0100
0010
0100
1000
0100
0010
0100
1000
0100
0010
0100
1000
0100
0010
0100
,  // measure 16
1000
0010
0100
0010
1000
0010
0100
0010
1000
0010
0100
0010
1000
0010
0100
0010
,  // measure 17
2000
0000
0000
0000
3100
0000
0010
0001
2000
0000
3010
0001
0100
0010
1000
0000
,  // measure 18
2000
0000
0000
0000
3010
0000
0100
0001
2000
0000
3001
0010
0100
1000
0010
0001
,  // measure 19
0100
0010
0001
0010
0100
0010
0001
0010
0100
0010
0001
0010
0100
0010
0001
0010
,  // measure 20
0001
0000
0000
0100
0000
0000
0010
0000
0000
0100
0000
0000
0001
0000
0010
0000
0100
0000
0010
0000
0000
0100
0000
0000
0001
0000
0000
0100
0000
0000
0010
0000
0000
0100
0000
0000
0001
0000
0000
0100
0000
0000
0010
0000
0000
0100
0000
0000
,  // measure 21
0002
0000
0000
0000
1003
0000
0010
1000
0002
0000
1003
0100
0010
0001
1000
0010
,  // measure 22
0100
0101
1100
1010
,  // measure 23
1000
0100
0010
0001
1000
0100
0010
0001
1000
0001
0100
0001
0020
0000
0100
0000
,  // measure 24
0031
0100
0010
0000
0001
0100
0010
0000
1000
0100
0010
0001
0200
0000
0010
0000
,  // measure 25
1300
0010
0100
0001
1000
0010
0100
0001
1000
0100
0010
0001
2000
0000
0001
0000
,  // measure 26
3010
0001
0100
0000
0010
1000
0100
0000
0010
0001
0100
1000
0020
0000
0001
0000
,  // measure 27
0031
0100
0010
1000
0001
0100
0010
1000
0001
0010
1000
0100
0020
0000
1000
0000
,  // measure 28
0130
0010
0001
0000
1000
0100
0010
0000
0001
1000
0100
0010
0002
0000
1000
0000
,  // measure 29
0103
0010
1000
0000
0010
0100
0001
0000
1000
0100
0010
0001
0200
0000
0010
0000
,  // measure 30
1300
0010
0001
0000
0001
0100
1000
0000
0010
0001
0100
0010
2000
0000
0100
0000
,  // measure 31
3010
0001
0010
0000
0010
1000
0010
0000
0010
0001
0010
0000
0010
1000
0010
0001
,  // measure 32
0010
0000
0010
1000
0010
0000
0010
0001
0010
0000
0001
0000
0100
0000
0010
0000
,  // measure 33
0200
1000
0010
1300
0000
1100
1010
0000
,  // measure 34
0200
0000
0001
0000
0010
0000
0301
0000
0000
0000
0101
0000
0011
0000
0001
0010
,  // measure 35
0100
1000
0100
0000
0100
0001
0100
0000
0100
1000
0100
0000
0100
0001
0100
1000
,  // measure 36
0100
0000
0100
0001
0100
0000
0100
1000
0100
0000
0010
0000
0001
0000
1000
0000
,  // measure 37
0020
0100
1000
0130
0000
1010
0011
1010
,  // measure 38
0000
1020
0000
0001
0000
0130
0110
0000
,  // measure 39
1000
0000
0001
1000
0000
0001
1000
0100
0020
0000
0001
0000
0130
0001
1000
0010
,  // measure 40
0100
0000
1000
0100
0000
0010
0001
0000
0020
0000
1000
0000
0130
0010
0001
1000
,  // measure 41
0010
0000
0001
0010
0000
0100
1000
0010
0200
0000
1000
0000
0310
1000
0100
0010
,  // measure 42
0001
0000
1000
0010
0000
0001
0010
1000
0200
0000
0010
0000
0301
0010
1000
0001
,  // measure 43
0100
0000
0010
0001
0000
1000
0010
0100
0002
0000
0010
0000
0103
0010
1000
0001
,  // measure 44
0010
0000
0100
0010
0000
1000
0010
0000
2000
0000
0010
0000
3001
0100
0010
1000
,  // measure 45
0100
0000
0010
0100
0000
0001
1000
0100
0002
0000
2003
0000
3002
0000
2003
0000
,  // measure 46
0002
3003
0202
0303
2020
3030
2200
3300
,  // measure 47
1000
0100
1000
0100
0010
0001
0010
0001
1000
0000
0001
0000
0100
0000
0010
0000
,  // measure 48
1000
0010
1000
0010
0100
0001
0100
0001
1000
0000
0001
0000
1001
0000
1000
0000
,  // measure 49
0001
0010
0001
0010
0100
1000
0100
1000
0010
0100
0001
1000
0100
0000
0010
0000
,  // measure 50
1000
0010
0100
0001
1000
0100
0010
0001
0010
0100
1000
0010
0100
0000
0010
0000
,  // measure 51
1000
0100
0010
0001
1000
0010
0100
0001
0010
1000
0001
0100
0010
1000
0100
0010
,  // measure 52
0001
0100
0010
1000
0001
0010
0100
1000
0100
0010
0001
1000
0020
0130
0001
1000
,  // measure 53
0200
0000
0000
0000
,  // measure 54
0300
0000
0000
0000
;
