#VERSION:0.83;
#TITLE:MAXX UNLIMITED(X-Special);
#SUBTITLE:;
#ARTIST:Z;
#TITLETRANSLIT:;
#SUBTITLETRANSLIT:;
#ARTISTTRANSLIT:;
#GENRE:;
#ORIGIN:;
#CREDIT:;
#BANNER:MAXX UNLIMITED(X-Special).png;
#BACKGROUND:MAXX UNLIMITED(X-Special)-bg.png;
#PREVIEWVID:;
#JACKET:MAXX UNLIMITED(X-Special)-jacket.png;
#CDIMAGE:;
#DISCIMAGE:;
#LYRICSPATH:;
#CDTITLE:;
#MUSIC:MAXX UNLIMITED(X-Special).ogg;
#OFFSET:0.000000;
#SAMPLESTART:13.600000;
#SAMPLELENGTH:15.000000;
#SELECTABLE:YES;
#DISPLAYBPM:140.000000:320.000000;
#BPMS:0.000=300.000,
164.000=279.883,
196.000=300.000,
228.000=150.000,
244.000=300.000,
276.000=140.078,
284.000=125.000,
285.000=48.387,
286.000=319.985;
#STOPS:286.000=1.500;
#DELAYS:;
#WARPS:;
#TIMESIGNATURES:0.000=4=4;
#TICKCOUNTS:0.000=4;
#COMBOS:0.000=1;
#SPEEDS:0.000=1.000=0.000=0;
#SCROLLS:0.000=1.000;
#FAKES:;
#LABELS:0.000=Song Start;
#BGCHANGES:;
#KEYSOUNDS:;
#ATTACKS:
;

//---------------dance-single - ----------------
#NOTEDATA:;
#CHARTNAME:;
#STEPSTYPE:dance-single;
#DESCRIPTION:;
#CHARTSTYLE:;
#DIFFICULTY:Challenge;
#METER:18;
#RADARVALUES:1.002281,1.492016,0.628743,1.097804,0.144711,703.000000,640.000000,63.000000,110.000000,0.000000,0.000000,0.000000,0.000000,0.000000,1.002281,1.492016,0.628743,1.097804,0.144711,703.000000,640.000000,63.000000,110.000000,0.000000,0.000000,0.000000,0.000000,0.000000;
#CREDIT:;
#DISPLAYBPM:140.000000:320.000000;
#NOTES:
0000
0000
0000
0000
,
0000
0000
0000
0000
,
0000
0000
0000
0000
,
0000
0000
0000
0000
,
0000
0000
0000
0000
,
0000
0000
0000
0000
,
0000
0000
0000
0002
,
2003
0000
0000
0002
0000
3003
0000
0010
,
0001
1000
0001
1000
0001
0000
0000
0000
,
0010
1100
0010
0101
,
0010
0000
1100
0000
0010
0001
0100
0000
,
0100
0011
0100
1010
,
0100
0000
0011
0000
0100
0001
0010
0100
,
1000
0011
1000
0101
,
1000
0011
1000
0101
,
2000
0000
0000
0002
0000
3003
1001
0000
,
0010
0100
1000
0100
0010
0001
0010
0100
,
1000
0000
1000
0100
0000
0101
0000
0100
,
0020
0000
0130
0002
0000
1003
0000
0100
,
0010
0000
1000
0100
0000
1010
0000
0000
,
0010
1000
0100
0010
0001
1000
0010
0100
,
0001
0000
0010
1000
0000
0101
0000
1000
,
0010
0000
0010
2000
0000
3001
0000
0001
,
0100
0000
0001
2000
0000
3100
0000
0001
,
0010
0000
0000
0000
2002
0000
0000
3003
,
2000
0000
3002
0000
1003
0010
0100
0000
,
1000
0010
0100
0001
0010
0100
2000
0000
,
3002
0000
2003
0000
3001
0100
0010
0000
,
0001
0100
0010
1000
0100
0010
0001
0000
,
1010
0000
0011
0000
0001
0010
0100
0000
,
0001
0010
1000
0010
0001
0100
1000
0000
,
0101
0000
1100
0000
1000
0100
0010
0000
,
1000
0100
0001
0100
1000
0010
0001
0000
,
0200
0000
0302
0000
0000
2003
3200
0000
,
0320
0000
2030
0000
0000
3002
0203
0000
,
2300
0000
3002
0000
0000
0203
0320
0000
,
0130
1100
0011
1100
,
0001
0010
0001
0010
0000
0001
0011
0000
,
1000
0100
1000
0100
0000
1000
1100
0000
,
0010
0100
0010
0100
0000
1000
0010
0100
,
0010
1000
0100
0010
0011
0000
1100
0000
,
1000
0100
1000
0100
2000
0000
3001
0010
,
0001
0010
0002
0000
1003
0000
0110
0000
,
0010
0100
0010
0100
0020
0000
0130
0010
,
0100
0010
0100
0000
1010
0000
0102
0000
,
0010
0000
1000
0010
,
0000
0000
0010
0100
,
0000
0000
1000
0013
,
1000
0100
1000
0010
0100
0001
0010
0100
,
0010
0001
0010
0000
0100
1000
0010
0000
,
0100
0001
0010
0000
1000
0100
0010
0000
,
0001
0100
0010
0000
1000
0100
0010
0000
,
0001
0100
0010
0000
0100
1000
0100
0000
,
0010
0001
0100
0000
0010
1000
0100
0000
,
0001
0010
0100
0000
1000
0010
0100
0000
,
0001
0010
0100
0000
1000
0020
0030
0100
,
0001
1000
0100
0010
0001
0010
0001
0010
,
0012
0000
0010
0010
0000
1000
1000
0000
0100
0100
0000
1000
1000
0000
0013
0100
,
2000
0010
0010
0000
0100
0100
0000
0010
0010
0000
0001
0001
0000
0000
3100
0010
,
0001
0010
0200
0000
1000
1000
0000
0010
0010
0000
0001
0001
0000
0010
0010
0000
,
1300
0100
0010
0001
0100
0020
0000
0000
1000
0000
0000
0100
0000
0000
0031
0000
,
0101
0000
1100
0000
1000
0010
0100
0000
,
0011
0000
0101
0000
0100
1000
0001
0000
,
1010
0000
0011
0000
0001
0100
0010
0000
,
1100
0000
1010
0000
0010
0001
1000
0000
,
0010
0001
1000
0100
0010
0001
0100
0000
,
1000
0100
0010
0100
1000
0001
0010
0000
,
2000
3010
1000
0000
0002
0103
0001
0000
,
0010
0100
1000
0010
1000
0100
0010
0001
,
0011
0000
1000
1000
0000
0100
0010
0000
0001
0001
1000
0002
0000
0003
2000
0000
,
3100
0100
0010
0001
1000
0001
0000
1000
0100
0010
0002
0100
0100
0000
1003
0000
,
0220
0000
0000
0000
0330
0000
1000
0001
,
0200
0000
0301
1000
0020
0000
1030
0001
,
0100
0010
1000
0001
1000
0001
1000
0002
,
0000
1003
0010
2000
0000
3001
0010
0002
,
0000
1003
0100
0010
0001
0100
0010
1000
,
0020
0000
1030
0100
2000
0000
3001
0010
,
0001
0100
0010
0100
0010
1000
0100
0020
,
0000
0031
0100
0010
0000
1000
0010
1010
,
0000
0001
0010
0100
1000
0100
0010
0001
,
0010
0100
0010
0001
0010
0100
0010
0001
,
1000
0100
0010
0100
0010
0001
0100
0010
,
0100
0001
0100
0010
0100
0010
1000
0010
,
0100
0001
0100
0010
0001
0010
0200
0000
,
0301
0200
0320
0000
2030
3200
0020
0300
,
0031
0100
0020
0000
2030
3100
0020
0000
,
0032
0203
0320
0000
0230
0302
0203
0320
,
2030
3200
0320
0032
0023
0000
0032
0003
,
2000
0001
0000
3000
1001
0000
0110
0000
,
0020
0100
0000
0030
1001
0000
2200
3300
,
0001
0010
0000
0000
1000
0100
0020
0002
,
0033
0000
1001
0110
,
0200
0010
0000
0300
1001
0000
0022
0033
,
1000
0100
0000
0000
1001
0000
0001
0010
,
0200
2000
0000
3300
1100
0000
0101
0000
,
0011
0000
1010
0000
0101
0000
1000
0100
,
0010
0001
0000
0100
0010
0000
0001
0100
,
0010
1000
0000
0010
0100
0000
2000
0001
,
0000
3002
1000
0003
1001
0000
0010
0100
,
0001
1000
0001
0010
0110
0000
0002
1000
,
0000
2003
0001
3000
1001
0000
0100
0010
,
1000
0001
1000
0100
0110
0000
2000
0010
,
0000
3020
0100
0030
1010
0000
0101
0000
,
2002
0000
0000
0000
0000
3003
1000
0001
,
1000
0100
0010
0100
1000
0001
0010
0100
,
0010
0001
1000
0100
0010
0100
0010
0001
,
0010
1000
0010
0001
0100
1000
0100
0001
,
0010
0100
1000
0100
0010
0001
0100
1000
,
0100
0001
0010
0100
1000
0010
0100
0001
,
0010
0100
1000
0010
0100
0010
1000
0100
,
1000
0100
0010
0001
0000
0002
0023
0230
,
2300
3020
0230
0302
0003
0020
0130
2000
,
0000
3100
0020
0200
0330
2000
0002
3003
,
0000
0020
0230
1300
0010
0100
2002
0000
,
0000
0000
0000
0000
,
3003
0000
0000
0000
,
0000
0000
0000
0000
;

//---------------dance-double - ----------------
#NOTEDATA:;
#CHARTNAME:;
#STEPSTYPE:dance-double;
#DESCRIPTION:;
#CHARTSTYLE:;
#DIFFICULTY:Challenge;
#METER:18;
#RADARVALUES:0.928144,1.267964,0.548902,0.469062,0.104790,651.000000,596.000000,55.000000,47.000000,0.000000,0.000000,0.000000,0.000000,0.000000,0.928144,1.267964,0.548902,0.469062,0.104790,651.000000,596.000000,55.000000,47.000000,0.000000,0.000000,0.000000,0.000000,0.000000;
#CREDIT:;
#DISPLAYBPM:140.000000:320.000000;
#NOTES:
00000000
00000000
00000000
00000000
,
00000000
00000000
00000000
00000000
,
00000000
00000000
00000000
00000000
,
00000000
00000000
00000000
00000000
,
00000000
00000000
00000000
00000000
,
00000000
00000000
00000000
00000000
,
00000000
00000000
00000000
00000000
,
00000000
00000000
00000000
00000000
,
00000000
00000000
00000000
00000000
,
00000010
00000110
00001000
00001100
,
00010000
00011000
00100000
00110000
,
01000000
11000000
00010000
01010000
,
00001000
00011000
00000100
00000101
,
00000010
00000011
00001000
00001010
,
00010000
00011000
00100000
01100000
,
20000000
00000000
00000000
00200000
00000000
30300000
10100000
00000000
,
10000000
00100000
01000000
00010000
00001000
00000100
00000010
00000001
,
00000010
00000000
00000001
00000100
00000000
00000101
00000000
00000100
,
00001000
00000000
00001000
01000000
00000000
11000000
00000000
00100000
,
00001000
00000000
00000100
00000001
00000000
00000001
00000100
00001000
,
00000100
00000010
00000001
00000100
00000010
00001000
00000100
00000010
,
00000001
00000000
00001000
00000100
00000000
00011000
00000000
00010000
,
01000000
00000000
10000000
01000000
00000000
00110000
00000000
01000000
,
00100000
00000000
00010000
00001000
00000000
00001100
00000000
00000100
,
00000010
00000001
00000100
00000010
00001000
00000100
00000001
00000100
,
00002000
00000000
00003002
00000000
00000103
00001000
00010000
00000000
,
00100000
00010000
01000000
00100000
20000000
00000000
30000000
00000000
,
00020000
00000000
20030000
00000000
30100000
01000000
00010000
00000000
,
00001000
00000100
00000010
00000001
00000200
00000000
00000300
00000000
,
00002000
00000000
00003002
00000000
00000013
00000100
00001000
00000000
,
00010000
00100000
10000000
01000000
00200000
00000000
00300000
00000000
,
02000000
00000000
03002000
00000000
00013000
01000000
10000000
00000000
,
00100000
00010000
00001000
00000100
00000001
00000100
00001000
00000100
,
00000001
00000000
00001000
00000200
00000000
00010000
00000000
00001300
,
00000100
00000000
00010000
00200000
00000000
01000000
00000000
01300000
,
00100000
00000000
10000000
02000000
00000000
10000000
00000000
13000000
,
02000000
03020000
00032000
00003200
,
00000301
00000010
00000100
00001000
00000000
00000100
00000010
00000000
,
00000100
00001000
00010000
01000000
00000000
00010000
00001000
00000000
,
00010000
00100000
01000000
20000000
00000000
30020000
00000000
10030000
,
01000000
00100000
00010000
00100000
10000000
00100000
00010000
01000000
,
10000000
01000000
00000000
01000000
00100000
00000000
00010000
00001000
,
00000000
00001000
00000200
00000000
00002300
00000000
00023000
00000000
,
00031000
00000100
00000000
00000100
00000001
00000000
00000001
00000100
,
00000000
00001000
00020000
00000000
00230000
00000000
00320000
00000000
,
00031000
00100000
00000000
01000000
10000000
00000000
00100000
00010000
,
00000000
00001000
00000200
00000000
00000320
00000000
00002030
00000000
,
00013000
01000000
00000000
00100000
00010000
00000000
00001000
00000100
,
00000000
00000010
00000100
00000000
00001000
00000000
00011000
00000000
,
00100000
00001000
01000000
00000000
00100000
10000000
01000000
00000000
,
00100000
00001000
00010000
00000000
00000010
00010000
00001000
00000000
,
00001000
00000001
00000100
00000000
00000001
00001000
00000010
00000000
,
00010000
00000100
00001000
00000000
00000100
00001000
00010000
00000000
,
00010000
00100000
01000000
00000000
10000000
00100000
01000000
00000000
,
01000000
00001000
00100000
00000000
00010000
00000100
00001000
00000000
,
00001000
00010000
00100000
00000000
00010000
00001000
00000010
00000001
,
00000100
00001000
00010000
00100000
10000000
01000000
00010000
00001000
,
00000000
00000000
00110000
00000000
00000000
01010000
00000000
00000000
00110000
00000000
00000000
00011000
00000000
00000000
00002020
00000000
,
00003030
00000000
00001010
00000000
00000000
00000101
00000000
00000000
00001001
00000000
00000000
00011000
00000000
00000000
00220000
00330000
,
00000000
00000000
10000000
01000000
00000000
01000000
00100000
00000000
00100000
00010000
00000000
00010000
00001000
00000000
00001000
00000100
,
00000000
00000000
00000001
00000100
00000000
00000100
00001000
00000000
00001000
00010000
00000000
01000000
00100000
00000000
20000000
00000000
,
31000000
00010000
01000000
00000000
01000000
10000000
01000000
00000000
,
00100000
10000000
01000000
00100000
00010000
00000000
00011000
00000000
,
00001000
00000100
00001000
00000000
00000001
00000010
00000001
00000000
,
00001000
00000100
00000010
00000001
00001000
00000000
00001001
00000000
,
00001000
00000100
00001000
00000000
00010000
01000000
00010000
00000000
,
00001000
00010000
00001000
00000100
00001000
00000000
00011000
00000000
,
00010000
01000000
00010000
00000000
00001000
00000100
00001000
00000000
,
00010000
00001000
00010000
01000000
00010000
00001000
00000100
00001000
,
00000000
00000000
00010000
00000100
00000000
00001000
00100000
00000000
00001000
00010000
00000000
00010000
00001000
00000000
00011000
00000000
,
00000010
00000000
00000001
00000100
00000000
00001000
00010000
00000000
00100000
00010000
00000000
00001000
00000100
00000000
00010000
00000000
,
00022000
00000000
00000000
00000000
00033000
00000000
00000001
00000010
,
00000100
00000000
00001000
00000010
00000100
00000000
00000001
00000010
,
00001000
00000000
00001000
00000010
00000001
00000000
00000001
00000100
,
00000010
00000000
00000100
00001000
00010000
00000000
00001000
00010000
,
00100000
00000000
00010000
00100000
00000000
00100000
00010000
00000000
,
00001000
00000100
00000010
00000000
00000100
00001000
00010000
00000000
,
00001000
00100000
01000000
00000000
00100000
00001000
01000000
00000000
,
00010000
10000000
01000000
00000000
00010000
10000000
00100000
00000000
,
00100000
00010000
00000000
00001000
00000100
00000000
00000010
00000001
,
00000100
00000000
00000010
00001000
00000100
00000000
00010000
00000100
,
00001000
00000000
00001000
00100000
00010000
00000000
00010000
00100000
,
01000000
00000000
10000000
00100000
01000000
00000000
00100000
10000000
,
01000000
00000000
00100000
00001000
01000000
00000000
00010000
01000000
,
00001000
00000000
00010000
00100000
00001000
00000000
00001000
00010000
,
00000010
00000000
00000100
00010000
00000010
00000000
00001000
00000010
,
00001000
00000000
00000001
00000010
00000001
00000000
00000001
00000100
,
00001000
00010000
01000000
10000000
00100000
01000000
00100000
10000000
,
01000000
00100000
00000000
00000000
01100000
00000000
00010000
00001000
,
00000100
00000001
00000000
00000000
00000110
00000000
00000001
00000010
,
00000100
00001000
00000000
00000000
00011000
00000000
00001000
00010000
,
00001000
00022000
00000000
00000000
00033000
00000000
00001000
00010000
,
00100000
01000000
00000000
00000000
11000000
00000000
10000000
00100000
,
01000000
10000000
00000000
00000000
01010000
00000000
01000000
00010000
,
00001000
00000100
00000000
00000000
00000011
00000000
00001010
00000000
,
00001100
00000000
00011000
00000000
00110000
00001000
00010000
00100000
,
01000000
00000000
00000000
00000000
01100000
00000000
00100000
00010000
,
00001000
00000100
00000000
00000000
00000011
00000000
00000002
00001003
,
00000000
00000200
00001300
00000000
00011000
00000000
00110000
00000000
,
02200000
00000000
00000000
00000000
03300000
00000000
10000000
01000000
,
00010000
00100000
00000000
00000000
01100000
00000000
00100000
00010000
,
00001000
00000010
00000000
00000000
00001010
00000000
00000001
00000010
,
00000000
00001000
00000100
00000001
00000100
00000000
00001000
00010000
,
02000000
00000000
00000000
00000000
00000000
00000000
13000000
01000000
,
10000000
01000000
00100000
01000000
00010000
01000000
10000000
01000000
,
00010000
00001000
00010000
00001000
00010000
00000000
00000100
00010000
,
00000100
00000001
00000100
00001000
00010000
00001000
00000100
00000010
,
00000001
00000100
00001000
00000000
00010000
01000000
10000000
00100000
,
00010000
00001000
00010000
00001000
00000100
00000010
00001000
00000010
,
00000100
00001000
00010000
00100000
01000000
00000000
00010000
00000000
,
00001000
00010000
00000000
00000000
00011000
00000000
00001100
00000000
,
00000001
00000100
00000000
00000000
00000010
00000100
00001000
00000000
,
00000000
00010000
01000000
00000000
00000000
10000000
01000000
00000000
,
00000000
00010000
00001000
00000100
00001000
00010000
00022000
00000000
,
00000000
00000000
00000000
00000000
,
00000000
00000000
00033000
00000000
,
00000000
00000000
00000000
00000000
;

//---------------dance-single - Edit----------------
#NOTEDATA:;
#CHARTNAME:;
#STEPSTYPE:dance-single;
#DESCRIPTION:Edit;
#CHARTSTYLE:;
#DIFFICULTY:Edit;
#METER:18;
#RADARVALUES:1.136299,1.717814,0.528942,0.818363,0.299401,797.000000,744.000000,53.000000,82.000000,0.000000,0.000000,0.000000,0.000000,0.000000,1.136299,1.717814,0.528942,0.818363,0.299401,797.000000,744.000000,53.000000,82.000000,0.000000,0.000000,0.000000,0.000000,0.000000;
#CREDIT:;
#DISPLAYBPM:140.000000:320.000000;
#NOTES:
0000
0000
0000
0000
,
0000
0000
0000
0000
,
0000
0000
0000
0000
,
0000
0000
0000
0000
,
0000
0000
0000
0000
,
0000
0000
0000
0000
,
0000
0000
0000
0000
0000
0000
0010
0001
,
0100
0000
0001
0100
0000
0010
1000
0000
,
0010
0100
0010
0001
0100
0000
0010
0000
,
1000
0100
1000
0000
0001
0100
0001
0000
,
1000
0010
1000
0010
1000
0010
1000
0000
,
0001
0100
0001
0000
1000
0100
1000
0000
,
0001
0010
0001
0010
0001
0010
0001
0000
,
1000
0100
0010
0000
0100
0010
0001
0000
,
0001
0010
0100
1000
0001
0010
0100
1000
,
0002
0000
0000
2000
0000
3000
1003
0001
,
1000
0100
0010
0001
1000
0010
0100
0001
,
0010
0000
0010
0001
0000
0001
0100
0000
,
1000
0000
0100
0001
0000
0001
0010
0000
,
1000
0000
0010
1000
0000
1000
0010
0100
,
0001
0100
0010
1000
0001
0100
0010
1000
,
0100
0000
1000
0100
0000
0100
0010
0100
,
0001
0000
0001
0100
0000
0100
0010
0100
,
1000
0000
0010
1000
0000
1000
0001
1000
,
0010
0100
0010
0000
0220
0000
0330
0000
,
0001
0000
0100
0000
1000
0000
0100
0010
0001
0000
0100
0000
1000
0000
0100
0000
,
0001
0000
0010
0000
1000
0000
0010
0100
0001
0000
0010
0000
1000
0000
0001
0000
,
0100
0000
0010
0000
0001
0000
0010
1000
0100
0000
0010
0000
0001
0000
0010
0000
,
1000
0000
0100
0000
0010
0000
0100
0001
1000
0000
0100
0000
0010
0000
0100
0000
,
0010
0000
0001
0000
1000
0000
0010
1000
0100
0000
0010
0000
0001
0000
0010
0000
,
0001
0000
1000
0000
0001
0000
0100
0001
0010
0000
0100
0000
1000
0000
0100
0000
,
1000
0000
0001
0000
0100
0000
0010
0001
0100
0000
0010
0000
0001
0000
0010
0000
,
0200
0320
0032
2003
,
3001
0000
0010
0000
0100
0000
1000
0100
1000
0000
0010
0000
0100
0000
1000
0000
,
0100
0000
0001
0000
0010
0000
0100
0001
0100
0000
0010
0000
0001
0000
0100
0000
,
0010
0000
0100
0000
1000
0000
0010
0100
0010
0000
0100
0000
0001
0000
0010
0000
,
0011
1010
1100
0101
,
1000
0100
0010
0002
0000
1003
0100
0000
,
0010
0001
0100
0020
0000
1030
0010
0100
,
0020
0000
0031
0100
0000
0100
1000
0100
,
0010
0001
0000
0000
0100
0001
0000
0000
0001
0010
0000
0000
1000
0010
1000
0000
,
2020
0000
3000
0230
,
0000
0300
2002
3003
,
0202
0300
0000
0023
,
0000
0030
0110
1010
,
0220
0030
1000
0020
,
0000
0030
0010
0002
,
0000
0003
0010
2300
,
3001
0000
1000
0001
1000
0001
1000
0010
,
0001
0000
0100
0000
0001
0000
0010
0001
1000
0000
0100
0000
1000
0000
0100
0000
,
0001
0000
0010
0000
0001
0000
0010
0100
1000
0000
0010
0000
1000
0000
0001
0000
,
0010
0000
0100
0000
0010
0000
1000
0010
0100
0000
0010
0000
0100
0000
0001
0000
,
1000
0000
0001
0000
1000
0000
0010
0100
0001
0000
1000
0000
0001
0000
0100
0000
,
1000
0010
1000
0000
0100
0000
0010
0000
0001
0000
0010
0000
0100
0000
0001
0000
,
1000
0010
1000
0000
0001
0000
0100
0000
0001
0000
0010
0000
1000
0000
0001
0000
,
1000
0001
1000
0000
0001
0000
0010
0000
0100
0010
0100
0000
0010
0000
0100
0000
,
0001
0010
0001
0000
0100
0000
0010
0000
1000
0001
1000
0000
0001
0000
0100
0000
,
0010
0000
1000
0010
0000
0010
0001
0000
0101
0000
0000
0110
0000
0000
1100
0000
,
0000
0000
1000
0010
1000
0010
0100
0000
0101
0000
0000
0110
0000
0000
1010
0000
,
0010
0001
0010
0001
0100
0001
0100
0001
1010
0000
0000
0110
0000
0000
0011
0000
,
0001
0100
0010
0100
0001
0100
0010
0100
0011
0000
0000
0110
0000
0000
1001
0000
,
0001
0101
0001
0011
,
1000
1100
1000
1010
,
0010
0110
0010
1001
,
1000
1001
1000
0110
,
1000
0010
1000
0000
0001
0010
0001
0000
,
0001
0100
0001
0000
1000
0100
1000
0000
,
1000
0100
1000
0100
0010
0001
0010
0001
,
0100
0010
0100
0010
0001
1000
0001
1000
,
0001
0000
0001
0100
0000
0001
0100
1000
0010
0000
1000
0010
0000
1000
0010
0100
,
0001
0000
0010
0100
0000
0010
0100
0010
1000
0000
0001
1000
0000
0001
1000
0000
,
2002
0000
0000
0000
0000
0000
0000
0000
0000
0000
0000
0000
0000
0000
0000
0000
0000
0000
0000
0000
0000
0000
0000
0000
0000
0000
0000
0000
0000
0000
0000
0000
0000
0000
0000
0000
0000
0000
0000
0000
0000
0000
0000
0000
0000
0000
0000
0000
0000
0000
0000
0000
0000
0000
0000
0000
0000
0000
0000
0000
0000
0000
0000
0000
0000
0000
0000
0000
0000
0000
0000
0000
0000
0000
0000
0000
0000
0000
0000
0000
0000
0000
0000
0000
0000
0000
0000
0000
0000
0000
0000
0000
0000
0000
0000
0000
0000
3003
0000
0000
0000
0000
0000
0000
0000
0000
0000
0000
0000
0000
0000
0000
0000
0000
0000
0000
0000
0000
0000
0000
0000
0000
0000
0000
0000
0000
0000
0000
0000
0000
0000
0000
0000
0000
0000
0000
0000
0000
0000
0000
0000
0000
0000
0000
1000
0000
0000
0000
0000
0000
0000
0000
0000
0000
0000
0000
0000
0000
0000
0000
0000
0000
0000
0000
0000
0000
0000
0000
0100
0000
0000
0000
0000
0000
0000
0000
0000
0000
0000
0000
0000
0000
0000
0000
0000
0000
0000
0000
0000
0000
0000
0000
,
1000
0100
0010
0001
0010
0001
0100
0010
,
0100
0010
1000
0001
1000
0001
0100
0001
,
0100
0001
0010
0001
0010
0001
1000
0001
,
1000
0001
0100
0010
0001
1000
0010
0100
,
0010
0001
0010
0001
0100
0010
0100
0010
,
1000
0100
1000
0100
0001
1000
0001
1000
,
0010
0100
0010
0100
1000
0001
1000
0001
,
0100
0010
0100
0010
1000
0001
0010
0001
,
0100
0010
1000
0100
0010
0001
1000
0010
,
0100
0001
0010
0100
1000
0010
0001
0100
,
0010
1000
0100
0010
0001
0100
0010
1000
,
0100
0010
0001
1000
0010
0001
0200
0320
,
2030
3200
0320
0032
0203
0320
0032
2003
,
3020
0032
0203
0320
2030
3200
0302
2003
,
3200
0302
0023
0032
0203
0320
2030
3200
,
0320
0000
0032
0000
0203
0000
0320
0000
1030
0100
1000
0000
0100
0000
0000
0000
,
0100
1200
0000
0310
0001
0100
0001
0000
,
0100
0102
0000
0013
0001
0010
0001
0000
,
0010
0021
0000
0130
0010
1000
0001
0200
,
0020
0000
0330
0010
,
0010
2010
0000
3001
0100
1000
0100
0000
,
1000
1200
0000
0310
0100
0001
0100
0000
,
0001
0102
0000
1003
0010
0001
0011
0000
,
0101
1100
1010
1000
,
0100
1200
0000
0310
0100
0001
0100
0000
,
0100
0102
0000
1003
0100
0001
0011
0000
,
0001
0101
0000
0100
1000
0100
0010
0000
,
0010
1001
0000
0000
1000
0100
1000
0000
,
0001
1002
0000
0103
1010
0000
0101
0000
,
0001
0201
0000
1300
0010
0001
0010
0000
,
1000
1020
0000
0130
1000
0100
0010
0001
,
0020
0000
0200
0000
0000
0000
0000
0000
0330
0000
1000
0000
0010
0100
0010
0000
,
0010
0001
0010
1000
0010
0001
0010
1000
,
0010
0001
1000
0010
0001
1000
0010
0100
,
0010
0001
1000
0001
0010
1000
0001
0010
,
1000
0010
0001
0010
1000
0010
0001
0010
,
1000
0100
0001
0100
1000
0100
0001
0100
,
0001
0000
0010
0000
1000
0000
0001
0000
0100
0000
1000
0000
0001
0010
0200
0000
,
0310
0000
2000
0000
3100
0000
0010
0000
1000
0000
0100
0000
0010
0100
0002
0000
,
0013
0000
0200
0000
0310
0000
2000
0000
3100
0000
0010
0000
0001
0010
0100
1000
,
0100
0000
0200
0000
0310
0001
0020
0000
0130
0000
2000
0000
3001
0010
0002
0000
,
0103
0000
0001
0000
0010
0001
0010
0000
0001
0000
1000
0000
2002
0000
0000
0000
,
0000
0000
0000
3003
;
