#TITLE:MAX 300(X-Special);
#SUBTITLE:;
#ARTIST:Ω;
#TITLETRANSLIT:;
#SUBTITLETRANSLIT:;
#ARTISTTRANSLIT:OMEGA;
#GENRE:;
#CREDIT:;
#BANNER:MAX 300(X-Special).png;
#BACKGROUND:MAX 300(X-Special)-bg.png;
#LYRICSPATH:;
#CDTITLE:;
#MUSIC:MAX 300(X-Special).ogg;
#OFFSET:0.000000;
#SAMPLESTART:13.600000;
#SAMPLELENGTH:15.000000;
#SELECTABLE:YES;
#DISPLAYBPM:300.000000;
#BPMS:0.000000=302.520996
,4.000000=300.070007
,290.000000=214.285995
,291.000000=145.160995
,292.000000=104.651001
,293.000000=64.286003
,294.000000=300.131012
;
#STOPS:294.000000=1.200000
;
#BGCHANGES:;
#KEYSOUNDS:;
#ATTACKS:;

//---------------dance-single - ----------------
#NOTES:
     dance-single:
     :
     Challenge:
     17:
     0.846494,1.002707,0.239193,0.347917,0.076107,545.000000,523.000000,22.000000,32.000000,0.000000,0.000000,0.846494,1.002707,0.239193,0.347917,0.076107,545.000000,523.000000,22.000000,32.000000,0.000000,0.000000:
0000
0000
0000
0000
,
0000
0000
0000
0000
,
0000
0000
0000
0000
,
0000
0000
0000
0000
,
0000
0000
0000
0000
,
1000
0000
1000
0000
1000
0100
0000
0100
,
0001
0020
0100
0000
1000
0030
0010
0001
,
0100
0000
0010
0000
1000
0010
0100
0001
,
0010
1010
0101
0000
,
0001
0000
0001
0000
0001
0100
0000
0100
,
1000
0020
0100
0000
0001
0030
0010
1000
,
0100
0000
0001
0000
0100
1000
0010
0100
,
0001
0011
1010
0000
,
0100
0000
0100
0000
0100
0001
0000
0001
,
0010
2000
0100
0000
0100
0000
3020
0000
,
0031
0010
0001
0000
0010
0100
1000
0000
,
1000
1000
0100
1000
0001
0100
0010
1000
,
0100
0000
0010
0000
0000
0100
0000
0100
,
1000
0000
0010
0000
0000
0100
0000
0100
,
0001
0000
0010
0000
0000
0001
0000
0001
,
0100
0010
1000
0100
,
0010
0000
0001
0000
0000
0001
0000
0001
,
0100
0000
1000
0000
0000
1000
0000
1000
,
0100
0000
0010
0000
0000
1000
0000
1000
,
0100
0001
0100
1000
,
0010
0000
0100
0000
0000
0100
0000
0100
,
0001
0000
0010
0000
0000
0010
0000
0010
,
0001
0000
0100
0000
0000
0010
0000
0010
,
1000
0100
0010
0001
,
0100
0000
0020
0000
0000
0130
0000
0200
,
2000
0300
0020
3000
0000
0001
0030
0010
,
1000
0100
0000
0100
0010
0000
0110
0000
,
0010
1000
0100
0001
0100
1000
0010
0000
,
0100
0010
0100
0010
,
1000
0001
1000
0001
,
0010
0000
0100
0000
0010
0100
0000
0100
,
0010
0001
0100
0001
,
0100
0010
1000
0010
,
1000
0000
0100
0000
0010
0100
0000
0100
,
0010
0001
0100
0010
,
1000
0100
0010
0001
,
0100
0000
0010
0000
1000
0100
0000
0100
,
0001
0010
0100
1000
,
0010
0000
0100
0010
1000
0010
0100
0000
,
0110
1010
1100
0000
,
0010
0020
0001
0032
,
0100
0203
0010
0320
,
1000
2030
3100
0100
,
0002
0103
0100
2000
,
3100
0100
0002
0013
,
0010
1000
0010
0010
,
0001
0100
0100
1000
,
0010
0001
0001
0100
,
1000
1000
0010
0100
,
0001
0002
0023
2030
,
3200
0302
2003
3010
,
0110
1001
0110
0000
,
1000
0000
1000
0000
1000
0010
0000
0010
,
1000
0000
0100
0000
0001
0100
0000
0100
,
0010
0000
0100
0000
1000
0001
0000
0001
,
0100
0000
0010
1000
0100
0000
0000
0000
,
0100
0010
1000
0000
0010
0001
0100
0000
,
0100
0001
0010
0000
1000
0010
0100
0000
,
1000
0100
0010
0100
1000
0010
0100
0010
,
1000
0100
0001
0100
1000
0000
0000
0000
,
0010
1000
0100
0010
0100
1000
0010
0100
,
0001
0100
0010
1000
0100
0010
0001
1000
,
0010
0100
1000
0100
0001
0010
1000
0010
,
0001
0010
0100
1000
0010
0000
0000
0000
,
0010
1000
0100
0000
0001
0100
1000
0000
,
0010
0100
0001
0000
1000
0100
0001
0000
,
0100
1000
1000
0010
0001
0001
,
0100
1000
0010
0220
0000
0000
,
0000
0000
0000
0000
0000
0000
0000
0000
0000
0000
0000
0000
0000
0000
0000
0000
0000
0000
0000
0000
0000
0000
0000
0000
0000
0000
0000
0000
0000
0000
0000
0000
0000
0330
0000
0000
0000
0000
0000
0000
0000
0000
0000
0000
0000
0000
0000
0000
1000
0000
0000
0000
0000
0000
0000
0000
0100
0000
0000
0000
0000
0000
0000
0000
,
0010
0001
0100
0000
0010
1000
0100
0010
,
0001
0000
0010
0000
0100
0000
1000
0010
,
0001
0010
1000
0010
0001
0000
0001
0100
,
1000
0100
0001
0000
0010
0001
0100
0001
,
0010
0100
1000
0010
1000
0100
0010
0000
,
0001
0100
1000
0100
0001
0000
1000
0100
,
0001
0100
1000
0010
1000
0100
0001
0100
,
0001
0100
0010
0000
0100
0010
0001
0100
,
0001
0100
0010
0000
0100
0010
1000
0010
,
0001
0000
0010
0100
0010
1000
0100
0000
,
0010
0001
0100
1000
0100
0000
1000
0100
,
0001
0100
1000
0000
0100
0001
0010
0100
,
1000
0000
1000
0010
0100
0010
1000
0000
,
0001
0100
1000
0100
0010
0000
1000
0100
,
0010
0100
0001
0000
0001
0100
0010
0100
,
1000
0010
0100
1000
0100
0000
0110
0000
,
1000
0100
0000
1000
0100
0000
0010
0000
,
2001
0000
3000
0210
0000
0300
0010
0000
,
0001
0100
0000
0001
0100
0000
0010
0000
,
2001
0000
3000
0120
0000
0030
1000
0000
,
0001
0100
0000
0001
0100
0000
0010
0000
,
2000
0100
3000
1000
0200
0000
0310
0000
,
0100
0001
0000
0100
1000
0000
0010
0000
,
0000
0000
0000
0010
,
1000
0010
0001
0100
0001
0000
0100
0000
,
0001
0010
1000
0100
1000
0000
0001
0000
,
0100
0010
1000
0100
0001
0001
0010
0001
,
0100
0010
1000
0100
0010
0100
1000
0010
,
0001
1000
0001
0010
1000
0100
0010
0001
,
0100
0000
0000
0001
0000
0000
0010
0000
0000
1000
0000
0000
0001
0000
0000
0100
0000
0000
1000
0000
0000
0000
1001
0000
,
0000
0010
0000
0000
0000
0000
0000
0000
0000
0001
0000
0101
,
0000
0010
0000
0000
0000
0000
0000
0000
0000
0110
0000
0100
,
0000
0010
0000
0010
0000
0100
0000
0110
0000
2002
0000
0000
,
0000
0000
0000
0000
,
0000
0000
3003
0000
,
0000
0000
0000
0000
;

//---------------dance-double - ----------------
#NOTES:
     dance-double:
     :
     Challenge:
     18:
     0.829409,1.002707,0.217448,0.326172,0.076107,534.000000,514.000000,20.000000,30.000000,0.000000,0.000000,0.829409,1.002707,0.217448,0.326172,0.076107,534.000000,514.000000,20.000000,30.000000,0.000000,0.000000:
00000000
00000000
00000000
00000000
,
00000000
00000000
00000000
00000000
,
00000000
00000000
00000000
00000000
,
00000000
00000000
00000000
00000000
,
00000000
00000000
00000000
00000000
,
00001000
00000000
00001000
00000000
00001000
00010000
00000000
00010000
,
00100000
00000000
10000000
00000000
01000000
00010000
00000000
00010000
,
00001000
00000000
00000010
00000000
00000001
00000100
00000000
00000100
,
00001000
00010000
00011000
00000000
,
00010000
00000000
00010000
00000000
00010000
00001000
00000000
00001000
,
00000010
00000000
00000001
00000000
00000100
00001000
00000000
00001000
,
00010000
00000000
00100000
00000000
10000000
01000000
00000000
01000000
,
00010000
00001000
00012000
00000000
,
00010000
00000000
00013000
00000000
00010000
01000000
00000000
01000000
,
00100000
00010000
00001000
00000100
,
00000001
00001000
00000100
00000000
00001000
00000001
00000100
00000000
,
00000001
00000100
00001000
00010000
00001000
00000100
00000010
00001000
,
00000100
00000000
00000001
00000000
00000000
00000100
00000000
00000100
,
00001000
00000000
00010000
00000000
00000000
00100000
00000000
00100000
,
01000000
00000000
20000000
00000000
00000000
30100000
00000000
00100000
,
00010000
00001000
00010000
01000000
00100000
00000000
01000000
00000000
,
00100000
00000000
01000000
00000000
00000000
01000000
00000000
01000000
,
00020000
00000000
00002000
00030000
00000000
00003010
00000000
00000010
,
00000002
00000000
00000200
00000003
00000000
00001300
00000000
00001000
,
00010000
00100000
10000000
01000000
00100000
00000000
00010000
00000000
,
01000000
00000000
00100000
00000000
00000000
00010000
00000000
00010000
,
00002000
00000000
00000200
00003000
00000000
00000310
00000000
00000010
,
00002000
00000000
00020000
00003000
00000000
01030000
00000000
01000000
,
00100000
00010000
00001000
00000100
00000001
00000000
00001000
00000000
,
00000200
00000000
00000001
00000000
00000000
00000001
00000300
00000001
,
00000100
00000000
00000010
00000000
00000000
00000001
00000000
00000000
,
00000100
00001000
00000000
00010000
00100000
00000000
01100000
00000000
,
00100000
10000000
01000000
00010000
01000000
10000000
00100000
00000000
,
02000000
03200000
00320000
00032000
,
00003200
00000320
00000032
00000023
,
00002030
00000000
00023000
00000000
01030000
00100000
01000000
00100000
,
01000000
10000000
01000000
00010000
,
00100000
01000000
00010000
00001000
,
00000100
00000000
00000001
00000000
00000010
00000100
00000010
00000100
,
00000010
00001000
00000001
00000100
,
00000010
00001000
00010000
01000000
,
00100000
00000000
10000000
00000000
00100000
01000000
00100000
01000000
,
00100000
00010000
01000000
00100000
,
10000000
00000000
01000000
00100000
00010000
00100000
01000000
00000000
,
01100000
01010000
00011000
00000000
,
00000010
00000020
00000001
00000031
,
00000100
00000100
00001000
00001000
,
00010000
00010000
10000000
10000000
,
00010000
00010000
00001000
00001000
,
00000010
00000010
00001000
00001000
,
00000010
00000010
00000001
00000001
,
00000100
00000100
00001000
00001000
,
00010000
00010000
00100000
00100000
,
10000000
10000000
01000000
01000000
,
00010000
00010000
00001000
00001000
,
00000010
00000010
00000001
00000001
,
00000110
00000110
00011000
00000000
,
00001000
00000000
00001000
00000000
00001000
00010000
00000000
00010000
,
00100000
00000000
01000000
00000000
00010000
01000000
00000000
01000000
,
10000000
00000000
00100000
00000000
00010000
00001000
00000000
00001000
,
00000001
00000010
00000100
00000000
,
00000010
00000000
00000001
00000000
00000001
00000100
00000000
00000010
,
00001000
00000000
00000100
00000000
00010000
00001000
00000000
00001000
,
00010000
00001000
00000000
00001000
00010000
00001000
01000000
00100000
,
01000000
00100000
10000000
00000000
,
00100000
00000000
00100000
00000000
10000000
01000000
00100000
00000000
,
00010000
00000000
00010000
00000000
00100000
00010000
00001000
00000000
,
00010000
00001000
00000100
00010000
00001000
00100000
01000000
00010000
,
00001000
00000010
00000100
00001000
00000001
00000000
00000000
00000000
,
00000001
00000100
00001000
00000000
00010000
00100000
10000000
00000000
,
10000000
01000000
00010000
00000000
00001000
00000010
00000001
00000000
,
00000010
00001000
00001000
00000100
00001000
00001000
,
00010000
00010000
00100000
02200000
00000000
00000000
,
00000000
00000000
00000000
00000000
00000000
00000000
00000000
00000000
00000000
00000000
00000000
00000000
00000000
00000000
00000000
00000000
00000000
00000000
00000000
00000000
00000000
00000000
00000000
00000000
00000000
00000000
00000000
00000000
00000000
00000000
00000000
00000000
00000000
03300000
00000000
00000000
00000000
00000000
00000000
00000000
00000000
00000000
00000000
00000000
00000000
00000000
00000000
00000000
00010000
00000000
00000000
00000000
00000000
00000000
00000000
00000000
01000000
00000000
00000000
00000000
00000000
00000000
00000000
00000000
,
10000000
00100000
00010000
00000000
00010000
00100000
10000000
01000000
,
00010000
00000000
00001000
00000000
00010000
00000000
00001000
00000010
,
00000001
00000010
00001000
00010000
01000000
00000000
00010000
01000000
,
10000000
01000000
00010000
00000000
00010000
01000000
00100000
10000000
,
01000000
00100000
10000000
00100000
01000000
10000000
00100000
00000000
,
00100000
00010000
00001000
00000100
00000010
00000000
00000010
00000100
,
00001000
00010000
00100000
01000000
10000000
01000000
10000000
01000000
,
00010000
00100000
01000000
00000000
01000000
00100000
00010000
00001000
,
00000100
00000010
00000001
00000000
00000100
00000010
00001000
00000100
,
00010000
00000000
00001000
00000100
00000010
00001000
00000100
00000000
,
00010000
00001000
00000010
00000001
00000100
00000000
00001000
00010000
,
00100000
10000000
01000000
00000000
01000000
10000000
00100000
00010000
,
00001000
00000000
00000100
00000001
00000010
00001000
00010000
00000000
,
00100000
00010000
00001000
00000100
00000001
00000000
00000001
00000100
,
00001000
00010000
01000000
00000000
00100000
00010000
00001000
01000000
,
00100000
00010000
00001000
01000000
00100000
00000000
01100000
00000000
,
10000000
01000000
00000000
01000000
00010000
00000000
00100000
00000000
,
00012000
00000000
00003000
00000120
00000000
00000030
00000100
00000000
,
00000001
00000100
00000000
00000100
00001000
00000000
00000010
00000000
,
00021000
00000000
00030000
01200000
00000000
00300000
01000000
00000000
,
00100000
10000000
00000000
10000000
01000000
00000000
00100000
00000000
,
00010000
01000000
00000000
01000000
00010000
00000000
00100000
00000000
,
00001000
00010000
00000000
00010000
01000000
00000000
10000000
00000000
,
00000000
00000000
00000000
00000001
,
00000100
00000010
00001000
00000100
00000010
00000000
00000100
00000000
,
00001000
00010000
00100000
10000000
01000000
00000000
00100000
00000000
,
00100000
01000000
00001000
00010000
01000000
10000000
00100000
00010000
,
00001000
00000010
00001000
00010000
00001000
00000100
00000001
00000010
,
00000100
00001000
00001000
00010000
00100000
10000000
01000000
00100000
,
10000000
00000000
00000000
00100000
00000000
00000000
00010000
00000000
00000000
00001000
00000000
00000000
00000100
00000000
00000000
00000010
00000000
00000000
00000001
00000000
00000000
00000000
00000011
00000000
,
00000000
00000010
00000000
00000000
00000000
00000000
00000000
00000000
00000000
00010000
00000000
00010100
,
00000000
00000100
00000000
00000000
00000000
00000000
00000000
00000000
00000000
00000011
00000000
00000001
,
00000000
00000010
00000000
00000010
00000000
00001000
00000000
00001010
00000000
00020200
00000000
00000000
,
00000000
00000000
00000000
00000000
,
00000000
00000000
00030300
00000000
,
00000000
00000000
00000000
00000000
;

//---------------dance-single - Edit----------------
#NOTES:
     dance-single:
     :
     Edit:
     18:
     1.189751,1.241492,0.674089,0.195703,0.244629,766.000000,704.000000,62.000000,18.000000,0.000000,0.000000,1.189751,1.241492,0.674089,0.195703,0.244629,766.000000,704.000000,62.000000,18.000000,0.000000,0.000000:
// measure 0
0000
0000
0000
0000
,  // measure 1
0000
0000
0000
0000
,  // measure 2
0000
0000
0000
0000
,  // measure 3
0000
0000
0000
0000
,  // measure 4
0000
0000
0000
0000
,  // measure 5
1010
0000
0101
0000
1000
0100
0000
0010
,  // measure 6
0002
0100
1000
0100
,  // measure 7
0013
0100
0001
0010
0100
1000
0010
0100
,  // measure 8
0001
0000
0101
0000
1010
0000
1000
0100
,  // measure 9
0010
0000
0001
0010
0100
0000
1000
0010
,  // measure 10
0100
0000
0001
1000
0100
0000
0010
0001
,  // measure 11
1000
0000
0100
0010
1000
0000
0010
0001
,  // measure 12
0020
0000
1000
0000
0130
0000
0001
1000
,  // measure 13
0100
0010
0001
0010
0100
1000
0100
0010
,  // measure 14
0100
1000
0010
0100
0001
0010
0100
0010
,  // measure 15
0001
0010
1000
0000
1000
0010
0001
0000
,  // measure 16
0100
0010
0100
0010
1000
0001
1000
0001
,  // measure 17
1000
0010
0000
0000
1000
0000
0010
0000
0100
0000
0001
0000
0010
0000
0001
0000
,  // measure 18
0100
0001
0000
0000
0010
0000
0001
0000
0100
0000
0010
0000
1000
0000
0001
0000
,  // measure 19
0010
0100
0000
0000
0010
0000
0100
0000
0001
0000
1000
0000
0100
0000
0010
0000
,  // measure 20
1000
0101
0011
1100
,  // measure 21
1000
0010
0000
0000
0100
0000
0010
0000
0001
0000
0010
0000
1000
0000
0001
0000
,  // measure 22
0100
0001
0000
0000
1000
0000
0001
0000
0010
0000
0100
0000
1000
0000
0001
0000
,  // measure 23
0100
0001
0000
0000
1000
0000
0100
0000
0010
0000
0001
0000
0100
0000
1000
0000
,  // measure 24
0100
0110
0011
1001
,  // measure 25
0001
0010
0000
0000
0001
0000
0010
0000
0100
0000
1000
0000
0010
0000
0100
0000
,  // measure 26
1000
0100
0000
0000
1000
0000
0100
0000
0010
0000
0100
0000
0001
0000
1000
0000
,  // measure 27
0100
0010
0000
0000
0100
0000
0010
0000
1000
0000
0001
0000
0010
0000
0100
0000
,  // measure 28
0010
0100
0000
0000
0010
0000
1000
0000
0001
0000
0100
0000
0010
0000
1000
0000
,  // measure 29
0100
0010
1000
0001
0010
0100
1000
0100
,  // measure 30
0010
0001
0100
0010
1000
0001
0010
0100
,  // measure 31
1000
0000
0000
1100
0000
0000
1001
0000
,  // measure 32
0010
0000
0100
0000
0010
0000
0001
0000
0100
0010
0100
0000
0010
0000
1000
0000
,  // measure 33
0001
0100
0001
0010
0001
0100
0001
0010
,  // measure 34
0001
0100
0001
0010
1000
0100
1000
0010
,  // measure 35
1000
0100
1000
0010
1000
0100
1000
0010
,  // measure 36
1000
0100
1000
0010
1000
0100
0010
0001
,  // measure 37
0100
0010
1000
0001
0010
0100
2000
0000
,  // measure 38
0100
0000
0010
0000
3001
0000
0010
1000
,  // measure 39
0100
1000
0010
1000
0100
1000
0010
1000
,  // measure 40
0100
1000
0010
1000
0100
1000
0010
0001
,  // measure 41
0100
1000
0100
0010
1000
0100
0010
0001
,  // measure 42
0100
0010
0001
0010
0100
0001
0010
0001
,  // measure 43
0100
0010
0001
0010
0100
0001
0010
0001
,  // measure 44
0100
0010
0001
0010
0100
0001
0010
0001
,  // measure 45
0100
0010
0100
0000
1000
0100
0001
0100
,  // measure 46
1000
1010
0101
0011
,  // measure 47
1100
1010
0011
1001
,  // measure 48
1000
0100
0010
0001
0100
0010
1000
0001
,  // measure 49
0010
0100
1000
0001
0100
0010
1000
0100
,  // measure 50
0010
0001
0100
0010
1000
0001
0010
0100
,  // measure 51
1000
0010
0100
0000
0010
1000
0001
0100
,  // measure 52
0010
0101
1010
1100
,  // measure 53
0011
1001
1100
0110
,  // measure 54
0010
0001
0100
0010
1000
0100
0010
0001
,  // measure 55
0100
0010
1000
0001
0100
0010
1000
0001
,  // measure 56
0020
0000
0130
0000
,  // measure 57
1001
0000
0100
0001
0000
0100
0010
0001
,  // measure 58
0011
0000
0100
0010
0000
0001
0010
1000
,  // measure 59
1010
0000
0010
0100
0000
1000
0100
0010
,  // measure 60
0110
1001
0220
0330
,  // measure 61
1010
0000
0010
0100
0000
0001
1000
0100
,  // measure 62
0110
0000
0001
0010
0000
1000
0010
0100
,  // measure 63
0101
0000
0001
0010
0000
0001
0010
1000
,  // measure 64
1001
0110
2002
3003
,  // measure 65
1010
0000
0100
0001
0000
0100
0010
0001
,  // measure 66
1001
0000
0001
0100
0000
0001
0010
0100
,  // measure 67
1100
0000
0100
0010
0000
0100
0010
0001
,  // measure 68
0101
0011
2200
3300
,  // measure 69
0100
0010
0001
0100
0010
1000
0100
0010
,  // measure 70
1000
0001
0010
1000
0001
0010
0100
0001
,  // measure 71
0011
0000
0011
0000
0101
0000
0101
0000
1100
0000
1100
0000
,  // measure 72
1000
0000
0010
0000
2000
0000
0002
0000
0000
0000
0000
0000
,  // measure 73
0000
0000
0000
0000
0000
0000
0000
0000
0000
0000
0000
0000
3003
0000
0000
0000
0001
0000
0010
0000
0000
0100
0000
0000
,  // measure 74
1000
0010
0100
0001
1000
0100
0010
0001
,  // measure 75
0100
0010
1000
0001
0010
0100
1000
0001
,  // measure 76
0100
0010
1000
0100
0010
0001
0100
0010
,  // measure 77
1000
0001
0010
0100
1000
0010
0100
0001
,  // measure 78
1000
0100
0010
0001
0100
0010
1000
0001
,  // measure 79
0010
0100
1000
0010
0100
0001
1000
0100
,  // measure 80
0010
0001
0100
0010
1000
0001
0100
1000
,  // measure 81
0100
0001
0100
0010
1000
0001
0010
0100
,  // measure 82
1000
0010
0100
0001
1000
0100
0010
0001
,  // measure 83
0100
0010
1000
0001
0010
0100
1000
0010
,  // measure 84
0100
0001
1000
0100
0010
0001
0100
1000
,  // measure 85
0010
0000
0000
0001
0000
0000
0100
0000
0000
1000
0000
0000
0010
0000
0000
0100
0000
0000
0001
0000
0010
0000
0100
0000
,  // measure 86
1000
0000
0100
0000
0010
0000
0001
0000
0000
0100
0000
0000
0010
0000
0000
1000
0000
0000
0010
0000
0000
0001
0000
0000
,  // measure 87
0100
1000
0100
0001
0010
1000
0001
0100
,  // measure 88
0010
1000
0100
0010
0001
0100
0010
1000
,  // measure 89
0001
0010
0100
0010
1000
0100
0010
0001
,  // measure 90
1000
0001
0000
0001
0100
0000
0101
0000
,  // measure 91
0001
0010
0001
0000
0010
0000
0100
1000
0100
0000
1000
0000
0100
0000
1000
0000
,  // measure 92
0010
0100
0000
0010
0100
0000
1100
0000
,  // measure 93
1000
0010
1000
0000
0010
0000
0100
0001
0100
0000
0001
0000
0010
0000
0001
0000
,  // measure 94
0100
0010
1000
0100
0010
0001
0100
0010
,  // measure 95
1000
0001
1000
0000
0001
0000
0010
0100
0010
0000
1000
0000
0010
0000
0100
0000
,  // measure 96
0001
0010
0100
1000
0010
0100
0001
1000
,  // measure 97
1010
0000
0000
0000
0000
0000
0010
0100
,  // measure 98
1000
0001
1000
0000
0010
0000
0100
0000
1000
0000
0010
0000
0100
0000
0001
0000
,  // measure 99
1000
0100
1000
0000
0100
0000
1000
0000
0100
0000
0001
0000
0100
0000
1000
0000
,  // measure 100
0100
0001
0100
0000
1000
0000
0100
0000
0001
0000
0100
0000
1000
0000
0100
0000
,  // measure 101
0001
0100
0001
0000
0100
0000
1000
0000
0100
0000
0001
0000
0100
0000
1000
0000
,  // measure 102
0100
0001
0100
0000
1000
0000
0100
0000
0001
0000
0100
0000
1000
0000
0100
0000
,  // measure 103
0001
0000
0000
0010
0000
0000
0100
0000
0000
0010
0000
0000
1000
0000
0000
0100
0000
0000
0110
0000
0010
0000
0100
0000
,  // measure 104
0000
0220
0000
0000
0000
0330
0000
0000
0000
1001
1000
0001
,  // measure 105
0000
2002
0000
0000
0000
3003
0000
0000
0000
0011
0010
0100
,  // measure 106
0000
1100
0000
1010
0010
0100
0000
0101
0000
2002
0000
0000
,  // measure 107
0000
0000
0000
0000
,  // measure 108
0000
0000
0000
3003
;
