#VERSION:0.83;
#TITLE:Lupin the 3rd '78;
#SUBTITLE:;
#ARTIST:VENTURA;
#TITLETRANSLIT:;
#SUBTITLETRANSLIT:;
#ARTISTTRANSLIT:;
#GENRE:;
#ORIGIN:;
#CREDIT:;
#BANNER:Lupin the 3rd '78.png;
#BACKGROUND:Lupin the 3rd '78-bg.png;
#PREVIEWVID:;
#JACKET:Lupin the 3rd '78-jacket.png;
#CDIMAGE:;
#DISCIMAGE:;
#LYRICSPATH:;
#CDTITLE:;
#MUSIC:Lupin the 3rd '78.ogg;
#OFFSET:0.000000;
#SAMPLESTART:17.000000;
#SAMPLELENGTH:15.000000;
#SELECTABLE:YES;
#DISPLAYBPM:150.000000;
#BPMS:0.000=149.998;
#STOPS:;
#DELAYS:;
#WARPS:;
#TIMESIGNATURES:0.000=4=4;
#TICKCOUNTS:0.000=4;
#COMBOS:0.000=1;
#SPEEDS:0.000=1.000=0.000=0;
#SCROLLS:0.000=1.000;
#FAKES:;
#LABELS:0.000=Song Start;
#BGCHANGES:;
#KEYSOUNDS:;
#ATTACKS:
;

//---------------dance-single - ----------------
#NOTEDATA:;
#CHARTNAME:;
#STEPSTYPE:dance-single;
#DESCRIPTION:;
#CHARTSTYLE:;
#DIFFICULTY:Easy;
#METER:5;
#RADARVALUES:0.220623,0.338295,0.127809,0.021302,0.000000,145.000000,133.000000,12.000000,2.000000,0.000000,0.000000,0.000000,0.000000,0.000000,0.220623,0.338295,0.127809,0.021302,0.000000,145.000000,133.000000,12.000000,2.000000,0.000000,0.000000,0.000000,0.000000,0.000000;
#CREDIT:;
#DISPLAYBPM:150.000000;
#NOTES:
0000
0000
0000
0000
,
0000
0000
0000
0000
,
0000
0000
0000
0000
,
1000
1000
1000
1000
,
0001
0100
0001
0100
,
1000
1000
1000
1000
,
0010
0001
0100
1000
,
0010
0010
0010
1001
,
0100
0100
0100
1001
,
0010
0100
1000
0001
,
0110
0000
0000
0000
,
0001
0001
0000
0000
,
1000
1000
0000
0000
,
0001
0001
0000
0000
,
1000
1000
0000
0000
,
0001
0100
0100
0000
,
1000
0010
0010
0100
,
0001
0010
0010
0000
,
0100
1000
0001
0100
,
0010
1000
0100
0000
,
1000
1000
0000
0000
,
0001
0001
0000
0000
,
1000
1000
0000
0000
,
0001
0001
0000
0000
,
1000
0010
0010
0000
,
0001
0100
0010
1000
,
0100
0010
0010
0000
,
1001
0110
1001
0000
,
0001
0100
0000
0000
,
1000
0100
0000
0000
,
0001
0010
0000
0000
,
0100
0000
1000
0000
,
0001
0001
0000
0000
,
1000
1000
0000
0000
,
0010
0000
0100
0000
,
1001
0000
0000
0000
,
0110
0000
0000
0000
,
1000
1000
0000
0000
,
0001
0001
0000
0000
,
1000
1000
0000
0000
,
0001
0001
0000
0000
,
0100
0010
1000
0000
,
0001
0100
0010
1000
,
0001
0010
0100
0000
,
1001
0000
0000
0000
,
0010
0100
1000
0001
,
0110
0000
0000
0000
,
0001
1000
0100
0010
,
0001
0001
1000
1000
,
0100
0010
0001
0000
,
1000
0000
0000
0000
,
0000
0000
0000
0000
,
1000
0000
0000
0000
,
0000
0000
0000
0000
,
1000
0000
0000
0000
,
0100
0000
0000
0000
,
0010
0000
0000
0000
,
1001
2200
0000
3300
;

//---------------dance-single - ----------------
#NOTEDATA:;
#CHARTNAME:;
#STEPSTYPE:dance-single;
#DESCRIPTION:;
#CHARTSTYLE:;
#DIFFICULTY:Medium;
#METER:9;
#RADARVALUES:0.418423,0.492065,0.159761,0.021302,0.000000,275.000000,260.000000,15.000000,2.000000,0.000000,0.000000,0.000000,0.000000,0.000000,0.418423,0.492065,0.159761,0.021302,0.000000,275.000000,260.000000,15.000000,2.000000,0.000000,0.000000,0.000000,0.000000,0.000000;
#CREDIT:;
#DISPLAYBPM:150.000000;
#NOTES:
0000
0000
0000
0000
,
0000
0000
0000
0000
,
0000
0000
0000
0000
,
1000
0100
1000
0000
0001
0000
0001
0000
,
0100
0010
0000
0100
0000
0100
0000
0100
,
0001
0010
0001
0000
1000
0000
1000
0000
,
0010
0100
0000
0010
0000
0010
0000
0010
,
1000
0100
0010
0000
0001
0000
0001
0000
,
1000
0010
0100
0000
0001
0000
0001
0000
,
1000
0100
0000
0010
0000
0010
0000
0001
,
0001
0000
0000
0000
,
1000
0010
0100
0001
0000
0001
0000
0001
,
1000
0100
0010
0001
0000
0001
0000
0001
,
0100
0010
1000
0100
0000
0100
0000
0100
,
0010
0001
1000
0100
0000
0010
0001
1000
,
0100
0000
1001
0000
0100
0010
1000
0100
,
0010
0000
1001
0000
0100
0010
1000
0001
,
0100
1001
0100
0010
,
0100
0100
0100
0100
,
0010
0000
0001
1000
0100
0000
0000
0000
,
0010
0001
0100
0010
0000
0010
0000
0010
,
1000
0100
0010
0001
0000
0001
0000
0001
,
1000
0010
0100
0001
0000
0001
0000
0001
,
0010
0100
1000
0001
0000
0100
0010
1000
,
0100
0000
1001
0000
0100
0010
1000
0001
,
0100
0000
1001
0000
0010
0100
0001
0010
,
0100
1001
0100
0010
,
1000
0000
0100
0010
0001
0000
0000
0000
,
1000
0000
1000
0000
1000
0000
0010
0100
,
0001
0000
0001
0000
0001
0000
1000
0100
,
0010
0000
0010
0000
0010
0000
0001
0100
,
0010
0010
0010
1001
,
0100
0010
0100
0000
0000
0000
1001
0000
,
0010
0100
0010
0000
0000
0000
1001
0000
,
0100
0010
1000
0100
,
0010
0001
0100
0000
0010
0000
1000
0001
,
0010
0000
0000
0000
,
0100
1000
0001
0000
0100
0000
0010
1000
,
0100
0000
0010
0000
0001
0000
1000
0100
,
0010
0000
0001
0000
1000
0000
0100
0010
,
1000
0000
0001
0010
0100
0000
1000
0000
,
1000
0000
0001
0000
0001
0000
0010
0100
,
1000
0000
0001
0000
0100
0000
0010
1000
,
0001
0010
0100
1000
,
1001
0000
0000
0000
,
1000
0100
0010
0000
0001
0100
0010
0000
,
1001
0000
0000
0000
,
0100
0010
0001
0000
0100
0010
1000
0000
,
0001
0100
1000
0100
,
0010
0000
0001
0100
0010
0000
0000
0000
,
1000
0000
1000
0000
0001
0100
0010
0000
,
0001
0100
0010
0000
1000
0000
1000
0000
,
0001
0000
0010
0000
0100
1000
0100
0000
,
0010
0001
0010
0000
0100
0000
0100
0000
,
0010
1000
0001
0000
0110
0000
0000
0000
,
1000
0010
0100
0000
1001
0000
0000
0000
,
0010
0000
0100
0000
1000
0100
0001
0000
,
1001
0022
0000
0033
;

//---------------dance-single - ----------------
#NOTEDATA:;
#CHARTNAME:;
#STEPSTYPE:dance-single;
#DESCRIPTION:;
#CHARTSTYLE:;
#DIFFICULTY:Hard;
#METER:14;
#RADARVALUES:0.610137,0.615081,0.127809,0.021302,0.404729,401.000000,389.000000,12.000000,2.000000,0.000000,0.000000,0.000000,0.000000,0.000000,0.610137,0.615081,0.127809,0.021302,0.404729,401.000000,389.000000,12.000000,2.000000,0.000000,0.000000,0.000000,0.000000,0.000000;
#CREDIT:;
#DISPLAYBPM:150.000000;
#NOTES:
0000
0000
0000
0000
,
0000
0000
0000
0000
,
0000
0000
0000
0000
,
1000
0100
1000
0100
1000
0000
0000
0000
0001
0000
0010
0000
0100
0000
0000
0000
,
1000
0010
1000
0010
1000
0000
0000
0000
0100
0000
0010
0000
0001
0000
0000
0000
,
0100
0010
0100
0010
0100
0000
0000
0000
0001
0000
1000
0000
0100
0000
0000
0000
,
0010
0001
0010
0001
0010
0000
0000
0000
0100
1000
0100
1000
0100
0000
0000
0000
,
0001
0100
0001
0100
0001
0000
0000
0000
0010
0000
1000
0000
0100
0000
0000
0000
,
0010
0001
0010
0001
0010
0000
0000
0000
0100
0000
1000
0000
0001
0000
0000
0000
,
0010
0100
0000
1000
0001
0000
0010
0100
0000
1000
0001
0000
0010
0000
0100
0000
,
1001
0000
0000
0000
,
1000
0100
0000
0010
0100
0000
1000
0000
0001
0000
0100
0000
0010
0000
0000
0000
,
1000
0100
0000
0010
0001
0000
1000
0000
0010
0000
0100
0000
0001
0000
0000
0000
,
0010
0100
0000
1000
0010
0000
0100
0000
0001
0000
1000
0000
0100
0000
0000
0000
,
0010
0001
0000
1000
0100
0000
0010
0000
0001
0000
1000
0000
0010
0000
0000
0000
,
0100
0001
0000
1000
0100
0000
0000
0000
0010
0000
0001
0000
1000
0000
0000
0000
,
0010
0100
0000
0001
1000
0000
0000
0000
0100
0000
0010
0000
0001
0000
0000
0000
,
1000
0010
0000
0100
0001
0000
0010
0000
0100
0000
1000
0000
0001
0000
0000
0000
,
0010
0100
0000
0000
1000
0010
0000
0000
0100
0000
0001
0000
0010
0000
0000
0000
,
0100
1000
0000
0000
0001
0100
0000
0000
0010
0000
0000
0000
0000
0000
0000
0000
,
1000
0000
0100
0000
0010
0001
0010
0000
0100
0000
1000
0000
0001
0000
0000
0000
,
0100
0000
0010
0000
1000
0100
1000
0000
0001
0000
0010
0000
0100
0000
0000
0000
,
1000
0000
0001
0000
0100
0010
0100
0000
0001
0000
1000
0000
0100
0000
0000
0000
,
0010
0000
0001
0000
1000
0100
1000
0000
0010
0000
0100
0000
0001
0000
0000
0000
,
1000
0000
0100
0000
0010
0001
0010
0000
0100
0000
0000
0000
1001
0000
0000
0000
,
0100
0000
0010
0000
1000
0100
1000
0000
0001
0000
0000
0000
0110
0000
0000
0000
,
1000
0000
0001
0000
0010
0100
0010
0000
0001
0000
0000
0000
0101
0000
0000
0000
,
1100
0000
0000
1010
0000
0000
0101
0000
0000
0000
0000
0000
0000
0000
0000
0000
,
1000
0100
0010
0001
0000
0001
0100
0010
,
1000
0100
0010
0001
0000
0001
0100
1000
,
0100
0001
0010
0100
0000
0100
1000
0001
,
0100
0010
1000
0100
0010
0001
0001
0100
,
0010
1000
0100
0010
0001
0100
0010
0100
,
0001
0010
0001
0100
0010
1000
0100
0010
,
0001
1000
0010
0100
0001
1000
0100
0010
,
0001
0100
0000
0000
0000
0000
1000
0100
0000
0000
0000
0000
0001
0100
0000
0001
,
0010
0000
0000
0000
,
1000
0000
0100
0000
0010
0001
0000
0001
0100
0000
0010
0000
1000
0000
0001
0000
,
0010
0000
0100
0000
1000
0010
0000
0010
0100
0000
0001
0000
1000
0000
0000
0000
,
0100
0000
0100
0000
0010
0001
0000
0001
1000
0000
0010
0000
0100
0000
0001
0000
,
0010
0000
0100
0000
1000
0001
0000
0001
0100
0000
0010
0000
1000
0000
0000
0000
,
0001
0000
0001
0000
0001
0100
0000
0001
0100
0000
0000
0000
0010
0000
0000
0000
,
1000
0000
1000
0000
0100
1000
0000
0100
1000
0000
0000
0000
0001
0000
0000
0000
,
0100
0010
1000
0100
0010
0001
1000
0010
,
0100
0000
0100
0000
0100
0001
0010
0100
,
1000
0001
0000
0000
0100
0000
0000
0000
1000
0001
0000
0000
0100
0000
0000
0000
,
0010
0000
0010
0000
0010
1000
0100
0010
,
0001
1000
0000
0000
0100
0000
0000
0000
0001
1000
0000
0000
0100
0000
0000
0000
,
0010
0000
0001
0000
0100
0010
0000
0000
1000
0000
0100
0000
0010
0001
0000
0000
,
1000
0010
0100
0001
1100
0000
0000
0000
,
0001
0000
0001
0000
0100
0010
0000
0000
1000
0000
0100
0000
0010
0000
0000
0000
,
0001
0000
0001
0000
1000
0100
0000
0000
0010
0000
0001
0000
0100
0000
0010
0000
,
1000
0000
1000
0000
0100
0010
0000
0000
0001
0000
0100
0000
0010
0000
0000
0000
,
1000
0000
1000
0000
0001
0100
0000
0000
0010
0000
1000
0000
0100
0000
0010
0000
,
0001
0000
0001
0000
1000
0100
0000
0000
1001
0000
0000
0000
0000
0000
0000
0000
,
0100
0000
0100
0000
0001
0010
0000
0000
1100
0000
0000
0000
0000
0000
0000
0000
,
0001
0100
0000
0001
1000
0000
0001
0100
0000
0001
1000
0000
0100
0000
0010
0000
,
1001
0220
0000
0330
;

//---------------dance-double - ----------------
#NOTEDATA:;
#CHARTNAME:;
#STEPSTYPE:dance-double;
#DESCRIPTION:;
#CHARTSTYLE:;
#DIFFICULTY:Easy;
#METER:4;
#RADARVALUES:0.231274,0.274390,0.021302,0.000000,0.000000,152.000000,150.000000,2.000000,0.000000,0.000000,0.000000,0.000000,0.000000,0.000000,0.231274,0.274390,0.021302,0.000000,0.000000,152.000000,150.000000,2.000000,0.000000,0.000000,0.000000,0.000000,0.000000,0.000000;
#CREDIT:;
#DISPLAYBPM:150.000000;
#NOTES:
00000000
00000000
00000000
00000000
,
00000000
00000000
00000000
00000000
,
00000000
00000000
00000000
00000000
,
10000000
00000000
00010000
00000000
,
01000000
10000000
00010000
00000000
,
00001000
00000000
00000001
00000000
,
00000100
00000000
00000100
00000100
,
00010000
00001000
00100000
00000000
,
00010000
00000100
00000001
00000000
,
00000100
00000000
00010000
00001000
,
00000100
00001001
00000000
00000000
,
00000100
00010000
01000000
00001000
,
00000100
00000010
00000001
00001000
,
00000010
00010000
00100000
00001000
,
00000010
00000100
00000001
00001000
,
00000100
00010000
00010000
00000000
,
00001000
01000000
01000000
00000000
,
00100000
10000000
01000000
00100000
,
00001000
00001000
00001000
00001000
,
00010000
00010000
00010000
00000000
,
00000010
00000001
00000000
00001000
,
01000000
10000000
00100000
00000000
,
00010000
00001000
00000000
00000010
,
00000001
00001000
00000100
00000000
,
00010000
00100000
00100000
00001000
,
00000100
00000100
00000010
00000000
,
00000001
00001000
00000100
00010000
,
01000000
10000000
00010000
00000000
,
01000000
00001000
00000000
00000000
,
00000010
00010000
00000000
00000000
,
00100000
00001000
00000000
00000000
,
00000100
00000000
00000001
00001000
,
00000100
00010000
00000000
00000000
,
00100000
00001000
00000000
00000000
,
00000001
00000000
00001000
00000000
,
00000100
00000100
00000100
00010000
,
00100000
00000000
00000000
00000000
,
10000000
10000000
00010000
00010000
,
01000000
00001000
00000010
00000000
,
00000001
00000001
00001000
00001000
,
00000010
00010000
01000000
00000000
,
10000000
00100000
01000000
00000000
,
00010000
00100000
01000000
00000000
,
00010000
00000000
00001000
00000000
,
00000100
00000000
00000000
00000000
,
00000001
00000001
00001000
00001000
,
00000100
00000000
00000000
00000000
,
00010000
00010000
00001000
00001000
,
00100000
00000000
01000000
00000000
,
10000000
00010000
01000000
00000000
,
00001000
00000000
00000000
00000000
,
00000000
00000000
00010000
01000000
,
10000000
00000000
00000000
00000000
,
00000000
00000000
00100000
00010000
,
00001000
00000000
00000000
00000000
,
00000010
00000000
00000000
00000000
,
00000001
00000000
00001000
00100000
,
01000000
10010000
00000000
00000000
;

//---------------dance-double - ----------------
#NOTEDATA:;
#CHARTNAME:;
#STEPSTYPE:dance-double;
#DESCRIPTION:;
#CHARTSTYLE:;
#DIFFICULTY:Medium;
#METER:5;
#RADARVALUES:0.360604,0.396341,0.074555,0.000000,0.000000,237.000000,230.000000,7.000000,0.000000,0.000000,0.000000,0.000000,0.000000,0.000000,0.360604,0.396341,0.074555,0.000000,0.000000,237.000000,230.000000,7.000000,0.000000,0.000000,0.000000,0.000000,0.000000,0.000000;
#CREDIT:;
#DISPLAYBPM:150.000000;
#NOTES:
00000000
00000000
00000000
00000000
,
00000000
00000000
00000000
00000000
,
00000000
00000000
00000000
00000000
,
10000000
01000000
00010000
00000000
00010000
00001000
00000100
00000000
,
00000010
00000000
00000010
00000000
00001000
00000100
00010000
00000000
,
00001000
00000010
00000001
00000000
00000001
00000100
00001000
00000000
,
00001000
00000000
00010000
00000000
01000000
10000000
00010000
00000000
,
01000000
00001000
00010000
00000000
00000010
00000000
00000000
00000000
,
00000100
00000000
00010000
00001000
00100000
00000000
00000000
00000000
,
00010000
00000000
10000000
00000000
00100000
00000000
00010000
00001000
,
00000010
00001001
00000000
00000000
,
00000100
00000000
00010000
00001000
00000000
00001000
00000000
00000000
,
00100000
00000000
00010000
01000000
00000000
01000000
00000000
00000000
,
00100000
00000000
10000000
01000000
00000000
01000000
00000000
00000000
,
00100000
00010000
00000000
10000000
00000000
00100000
01000000
00001000
,
00010000
00000000
00011000
00000000
00000000
00000100
00000010
00000001
,
00001000
00000000
00001001
00000000
00000000
00000000
00000100
00001000
,
00010000
00000000
00011000
00000000
00000000
00000000
00100000
01000000
,
10000000
10000000
10000000
10000000
,
00010000
00010000
00010000
00000000
,
00100000
00001000
00010000
00000100
00000000
00000000
00000010
00000000
,
00000001
00000100
00000010
00001000
,
00000100
00010000
00001000
00100000
00000000
00000000
00010000
00000000
,
10000000
01000000
01000000
00100000
,
00001000
00000000
00010000
00000010
00010000
00000000
00001000
00000000
,
00010000
00000000
00001000
01000000
00001000
00000000
00010000
00000000
,
00001000
00000000
00100000
00010000
00100000
00000000
00001000
00000000
,
00010000
00010000
00010000
00000000
,
00000000
00000000
00000010
00000000
00000000
00000001
00000000
00000001
,
00000000
00000000
00000010
00000000
00000000
00001000
00000000
00001000
,
00000000
00000000
00000100
00000000
00000000
00010000
00000000
00010000
,
00000000
00001000
00000000
00000010
00000000
00000001
00000000
00001000
,
00000000
00000100
00000000
00000100
00000000
00010000
00000000
00010000
,
00000000
00000010
00000000
00000010
00000000
00000001
00000000
00000001
,
00000000
00000010
00000000
00001000
00000000
00100000
00000000
10000000
,
01000000
01000000
01000000
00100000
,
10010000
00000000
00000000
00000000
,
00100000
00000000
00001000
00000010
00000000
00000010
00000000
00000000
,
00000001
00001000
00000100
00010000
00000000
00010000
00000000
00000000
,
00000010
00000000
00001000
00000100
00000000
00000100
00000000
00000000
,
00010000
00001000
00010000
00100000
00000000
00100000
00000000
00000000
,
10000000
00000000
01000000
00100000
01000000
00000000
00010000
00000000
,
00001000
00010000
00001000
00000000
00000100
00000000
00000001
00000000
,
00000001
00000010
00000100
00000000
00001000
00000010
00000100
00000000
,
00000001
00000000
00001000
00000000
00000100
00000000
00010000
00001000
,
00000000
00100000
00000000
00100000
00000000
00100000
00000000
00100000
,
00001000
00000000
00000010
00000000
00000001
00000000
00001000
00000100
,
00000000
00010000
00000000
00010000
00000000
00010000
00000000
00010000
,
00010000
00000000
01000000
00000000
,
10000000
00100000
01010000
00000000
,
00001000
00001000
00001000
00001000
,
00010000
00000000
00001000
00000000
00000010
00000001
00000100
00000000
,
00000010
00000010
00000010
00000010
,
00001000
00000100
00010000
00000000
00000010
00000100
00001000
00000000
,
00010000
01000000
10000000
00000000
,
00100000
00010000
00001000
00000000
,
00000010
00000000
00001000
00000000
00010000
00000000
00100000
10000000
,
00010000
01100000
00000000
00000000
;

//---------------dance-double - ----------------
#NOTEDATA:;
#CHARTNAME:;
#STEPSTYPE:dance-double;
#DESCRIPTION:;
#CHARTSTYLE:;
#DIFFICULTY:Hard;
#METER:8;
#RADARVALUES:0.534060,0.518293,0.085206,0.000000,0.079881,351.000000,343.000000,8.000000,0.000000,0.000000,0.000000,0.000000,0.000000,0.000000,0.534060,0.518293,0.085206,0.000000,0.079881,351.000000,343.000000,8.000000,0.000000,0.000000,0.000000,0.000000,0.000000,0.000000;
#CREDIT:;
#DISPLAYBPM:150.000000;
#NOTES:
00000000
00000000
00000000
00000000
,
00000000
00000000
00000000
00000000
,
00000000
00000000
00000000
00000000
,
10000000
01000000
00100000
00010000
01000000
00001000
00010000
01000000
,
10000000
00010000
01000000
00100000
10000000
00010000
01000000
00001000
,
00010000
00000010
00001000
00000100
00000010
00000001
00001000
00000010
,
00000100
00000001
00000010
00000100
00000001
00000100
00010000
00001000
,
00100000
00001000
00010000
00000100
00001000
00000000
00000000
00000000
,
00000010
00010000
00001000
01000000
00010000
00000000
00000000
00000000
,
10000000
01000000
00000000
00010000
01000000
00000000
00001000
00010000
00000000
00000010
00001000
00000000
00000001
00000000
00000010
00000000
,
00000100
00001001
00000000
00000000
,
00000010
00000100
00010000
00001000
00000010
00000001
00000100
00000010
,
00001000
00000100
00010000
00001000
00100000
10000000
00100000
00010000
,
01000000
00100000
10000000
01000000
00100000
00001000
00000010
00000001
,
00001000
00000010
00000100
00000001
00000010
00000100
00001000
00000000
,
00000000
00010000
00010000
00010000
00010000
00000000
00000000
00000000
,
00000000
01000000
01000000
01000000
01000000
00000000
00000000
00000000
,
00000000
10000000
10000000
10000000
10000000
00000000
00100000
00000000
,
01000000
00010000
00000010
00001000
00010000
00100000
10000000
00010000
,
00100000
00001000
00000010
00000001
00001000
00000000
00000000
00000000
,
00000100
00010000
00001000
00100000
01000000
00010000
00001000
00000100
,
00000001
00001000
00000100
00010000
00001000
00100000
00010000
01000000
,
00001000
00010000
00000010
00001000
00000100
00010000
00001000
00100000
,
00010000
01000000
00100000
10000000
01000000
00100000
00010000
00000000
,
00000000
01000000
01000000
01000000
01000000
00000000
00000000
00000000
,
00000000
00001000
00001000
00001000
00001000
00000000
00000000
00000000
,
00000000
00000100
00000100
00000100
00000100
00000000
00000010
00000000
,
00001001
00000000
00000000
00000110
00000000
00000000
00001001
00000000
00000000
00000000
00000000
00000000
00000000
00000000
00000000
00000000
,
00000100
00000100
00010000
00000000
00000000
00100000
10000000
01000000
,
00010000
00010000
00001000
00000000
00000000
00000010
00000001
00000100
,
00001000
00001000
00010000
00000000
00000000
00000010
00000001
00000010
,
00001000
00000100
00010000
00001000
00000010
00000001
00001000
00000100
,
00010000
00010000
00010000
00000000
00000000
00001000
00000000
00010000
,
00100000
00100000
10000000
00000000
00000000
01000000
00000000
00010000
,
00001000
00000000
00000100
00000000
00000001
00000000
00000010
00000100
,
00001000
00000001
00000000
00000000
00000000
00000000
00000100
00010000
00000000
00000000
00000000
00000000
00001000
01000000
00000000
00100000
,
00010000
00000000
00000000
00000000
,
10000000
01000000
00100000
00001000
00010000
00100000
10000000
00010000
,
01000000
00001000
00000100
00000001
00000010
00000100
00001000
00000010
,
00010000
00001000
01000000
00100000
10000000
00010000
00100000
01000000
,
00010000
00001000
00000100
00000001
00000010
00000100
00001000
00000000
,
00000000
01000000
01000000
01000000
01000000
00000000
00000000
00000000
,
00000000
10000000
10000000
10000000
10000000
00000000
00000000
00000000
,
00000000
00010000
00010000
00010000
00010000
00000000
00000100
00000000
,
00000001
00000010
00000100
00001000
00000010
00000100
00000001
00001000
,
00000100
00010000
00001000
00100000
10000000
00100000
00010000
00000000
,
01000000
00001000
00010000
00000010
00000001
00000010
00001000
00000100
,
00010000
00001000
00000010
00000001
00000100
00000010
00001000
00000000
,
00010000
00001000
00000000
00000000
00000000
00000000
00000000
00000000
10000000
00010000
00000000
00000000
00000000
00000000
00000000
00000000
,
11000000
01010000
00011000
00000000
,
00000010
00000001
00000010
00001000
00000100
00010000
00001000
00000010
,
00000001
00000100
00001000
00010000
01000000
10000000
00010000
01000000
,
00100000
10000000
00100000
00010000
00001000
00000010
00000001
00000100
,
00000010
00001000
00000100
00000010
00000001
00001000
00000100
00000000
,
00010000
00001000
00100000
00010000
00000010
00000000
00000001
00000000
,
00000100
00001000
00010000
01000000
10000000
00000000
00010000
00000000
,
01000000
00001000
00000000
00010000
00000010
00000000
00001000
00100000
00000000
00010000
00000100
00000000
00001000
00000000
00000010
00000000
,
00000100
00001001
00000000
00000000
;

//---------------dance-couple - ----------------
#NOTEDATA:;
#CHARTNAME:;
#STEPSTYPE:dance-couple;
#DESCRIPTION:;
#CHARTSTYLE:;
#DIFFICULTY:Challenge;
#METER:7;
#RADARVALUES:0.301264,0.546384,0.117158,0.000000,0.101182,198.000000,187.000000,11.000000,0.000000,0.000000,0.000000,0.000000,0.000000,0.000000,0.301264,0.516029,0.117158,0.000000,0.101182,198.000000,187.000000,11.000000,0.000000,0.000000,0.000000,0.000000,0.000000,0.000000;
#CREDIT:;
#DISPLAYBPM:150.000000;
#NOTES:
00000000
00000000
00000000
00000000
,
00000000
00000000
00000000
00000000
,
00000000
00000000
00000000
00000000
,
10000001
10000000
10000000
10000000
,
00010001
01000000
00010000
01000000
,
10001000
00001000
00001000
00001000
,
10000001
00000100
00000001
00000100
,
00100000
00100000
00100000
10010000
,
00000010
00000010
00000010
00001001
,
00100010
01000100
10001000
00010001
,
01100110
00000000
00000000
00000000
,
10000001
00100000
01000000
00010000
00000000
00010000
00000000
00010000
,
10000001
01000000
00100000
00010000
00000000
00010000
00000000
00010000
,
01000001
00100000
10000000
01000000
00000000
01000000
00000000
01000000
,
00100001
00010000
10000000
01000000
00000000
00100000
00010000
10000000
,
01000100
00000000
10010000
00000000
01000000
00100000
10000000
01000000
,
00100100
00000000
10010000
00000000
01000000
00100000
10000000
00010000
,
01000001
10010000
01000000
00100000
,
01000100
01000100
01000100
01000100
,
00100010
00000000
00010001
10001000
01000100
00000000
00000000
00000000
,
10001000
00000010
00000100
00000001
00000000
00000001
00000000
00000001
,
10001000
00000100
00000010
00000001
00000000
00000001
00000000
00000001
,
10000100
00000010
00001000
00000100
00000000
00000100
00000000
00000100
,
10000010
00000001
00001000
00000100
00000000
00000010
00000001
00001000
,
01000100
00000000
00001001
00000000
00000100
00000010
00001000
00000100
,
01000010
00000000
00001001
00000000
00000100
00000010
00001000
00000001
,
10000100
00001001
00000100
00000010
,
10011001
00000000
00000000
10101010
00000000
00000000
01010101
00000000
00000000
00000000
00000000
00000000
00000000
00000000
00000000
00000000
,
00000010
00001000
00100000
10000000
,
00000001
00000100
00010000
01000000
,
00001000
00000100
10000000
01000000
,
00000010
00100000
00000001
00010000
,
10000000
10000000
00001000
00001000
,
01000000
01000000
00000100
00000100
,
00100000
00000010
00010000
00000001
,
10001000
01000100
00000000
00000000
00000000
00000000
00010001
01000100
00000000
00000000
00000000
00000000
10001000
01000100
00000000
10001000
,
00100010
00000000
00000000
00000000
,
00010001
00000000
01000000
00000000
00100000
10000000
00000000
10000000
01000000
00000000
00100000
00000000
00010000
00000000
10000000
00000000
,
00100001
00000000
01000000
00000000
00010000
00100000
00000000
00100000
01000000
00000000
10000000
00000000
00010000
00000000
00000000
00000000
,
10001000
00000000
00000100
00000000
00000010
00000001
00000000
00000001
00000100
00000000
00000010
00000000
00001000
00000000
00000001
00000000
,
10000010
00000000
00000100
00000000
00001000
00000010
00000000
00000010
00000100
00000000
00000001
00000000
00001000
00000000
00000000
00000000
,
00010000
00000000
00010000
00000000
00010000
01000000
00000000
00010000
01000000
00000000
00000000
00000000
00100000
00000000
00000000
00000000
,
00001000
00000000
00001000
00000000
00001000
00000100
00000000
00001000
00000100
00000000
00000000
00000000
00000010
00000000
00000000
00000000
,
01000100
00100010
10000001
01000100
00100010
00011000
10000001
00100010
,
01000000
00000000
01000000
00000000
01000000
00010000
00100000
01000000
,
10000001
00010000
00000000
00000000
01000000
00000000
00000000
00000000
10000000
00010000
00000000
00000000
01000000
00000000
00000000
00000000
,
00000100
00000000
00000100
00000000
00000100
00001000
00000010
00000100
,
10000001
00001000
00000000
00000000
00000100
00000000
00000000
00000000
00000001
00001000
00000000
00000000
00000100
00000000
00000000
00000000
,
00100010
00000000
00011000
00000000
01000100
00100010
00000000
00000000
10000001
00000000
01000100
00000000
00100010
00011000
00000000
00000000
,
10000001
00100010
01000100
00011000
11000101
00000000
00000000
00000000
,
10000001
00000000
10000000
00000000
00010000
01000000
00100000
00000000
,
00010001
01000000
00100000
00000000
10000000
00000000
10000000
00000000
,
10000001
00000000
00000001
00000000
00001000
00000100
00000010
00000000
,
10001000
00000100
00000010
00000000
00000001
00000000
00000001
00000000
,
00100000
10000000
00010000
00000000
01100000
00000000
00000000
00000000
,
00001000
00000010
00000100
00000000
00001001
00000000
00000000
00000000
,
00010001
01000100
00000000
00010001
10001000
00000000
00010001
01000100
00000000
00010001
10001000
00000000
01000100
00000000
00100010
00000000
,
10011001
00000000
00000000
00000000
;

//---------------dance-solo - ----------------
#NOTEDATA:;
#CHARTNAME:;
#STEPSTYPE:dance-solo;
#DESCRIPTION:;
#CHARTSTYLE:;
#DIFFICULTY:Easy;
#METER:3;
#RADARVALUES:0.289092,0.273192,0.000000,0.000000,0.000000,190.000000,190.000000,0.000000,0.000000,0.000000,0.000000,0.000000,0.000000,0.000000,0.289092,0.273192,0.000000,0.000000,0.000000,190.000000,190.000000,0.000000,0.000000,0.000000,0.000000,0.000000,0.000000,0.000000;
#CREDIT:;
#DISPLAYBPM:150.000000;
#NOTES:
000000
000000
000000
000000
,
000000
000000
000000
000000
,
000000
000000
000000
000000
,
000010
000010
000010
001000
,
100000
001000
010000
001000
,
000100
000100
000100
000100
,
000001
010000
000010
001000
,
000100
100000
001000
000000
,
000100
000001
001000
000000
,
000010
100000
000100
010000
,
000010
000000
000000
000000
,
000100
000100
000001
001000
,
000010
100000
000100
010000
,
000010
000010
000100
000100
,
000001
001000
000010
000100
,
001000
100000
000001
000000
,
001000
000100
100000
000000
,
000010
010000
001000
000000
,
000100
000100
000001
000001
,
010000
010000
000010
000000
,
100000
100000
001000
000100
,
000001
001000
100000
001000
,
010000
010000
000001
000100
,
000010
010000
000100
100000
,
001000
000100
000001
000000
,
001000
000100
100000
000000
,
000001
000100
001000
100000
,
000001
010000
000010
000000
,
000100
001000
000000
010000
,
000100
001000
000000
000010
,
000100
001000
000000
010000
,
000001
100000
001000
000100
,
000001
001000
000000
000010
,
100000
001000
000000
010000
,
000001
000100
000010
010000
,
000100
000100
001000
001000
,
000100
000000
000000
000000
,
100000
000001
000100
001000
,
010000
000001
000100
001000
,
000010
000001
000100
001000
,
010000
000100
100000
001000
,
000100
000001
001000
000000
,
000100
100000
001000
000000
,
000100
000001
010000
000010
,
001000
001000
000100
100000
,
000001
001000
100000
001000
,
000100
000100
000001
010000
,
000010
000100
000001
001000
,
000100
000000
100000
000000
,
000010
010000
001000
000000
,
000100
000100
000001
000001
,
010000
001000
000100
000001
,
001000
001000
000100
000100
,
100000
000010
010000
000100
,
100000
001000
000100
000000
,
000001
001000
000100
000000
,
100000
000010
010000
001000
,
000100
000000
000000
000000
;

//---------------dance-solo - ----------------
#NOTEDATA:;
#CHARTNAME:;
#STEPSTYPE:dance-solo;
#DESCRIPTION:;
#CHARTSTYLE:;
#DIFFICULTY:Medium;
#METER:5;
#RADARVALUES:0.418423,0.424965,0.127809,0.000000,0.000000,275.000000,263.000000,12.000000,0.000000,0.000000,0.000000,0.000000,0.000000,0.000000,0.418423,0.424965,0.127809,0.000000,0.000000,275.000000,263.000000,12.000000,0.000000,0.000000,0.000000,0.000000,0.000000,0.000000;
#CREDIT:;
#DISPLAYBPM:150.000000;
#NOTES:
000000
000000
000000
000000
,
000000
000000
000000
000000
,
000000
000000
000000
000000
,
010000
000000
000010
000000
000100
000001
001000
000000
,
000010
000100
000001
000000
100000
000000
001000
000000
,
010000
000000
000001
000000
100000
000100
001000
000000
,
000010
100000
000001
000000
000100
000000
001000
000000
,
010000
000001
100000
000000
000100
000000
001000
000000
,
000001
000100
001000
000000
100000
000000
000001
000000
,
010000
000000
000010
000000
001000
000000
000100
100000
,
001000
000000
000000
000000
000100
000001
010000
000000
,
000010
000000
001000
000000
000100
100000
001000
000000
,
010000
000000
000001
000000
001000
000100
100000
000000
,
000001
000000
000100
000000
001000
010000
000001
000000
,
001000
000100
001000
100001
,
001000
010000
000001
000000
001000
000000
100001
000000
,
001000
000100
000001
000000
001000
000000
100001
000000
,
000010
001000
000100
000000
100000
001000
000100
000000
,
000001
001000
100000
001000
,
010000
000000
000100
000000
100001
000000
000100
001000
,
000010
000000
001000
000000
010000
000000
000001
001000
,
000100
000000
100000
000000
000010
000000
010000
000001
,
000010
000000
001000
000000
010000
000000
000001
001000
,
000100
100000
001000
000100
,
100001
000000
010000
000010
000100
000000
001000
000000
,
100001
000000
001000
000100
100000
000000
001000
000000
,
100001
000000
000100
000010
001000
000000
000100
000000
,
100001
000000
001000
000000
000100
000000
100000
001000
,
010000
000000
000001
000000
001000
000000
000100
100000
,
001000
000000
010000
000000
000001
000000
000100
000010
,
010000
000000
001000
000000
000100
000000
000001
001000
,
000100
000000
100000
001000
000100
000000
000001
010000
,
001000
000000
000100
000000
000001
000000
100000
000010
,
001000
000000
000100
000000
100000
000000
001000
000100
,
000001
000000
001000
000100
100000
000000
001000
000000
,
000010
000000
001000
000000
010000
000000
000001
001000
,
000100
000000
000000
000000
100000
000001
000100
000000
,
001000
000000
010000
000000
000001
001000
000100
000000
,
100000
000000
000010
000000
000100
001000
100000
000000
,
000001
000000
001000
000000
000010
100000
000001
000000
,
000100
001000
100000
100001
,
001000
000100
100000
000000
000010
000000
010001
000000
,
000100
001000
010000
000000
000001
000000
100010
000000
,
001000
000100
100000
000000
001000
000100
000001
000000
,
010000
000000
010000
000000
000010
000100
000001
000000
,
001000
000100
100000
000001
,
010000
000000
010000
000000
001000
000100
000001
000000
,
010000
000010
001000
000100
,
100000
100000
000001
000001
,
010000
001000
000100
000000
100001
000000
000000
000000
,
000100
000000
001000
000000
010000
000001
100000
000000
,
000010
001000
000100
000000
100000
000000
001000
000000
,
000100
000000
000001
000000
010000
001000
000100
000000
,
000001
001000
000100
000000
100000
000000
000010
000000
,
001000
000000
000100
100000
001000
000000
010000
000000
,
000001
000000
000100
000010
001000
000000
000100
000000
,
100000
000001
010000
001000
,
000100
000000
000000
000000
;

//---------------dance-solo - ----------------
#NOTEDATA:;
#CHARTNAME:;
#STEPSTYPE:dance-solo;
#DESCRIPTION:;
#CHARTSTYLE:;
#DIFFICULTY:Hard;
#METER:8;
#RADARVALUES:0.617744,0.667803,0.042603,0.000000,0.394078,406.000000,402.000000,4.000000,0.000000,0.000000,0.000000,0.000000,0.000000,0.000000,0.617744,0.667803,0.042603,0.000000,0.394078,406.000000,402.000000,4.000000,0.000000,0.000000,0.000000,0.000000,0.000000,0.000000;
#CREDIT:;
#DISPLAYBPM:150.000000;
#NOTES:
000000
000000
000000
000000
,
000000
000000
000000
000000
,
000000
000000
000000
000000
,
010000
000000
000100
000000
100000
001000
000000
000000
000100
000000
000001
000000
001000
000000
000000
000000
,
000010
000000
100000
000000
001000
010000
000000
000000
000001
000000
001000
000000
000010
000000
000100
000000
,
000001
000000
010000
000000
001000
100000
000000
000000
000001
000000
001000
000000
000100
000000
000000
000000
,
100000
001000
100000
000000
000100
010000
000100
000000
100000
000010
100000
000000
001000
000001
001000
000000
,
000010
000000
100000
000000
001000
010000
000000
000000
000001
000000
000100
000000
000010
000000
000000
000000
,
010000
000000
000100
000000
100000
001000
000000
000000
000100
000000
000001
000000
010000
000000
000000
000000
,
000010
100000
000000
000100
001000
000000
010000
100000
000000
000010
010000
000000
000001
000000
000100
000000
,
001000
000000
000000
000000
000000
000000
000000
000000
000000
000000
010000
000000
000001
100000
000000
000000
,
000100
000000
001000
000000
000010
000000
100000
000000
000100
001000
000010
000000
100000
000000
000001
000000
,
000100
000000
001000
000000
010000
000000
000001
000000
000100
001000
010000
000000
000001
000000
100000
000000
,
000010
000000
001000
000000
000100
000000
100000
000000
001000
010000
000001
000000
000100
000000
000010
000000
,
010000
000100
100000
001000
000100
000001
000001
010000
,
000010
000000
000000
000000
000000
100000
100000
000100
,
001000
000000
100001
000000
000000
000000
010000
001000
,
000100
000000
000000
000000
000000
000001
000000
100000
,
000010
001000
000010
001000
000010
000000
000000
000000
100000
000100
100000
000100
100000
000000
000000
000000
,
000001
010000
000001
010000
000001
000000
000000
000000
100010
000000
000001
000000
010000
001000
000000
000000
,
000100
000001
010000
000010
000000
000000
000000
000000
,
100000
000100
100000
000100
100000
000000
000010
000000
000000
000000
000100
000000
000001
010000
000000
000000
,
000010
100000
000100
001000
000000
000000
000000
000000
,
000010
100000
000010
100000
000010
000000
010000
000000
000000
000000
000001
000000
000001
000000
000100
000000
,
001000
000000
000000
000000
100000
000100
100000
000100
100000
000000
000001
000000
000001
000000
000100
000000
,
001000
000000
000000
000000
010000
000001
010000
000001
010000
000000
000010
000000
000010
000000
100000
000000
,
000100
000000
000000
000000
001000
000001
001000
000001
001000
000000
000010
000000
000000
000000
100000
000000
,
001000
000000
000000
000100
000000
000000
000001
000000
000000
000000
000000
000000
000000
000000
000000
000000
,
010000
000010
010000
000010
010000
000000
000000
000000
000000
000000
000100
000000
100000
000000
001000
000000
,
010000
000001
010000
000001
010000
000000
000000
000000
000000
000000
000010
000000
000100
000000
000001
000000
,
001000
000010
001000
000100
100000
000000
000000
000000
000000
000000
000001
000000
000100
000000
001000
000000
,
010000
000001
100000
000100
001000
000010
100000
000001
,
010000
001000
001000
000000
000000
000100
000001
100000
,
000010
001000
001000
000000
000000
000100
100000
000001
,
010000
000010
000100
000001
001000
000010
100000
000001
,
000100
001000
000000
000000
000000
000000
010000
000001
000000
000000
000000
000000
100000
000100
000000
001000
,
000001
000000
000000
000000
000000
000000
000000
000000
000000
000000
010000
000000
000100
100000
000000
000000
,
000001
000000
000001
000000
000100
001000
010000
000001
000000
000000
000001
000000
001000
000000
000100
000000
,
100000
000000
100000
000000
000010
001000
000001
000100
000000
000000
001000
000000
100000
000000
000001
000000
,
001000
000000
001000
000000
000010
000100
000001
001000
000000
000000
000010
000000
100000
000000
001000
000000
,
000100
000000
000100
000000
000001
001000
000010
100000
000000
000000
000100
000000
001000
000000
000010
000000
,
000000
100000
100000
001000
000100
000000
000000
000000
,
000000
000001
000001
010000
000010
000000
000100
000000
,
000001
001000
000001
000000
000100
000010
000100
000000
000001
010000
000001
000000
001000
100000
001000
000000
,
000100
000001
001000
000100
100000
000001
000100
001000
,
010000
000001
000010
001000
010000
000001
001000
000100
,
100000
001000
000100
000001
010000
000010
000100
001000
,
100000
000100
001000
000001
100000
001000
000100
000000
,
000001
001000
000001
000000
000000
000000
000000
000000
100000
001000
100000
000000
000000
000000
000000
000000
,
000100
001000
000001
000100
001000
000000
000000
000000
,
100000
000000
100000
000000
000001
001000
000000
000000
000100
000000
100000
000000
001000
000000
000000
000000
,
010000
000000
000001
000000
000100
000010
000000
000000
001000
000000
000100
000000
100000
000000
010000
000000
,
001000
000000
000001
000000
000010
001000
000000
000000
000100
000000
000001
000000
100000
000000
000100
000000
,
010000
000010
010000
000000
000001
000100
000001
000000
100000
001000
100000
000000
000001
001000
000001
000000
,
100000
000000
000010
000000
001000
000100
000000
000000
100001
000000
000000
000000
001000
000000
000000
000000
,
000100
000000
100000
000000
000010
010000
000000
000000
000101
000000
000000
000000
001000
000000
000000
000000
,
000100
100000
000000
000010
010000
000000
000001
000100
000000
001000
000010
000000
000001
000000
010000
000000
,
000010
000000
000000
000000
;

//---------------dance-single - ----------------
#NOTEDATA:;
#CHARTNAME:;
#STEPSTYPE:dance-single;
#DESCRIPTION:;
#CHARTSTYLE:;
#DIFFICULTY:Beginner;
#METER:2;
#RADARVALUES:0.085206,0.123016,0.010651,0.021302,0.000000,56.000000,55.000000,1.000000,2.000000,0.000000,0.000000,0.000000,0.000000,0.000000,0.085206,0.123016,0.010651,0.021302,0.000000,56.000000,55.000000,1.000000,2.000000,0.000000,0.000000,0.000000,0.000000,0.000000;
#CREDIT:;
#DISPLAYBPM:150.000000;
#NOTES:
0000
0000
0000
0000
,
0000
0000
0000
0000
,
0000
0000
0000
0000
,
0001
0000
0000
0000
,
1000
0000
0000
0000
,
0010
0000
0000
0000
,
0100
0000
0000
0000
,
0001
0000
0000
0000
,
1000
0000
0000
0000
,
0010
0000
0000
0000
,
0001
0000
0000
0000
,
0100
0000
0000
0000
,
1000
0000
0000
0000
,
0010
0000
0000
0000
,
0100
0000
0000
0000
,
0001
0000
0000
0000
,
1000
0000
0000
0000
,
0100
0000
0000
0000
,
0010
0000
0000
0000
,
0001
0000
0000
0000
,
0010
0000
0000
0000
,
0100
0000
0000
0000
,
1000
0000
0000
0000
,
0001
0000
0000
0000
,
0100
0000
0000
0000
,
0010
0000
0000
0000
,
1000
0000
0000
0000
,
0001
0000
0000
0000
,
0010
0000
0000
0000
,
0100
0000
0000
0000
,
1000
0000
0000
0000
,
0100
0000
0000
0000
,
0010
0000
0000
0000
,
0001
0000
0000
0000
,
0010
0000
0000
0000
,
1000
0000
0000
0000
,
0010
0000
0000
0000
,
0001
0000
0000
0000
,
0100
0000
0000
0000
,
1000
0000
0000
0000
,
0100
0000
0000
0000
,
0001
0000
0000
0000
,
1000
0000
0000
0000
,
0010
0000
0000
0000
,
0001
0000
0000
0000
,
0100
0000
0000
0000
,
1000
0000
0000
0000
,
0010
0000
0000
0000
,
0100
0000
0000
0000
,
0001
0000
0000
0000
,
1000
0000
0000
0000
,
0010
0000
0000
0000
,
0001
0000
0000
0000
,
0100
0000
0000
0000
,
1000
0000
0000
0000
,
0001
0000
0000
0000
,
1000
0000
0000
0000
,
2002
0000
0000
3003
;

//---------------dance-single - ----------------
#NOTEDATA:;
#CHARTNAME:;
#STEPSTYPE:dance-single;
#DESCRIPTION:;
#CHARTSTYLE:;
#DIFFICULTY:Challenge;
#METER:16;
#RADARVALUES:0.926616,0.891868,0.181063,0.191714,1.326020,609.000000,592.000000,17.000000,18.000000,0.000000,0.000000,0.000000,0.000000,0.000000,0.926616,0.891868,0.181063,0.191714,1.326020,609.000000,592.000000,17.000000,18.000000,0.000000,0.000000,0.000000,0.000000,0.000000;
#CREDIT:;
#DISPLAYBPM:150.000000;
#NOTES:
// measure 0
0000
0000
0000
0000
,  // measure 1
0000
0000
0000
0000
,  // measure 2
0000
0000
0000
0000
,  // measure 3
1000
0100
1000
0100
0010
0000
0001
0010
0000
0010
0000
0010
0001
0100
0010
0000
,  // measure 4
1000
0010
1000
0010
0100
0000
0001
0000
0010
0100
0000
0100
0010
1000
0001
0000
,  // measure 5
0010
0001
0010
0001
0100
0000
1000
0100
0000
0010
0000
0001
0000
0010
0001
1000
,  // measure 6
0010
1000
0010
1000
0001
0000
0010
0100
0000
0001
0000
0010
0000
0100
1000
0000
,  // measure 7
0100
1000
0100
1000
0020
0000
0031
1000
0000
0001
0000
1000
0000
0100
0010
0001
,  // measure 8
1000
0010
1000
0001
2000
0000
3001
0010
0000
0100
0000
1000
0000
0001
0100
0000
,  // measure 9
1000
0010
0000
0100
0001
0000
1000
0100
0000
0010
0001
0010
0100
1000
0001
1000
,  // measure 10
0010
0000
0000
0000
0220
0000
0000
0000
0330
0000
0100
0000
0100
1000
0000
0002
,  // measure 11
0000
0000
1003
0100
0010
0001
0010
0100
1000
0000
1010
0000
0000
0101
0000
0000
,  // measure 12
0002
0000
0013
0001
0100
0010
1000
0100
0010
0000
0001
0000
0010
0001
0000
2000
,  // measure 13
0000
0000
3100
1000
0010
0100
0001
0010
0001
0000
1001
0000
0001
0010
0000
0200
,  // measure 14
0000
0000
1300
0010
0100
0001
0010
0001
1000
0000
1001
0000
0001
0000
0011
0000
,  // measure 15
0001
0010
0000
0100
1000
0000
0001
0010
0000
0100
1000
0000
0100
1000
0010
0000
,  // measure 16
1000
0010
0000
0100
0001
0000
1000
0010
0000
0100
0001
0000
0010
0001
0100
0000
,  // measure 17
1000
0100
0000
0010
0001
0000
0001
0010
0000
0100
1000
0000
0000
1100
0000
0000
,  // measure 18
1000
0010
1000
0001
0100
0000
0001
0010
0000
0001
0000
1000
0000
0001
0100
0000
,  // measure 19
0010
0001
0100
0010
1000
0000
0100
1000
0010
0100
0000
0100
0001
0010
0000
0020
,  // measure 20
0000
0000
0031
0010
0100
1000
0100
0010
0001
0000
0011
0000
0000
1001
0000
2000
,  // measure 21
0000
0000
3010
1000
0001
0010
0100
1000
0001
0000
1000
0100
1000
0000
0010
0200
,  // measure 22
0000
0000
0310
0100
0001
0000
0100
0010
1000
0000
1010
0000
0010
0100
0000
0002
,  // measure 23
0000
0000
0013
0001
0100
0010
1000
0000
0001
0010
0001
0010
1000
0100
1000
0100
,  // measure 24
0010
0000
0001
0000
1000
0000
0001
0000
0100
0000
0001
0010
0100
0000
1000
0000
,  // measure 25
0001
1000
0001
1000
0010
1000
0010
1000
0001
1000
0001
1000
0100
0000
1000
0000
,  // measure 26
0010
0100
0000
0001
0010
0000
1000
0100
0000
0010
0001
0000
0010
0100
0010
0000
,  // measure 27
1000
0100
0000
0010
0100
0000
1000
0100
0000
0010
0100
0000
1000
0100
0010
0001
,  // measure 28
0200
0000
0301
1000
0100
0010
0001
0100
,  // measure 29
0020
0000
1030
0001
0010
0100
1000
0001
,  // measure 30
2000
0000
3001
0010
1000
0100
0010
0001
,  // measure 31
0002
0000
0013
0001
0100
0010
1000
0001
,  // measure 32
0100
0001
0100
0000
0001
0000
1000
0000
0010
1000
0010
0000
1000
0001
1000
0000
,  // measure 33
1000
0100
1000
0000
0010
0000
0100
0000
0001
0010
0001
0000
0010
0000
0100
0000
,  // measure 34
1000
0100
1000
0100
1000
0100
1000
0100
1000
0100
1000
0100
1000
0010
0100
0001
,  // measure 35
0010
0000
0000
0000
0000
0000
0110
0000
0000
0000
1100
0000
1000
0100
0000
0001
,  // measure 36
0100
0001
0100
0001
0100
0001
0010
0001
0010
0000
0011
0000
0001
0010
0000
0100
,  // measure 37
1000
0000
0100
0000
1000
0010
0000
0100
0001
0000
0010
0000
0000
0011
0000
0000
,  // measure 38
0001
0000
1000
0000
0010
1000
0000
0001
0010
0000
0100
0000
1000
0100
0000
0010
,  // measure 39
0000
0000
0001
0010
0000
0001
0010
0001
0100
0000
0110
0000
0010
1000
0000
1000
,  // measure 40
0000
0000
1000
0100
0010
0001
1000
0001
0100
0000
0000
0100
0001
0000
0011
0000
,  // measure 41
1000
0001
0010
0100
1000
0001
0100
0001
0010
0000
1000
0010
0000
0100
0001
0000
,  // measure 42
1000
0100
0010
0001
1000
0100
0010
0001
0010
0000
0001
0010
0000
0001
0010
0000
,  // measure 43
0100
1000
0100
1000
0010
0100
0010
0100
0001
0010
0100
1000
0100
0010
0001
0000
,  // measure 44
1000
0001
0000
0100
0001
0000
1000
0100
0000
0010
0001
0000
0010
0001
0010
0000
,  // measure 45
1000
0100
0000
0010
0100
0000
1000
0010
0000
0010
0100
0000
0001
0010
0100
0000
,  // measure 46
1000
0100
0000
0001
0100
0000
0010
0100
0000
0001
0010
0000
0001
0010
0001
0010
,  // measure 47
0001
0000
0010
0000
0100
0000
1000
0000
0010
1000
0001
1000
0100
1000
0000
0000
,  // measure 48
1000
0010
1000
0010
0100
0000
0010
0100
0001
0010
0001
0010
0001
0000
0010
0001
,  // measure 49
0100
0010
0100
0010
1000
0100
1000
0100
0010
0000
0000
0000
0000
0000
0000
0000
,  // measure 50
0100
0010
0100
0010
0001
0000
1000
0100
0000
0010
0001
0000
1000
0100
0010
0000
,  // measure 51
0001
0010
0001
0010
0100
0000
0010
0100
0000
0010
0100
0000
0010
0100
1000
0000
,  // measure 52
0010
1000
0001
1000
0100
0000
0010
0001
0000
1000
0100
0000
0010
0001
0010
0000
,  // measure 53
0001
0010
0100
1000
0001
0000
1000
0001
0000
0001
0010
0000
0001
0010
0100
1000
,  // measure 54
0010
1000
0001
1000
0100
0000
0010
0000
0001
0010
0000
0010
0001
0000
0010
0000
,  // measure 55
1000
0010
0100
0001
1000
0000
0010
0000
0100
0001
0000
0001
0010
0000
0001
0000
,  // measure 56
1000
0100
0000
0001
0100
0000
1000
0010
0000
0001
0010
0000
1000
0100
0010
0001
,  // measure 57
0010
2002
0000
3003
;
