#TITLE:Love On My Mind (Radio Mix);
#SUBTITLE:;
#ARTIST:Freemasons feat. Amanda Wilson;
#TITLETRANSLIT:;
#SUBTITLETRANSLIT:;
#ARTISTTRANSLIT:;
#GENRE:;
#CREDIT:;
#BANNER:Love On My Mind (Radio Mix).png;
#BACKGROUND:Love On My Mind (Radio Mix)-bg.png;
#LYRICSPATH:;
#CDTITLE:;
#MUSIC:Love On My Mind (Radio Mix).ogg;
#OFFSET:0.000000;
#SAMPLESTART:9.276000;
#SAMPLELENGTH:15.000000;
#SELECTABLE:YES;
#DISPLAYBPM:129.000000;
#BPMS:0.000000=129.000000
,4.000000=129.360001
;
#STOPS:
;
#BGCHANGES:0.000=Love On My Mind (Radio Mix).avi=1.000=0=0=0=StretchNoLoop====,
99999=-nosongbg-=1.000=0=0=0 // don't automatically add -songbackground-
;
#KEYSOUNDS:;
#ATTACKS:;

//---------------dance-single - ----------------
#NOTES:
     dance-single:
     :
     Beginner:
     3:
     0.100276,0.124619,0.050865,0.000000,0.000000,69.000000,64.000000,5.000000,0.000000,0.000000,0.000000,0.100276,0.124619,0.050865,0.000000,0.000000,69.000000,64.000000,5.000000,0.000000,0.000000,0.000000:
0000
0000
0000
0000
,
0000
0000
0000
0000
,
0000
0000
0000
0000
,
0000
0000
0000
0000
,
0000
0000
0000
0000
,
0010
0000
0000
0000
,
0100
0000
0000
0000
,
0010
0000
0000
0000
,
0001
0000
1000
0000
,
1001
0000
0000
0000
,
0100
0000
0010
0000
,
0100
0000
0000
0000
,
0001
0000
0000
0000
,
1000
0000
0000
0000
,
0001
0000
0100
0000
,
1000
0000
0000
0000
,
0010
0000
0000
0000
,
0110
0000
0000
0000
,
0001
0000
1000
0000
,
0100
0000
0000
0000
,
0010
0000
0100
0000
,
0001
0000
0000
0000
,
1000
0000
0100
0000
,
0010
0000
0000
0000
,
0001
0000
1000
0000
,
1001
0000
0000
0000
,
0100
0000
0000
0000
,
0010
0000
0100
0000
,
0010
0000
0100
0000
,
0001
0000
0000
0000
,
1000
0000
0000
0000
,
0001
0000
1000
0000
,
0001
0000
1000
0000
,
0100
0000
0000
0000
,
0010
0000
0001
0000
,
0100
0000
0000
0000
,
0010
0000
1000
0000
,
0100
0000
0000
0000
,
0001
0000
0100
0000
,
1000
0000
0000
0000
,
1000
0000
0001
0000
,
1001
0000
0000
0000
,
0100
0000
0010
0000
,
1000
0000
0000
0000
,
0100
0000
0010
0000
,
0001
0000
0000
0000
,
0010
0000
1000
0000
,
0001
0000
0000
0000
,
0010
0000
0001
0000
,
1001
0000
0000
0000
;

//---------------dance-single - ----------------
#NOTES:
     dance-single:
     :
     Easy:
     4:
     0.172940,0.174466,0.040692,0.101729,0.000000,119.000000,115.000000,4.000000,10.000000,0.000000,0.000000,0.172940,0.174466,0.040692,0.101729,0.000000,119.000000,115.000000,4.000000,10.000000,0.000000,0.000000:
0000
0000
0000
0000
,
0000
0000
0000
0000
,
0000
0000
0000
0000
,
0000
0000
0000
0000
,
0000
0000
0000
0000
,
0100
0000
1000
0000
,
0001
0001
1000
1000
,
0010
0000
0100
0000
,
0002
0003
2000
3000
,
1001
0000
1000
1000
,
0001
0000
0010
0000
,
0100
0000
1000
0010
,
0010
0000
0001
0000
,
1000
0000
0010
0100
,
0100
0000
0001
0000
,
0010
0000
1000
1000
,
0001
0000
0100
0000
,
0110
0000
0010
0000
,
1000
0100
1000
0000
,
0001
0000
0010
0000
,
1000
0100
1000
0100
,
1000
0000
0010
0000
,
0100
0001
0100
0000
,
0010
0000
0001
0000
,
2000
3000
0002
0003
,
0001
1000
0000
0100
,
0000
1000
0000
0010
,
0100
0100
0001
0001
,
1000
0000
0100
0000
,
0001
0010
0000
0100
,
0000
1000
0000
0100
,
0010
0010
0001
0001
,
2000
3000
0002
0003
,
0100
0000
0001
0000
,
0010
1000
0010
1000
,
0001
0000
0100
0000
,
1000
1000
0010
0010
,
0100
0000
0001
0000
,
1000
0100
1000
0100
,
0010
0000
0001
0000
,
2000
3000
0002
0003
,
1001
0000
0001
0001
,
1000
0000
0100
0000
,
0010
0000
0001
0100
,
0100
0000
1000
0000
,
0001
0000
0100
0010
,
0010
0000
1000
0000
,
0100
0000
0001
0001
,
2000
3000
0002
0003
,
1001
0000
0000
0000
;

//---------------dance-single - ----------------
#NOTES:
     dance-single:
     :
     Medium:
     6:
     0.258683,0.299084,0.071211,0.101729,0.000000,178.000000,171.000000,7.000000,10.000000,0.000000,0.000000,0.258683,0.299084,0.071211,0.101729,0.000000,178.000000,171.000000,7.000000,10.000000,0.000000,0.000000:
0000
0000
0000
0000
,
0000
0000
0000
0000
,
0000
0000
0000
0000
,
0000
0000
0000
0000
,
0000
0000
0000
0000
0000
0000
0000
1000
,
0000
0010
0100
0001
,
0010
0000
0001
0100
0000
0000
1000
0100
,
0000
0000
0001
0000
0010
0000
0000
0200
,
0000
0300
0000
2000
0000
3000
0000
0001
,
0000
0000
0010
0100
0001
0000
1000
0000
,
0100
1000
0010
0000
,
0100
0000
0001
1000
0010
0000
0001
0000
,
0010
1000
0100
0000
,
0010
0000
0001
1000
0100
0000
0001
0000
,
0100
1000
0010
0000
,
0100
0000
0010
1000
0001
0000
0010
0000
,
0100
1000
0001
1001
,
0002
0010
1000
0010
,
1000
0103
0001
0010
,
2000
0100
0001
0100
,
0001
0000
3010
0000
1000
0001
1000
0000
,
0200
1000
0010
1000
,
0010
0301
0100
1000
,
0020
0001
0100
0001
,
0100
0000
1030
0000
0001
1000
0001
0000
,
0110
0100
0010
0010
,
1000
0000
0100
0000
0001
0000
0100
1000
,
0000
0000
0010
0100
0000
0000
0001
0010
,
0000
0100
0000
0001
0000
0100
0000
1000
,
0000
0010
0001
0001
,
1000
0000
1000
0000
0010
0000
0010
0100
,
0000
0000
0001
0010
0000
0000
0100
1000
,
0000
0010
0010
0010
,
0101
0000
1010
0000
,
1000
0100
0001
0100
,
1000
0000
0010
0000
0100
0000
0000
0002
,
0000
0003
0000
2000
0000
3000
0001
0000
,
1100
0000
0011
0000
,
0001
0100
1000
0100
,
0001
0000
0010
0000
0100
0000
0000
2000
,
0000
3000
0000
0002
0000
0003
0100
0010
,
0000
0000
0001
0010
0100
0000
0001
0000
,
0010
0001
0100
0000
,
0010
0000
1000
0001
0100
0000
1000
0000
,
0100
0001
0010
0000
,
0100
0000
1000
0001
0010
0000
1000
0000
,
0010
0001
0100
0000
,
0010
0000
0100
0001
1000
0000
0100
0000
,
0010
0000
0001
0000
1000
0000
0001
1000
,
1001
0000
0000
0000
;

//---------------dance-single - ----------------
#NOTES:
     dance-single:
     :
     Hard:
     10:
     0.404011,0.404883,0.233978,0.162767,0.000000,278.000000,255.000000,23.000000,16.000000,0.000000,0.000000,0.404011,0.404883,0.233978,0.162767,0.000000,278.000000,255.000000,23.000000,16.000000,0.000000,0.000000:
0000
0000
0000
0000
,
0000
0000
0000
0000
,
0000
0000
0000
0000
,
0000
0000
0000
0000
,
0000
0000
0000
0000
0000
0000
0000
1001
,
0000
0001
1000
0001
,
0010
0100
1000
0020
0000
0130
0001
0020
,
0000
0000
0130
0000
1000
0010
0100
0001
,
0000
0010
0100
1000
0000
1001
1001
0000
,
0001
0000
1000
0100
1000
0000
0001
0000
,
1000
0100
0010
0001
0000
0010
0100
1000
,
0001
0000
0100
0001
0010
0001
0100
1000
,
0000
0100
0010
1000
0000
1001
1001
0000
,
1000
0000
0001
0100
0001
0000
1000
0000
,
0001
0100
0010
1000
0000
0010
0100
0001
,
1000
0000
0100
1000
0010
1000
0100
0010
,
0001
0000
1100
0000
0101
0000
1100
0200
,
0010
1000
0310
1000
,
0010
1000
0001
0010
0000
0100
1000
0002
,
0100
1000
0103
1000
,
0010
0100
0001
1000
0010
0100
0100
0000
,
0120
0001
0130
0001
,
0100
0010
1000
0001
0000
0010
0100
2000
,
0010
0000
0001
0000
3010
0100
0001
1000
,
0000
0010
0100
0010
0000
1001
1001
0000
,
0100
0001
0010
0000
0100
1000
0010
0000
,
0100
0001
0100
0020
0000
1030
0001
0200
,
0000
1300
0100
0000
0001
0010
0001
0000
,
1000
0001
0010
0000
0100
1000
0001
0000
,
0010
0001
0100
0000
0010
1000
0100
0000
,
0010
0001
0010
0200
0000
1300
0001
0200
,
0000
0310
0100
0000
0001
0100
0010
0000
,
1000
0101
1100
1001
,
0010
0001
0010
0000
1000
0100
1000
0000
,
0001
0010
0100
2000
0000
3010
0100
0002
,
0000
1003
0010
1000
0001
0000
0010
0100
,
0000
1000
0010
0100
0000
1001
1001
0000
,
0100
0001
0100
0000
1000
0100
1000
0000
,
0010
0100
0010
2000
0000
3100
0010
0002
,
0000
1003
0100
1000
0001
0000
0010
0200
,
0000
0010
0010
0310
0000
0110
0110
0000
,
0001
0000
1000
0100
1000
0000
0001
0000
,
1000
0100
0010
0001
0000
0010
0100
1000
,
0001
0000
0100
0001
0010
0001
0100
1000
,
0000
0100
0010
1000
0000
1001
1001
0000
,
1000
0000
0001
0100
0001
0000
1000
0000
,
0001
0100
0010
1000
0000
0010
0100
0001
,
1000
0000
0100
1000
0010
1000
0100
0010
,
0001
0000
1100
0000
0101
0000
1001
0200
,
0000
0000
0000
0300
;

//---------------dance-double - ----------------
#NOTES:
     dance-double:
     :
     Easy:
     3:
     0.174393,0.199390,0.050865,0.101729,0.000000,120.000000,115.000000,5.000000,10.000000,0.000000,0.000000,0.174393,0.199390,0.050865,0.101729,0.000000,120.000000,115.000000,5.000000,10.000000,0.000000,0.000000:
00000000
00000000
00000000
00000000
,
00000000
00000000
00000000
00000000
,
00000000
00000000
00000000
00000000
,
00000000
00000000
00000000
00000000
,
00000000
00000000
00000000
00000000
,
00001000
00000000
00010000
00000000
,
00100000
00100000
01000000
01000000
,
10000000
00000000
00100000
00000000
,
00020000
00030000
00002000
00003000
,
00011000
00000000
00001000
00010000
,
00001000
00000000
00000100
00000000
,
00000010
00000000
00000100
00000001
,
00000001
00000000
00000010
00000000
,
00000100
00000000
00010000
00001000
,
00001000
00000000
01000000
00000000
,
00010000
00000000
00100000
00100000
,
01000000
00000000
10000000
00000000
,
10010000
00000000
00100000
00000000
,
01000000
00010000
01000000
00000000
,
00001000
00000000
00010000
00000000
,
00000100
00001000
00000100
00001000
,
00000001
00000000
00000100
00000000
,
00000010
00001000
00000010
00000000
,
00000100
00000000
00001000
00000000
,
00020000
00030000
00002000
00003000
,
00010000
00100000
00000000
01000000
,
00000000
00100000
00000000
10000000
,
00010000
00010000
01000000
01000000
,
00001000
00000000
00010000
00000000
,
00000100
00001000
00000000
00000010
,
00000000
00000100
00000000
00000001
,
00001000
00001000
00000100
00000100
,
00020000
00030000
00002000
00003000
,
00011000
00000000
00100000
00000000
,
00010000
00100000
00010000
00100000
,
10000000
00000000
01000000
00000000
,
00100000
00100000
00010000
00010000
,
00001000
00000000
00000100
00000000
,
00000001
00000010
00000001
00000010
,
00001000
00000000
00000100
00000000
,
00020000
00030000
00002000
00003000
,
00011000
00000000
00010000
00010000
,
00100000
00000000
01000000
00000000
,
10000000
00000000
00010000
01000000
,
01000000
00000000
00001000
00000000
,
00010000
00000000
00000100
00001000
,
00001000
00000000
00000010
00000000
,
00000100
00000000
00000001
00000001
,
00002000
00003000
00000002
00000003
,
00001001
00000000
00000000
00000000
;

//---------------dance-double - ----------------
#NOTES:
     dance-double:
     :
     Medium:
     5:
     0.249964,0.299084,0.050865,0.061038,0.000000,172.000000,167.000000,5.000000,6.000000,0.000000,0.000000,0.249964,0.299084,0.050865,0.061038,0.000000,172.000000,167.000000,5.000000,6.000000,0.000000,0.000000:
00000000
00000000
00000000
00000000
,
00000000
00000000
00000000
00000000
,
00000000
00000000
00000000
00000000
,
00000000
00000000
00000000
00000000
,
00000000
00000000
00000000
00000000
,
00000010
00001000
00000010
00000001
,
00000100
00000000
00001000
00010000
00000000
00000000
00010000
01000000
,
00000000
00000000
00100000
00000000
00010000
00000000
00000000
20000000
,
00000000
30000000
00000000
00020000
00000000
00030000
00000000
01000000
,
00100000
00010000
00001000
00000100
,
00000010
00000000
00000001
00000000
,
00000010
00000000
00001000
00010000
00001000
00000000
00010000
00000000
,
01000000
01000000
10000000
10000000
,
01000000
00010000
00001000
00000010
,
00000100
00000000
00000001
00000000
,
00000100
00000000
00001000
00010000
00001000
00000000
00010000
00000000
,
00100000
00100000
01000000
01000000
,
00020000
10000000
01000000
10000000
,
01000000
00130000
00001000
00010000
,
00000200
00001000
00000010
00001000
,
00000010
00000301
00000100
00010000
,
00002000
00100000
00010000
00100000
,
00010000
01003000
00010000
00100000
,
02000000
00000000
10000000
00000000
00010000
00000000
13000000
00100000
,
00000000
00000000
00100000
00010000
00000000
00010000
00001000
00000000
,
00011000
00010000
00000100
00010000
,
00000100
00000000
00001000
00000000
00000010
00000000
00000100
00000001
,
00000000
00000000
00000100
00001000
00000000
00000000
00010000
00100000
,
00000000
00010000
00000000
00001000
00000000
00100000
00000000
00011000
,
00000000
00001000
00100000
00001000
,
00100000
00000000
00010000
00000000
01000000
00000000
00100000
10000000
,
00000000
00000000
00100000
00010000
00000000
00000000
00001000
00000100
,
00000000
00000010
00000010
00000010
,
00001001
00000000
00000100
00000000
,
00010000
00000000
00001000
00000000
00100000
00001000
00010000
00000000
,
00001000
00000000
01000000
00000000
,
00100000
10000000
00010000
00100000
,
00101000
00000000
00010000
00000000
,
00000100
00000000
00001000
00000000
00000010
00001000
00000100
00000000
,
00000010
00000000
00001000
00000000
,
00001000
00010000
00100000
10000000
,
01000000
00010000
00001000
00000010
,
00000100
00000000
00000001
00000000
,
00000100
00000000
00001000
00010000
00001000
00000000
00010000
00000000
,
00100000
00100000
10000000
10000000
,
00100000
00010000
00001000
00000100
,
00000010
00000000
00000001
00000000
,
00000010
00000000
00001000
00010000
00001000
00000000
00010000
00000000
,
01000000
00000000
01000000
00000000
00100000
01000000
00100000
00000000
,
10010000
00000000
00000000
00000000
;

//---------------dance-double - ----------------
#NOTES:
     dance-double:
     :
     Hard:
     7:
     0.398198,0.398779,0.203459,0.132248,0.000000,274.000000,254.000000,20.000000,13.000000,0.000000,0.000000,0.398198,0.398779,0.203459,0.132248,0.000000,274.000000,254.000000,20.000000,13.000000,0.000000,0.000000:
00000000
00000000
00000000
00000000
,
00000000
00000000
00000000
00000000
,
00000000
00000000
00000000
00000000
,
00000000
00000000
00000000
00000000
,
00000000
00000000
00000000
00000000
,
10000000
01000000
00010000
01000000
,
10000000
00100000
00010000
00002000
00000000
00003010
00001000
00010000
,
01000000
00000000
10000000
00000000
00100000
00000000
00010000
00000020
,
00000000
00010030
00001000
02000000
00000000
03001000
00010000
00001000
,
00011000
00000000
00000100
00001000
00000010
00001000
00000100
00000000
,
00000001
00001100
00001000
00000101
,
00000001
00000000
00001000
00000100
00010000
00001000
01000000
00100000
,
00000000
00010000
00001000
00000010
00000000
00000100
00001100
00000000
,
00011000
00000000
00100000
00010000
01000000
00010000
00100000
00000000
,
10000000
00110000
00010000
10100000
,
10000000
00000000
00010000
00100000
00001000
00010000
00000010
00000100
,
00000000
00001000
00010000
01000000
10000000
00000000
10010000
01000000
,
00200000
10000000
00010000
10300000
,
01000000
10000000
00100000
00010000
00000000
00001000
00000010
00000001
,
00000200
00000000
00001000
00000000
00000001
00000000
00001300
00010000
,
00100000
00010000
00001000
00000000
00000010
00001000
00010000
00000000
,
02000000
10000000
00010000
13000000
,
00100000
10000000
01000000
00010000
00000000
00001000
00000100
00000001
,
00000020
00000000
00001000
00000000
00000001
00000000
00001030
00000010
,
00000001
00000100
00001000
00010000
01000000
10000000
00100000
00000000
,
10000000
10100000
01000000
01010000
,
00001000
00010000
00001000
00100000
00000000
00001000
00010000
00000200
,
00001000
00000010
00000001
00000010
,
00001300
00000100
00010000
00000010
00010000
00000100
00001000
00000000
,
00010000
00011000
01000000
01100000
,
00010000
00100000
01000000
00100000
00000000
00001000
00010000
00000020
,
00001000
00000100
00000001
00000100
,
00001030
00000010
00000100
00001000
00010000
00001000
00011000
00000000
,
00100000
00010000
01000000
00000000
10000000
01000000
00010000
00000000
,
10000000
00100000
01000000
00002000
00000000
00013000
00000100
00000020
,
00000000
00000130
00001000
00000001
00000010
00000000
00000100
00010000
,
00001000
00001000
00001000
00000000
00010000
00010000
00010000
00000000
,
01000000
00010000
00100000
00000000
10000000
00100000
00010000
00000000
,
10000000
01000000
00100000
00002000
00000000
00013000
00000010
00000200
,
00000000
00000310
00001000
00000001
00000100
00000000
00001000
00000100
,
00000001
00000010
00001000
00010000
00100000
00010000
00001000
00000000
,
00011000
00000000
00000100
00001000
00000010
00001000
00000100
00000000
,
00000001
00001100
00001000
00000101
,
00000001
00000000
00001000
00000100
00010000
00001000
01000000
00001000
,
00000000
00010000
00000100
00010000
00000000
00001000
00010000
00001000
,
00011000
00000000
00100000
00010000
01000000
00010000
00100000
00000000
,
10000000
00110000
00010000
10100000
,
10000000
00000000
00010000
00100000
00001000
00010000
00000010
00010000
,
00000000
00001000
00100000
00001000
00010000
00000000
00000100
00000010
,
00001001
00000000
00000000
00000000
;

//---------------dance-single - ----------------
#NOTES:
     dance-single:
     :
     Challenge:
     12:
     0.469409,0.523906,0.233978,0.244151,0.066124,323.000000,300.000000,23.000000,24.000000,0.000000,0.000000,0.469409,0.523906,0.233978,0.244151,0.066124,323.000000,300.000000,23.000000,24.000000,0.000000,0.000000:
// measure 0
0000
0000
0000
0000
,  // measure 1
0000
0000
0000
0000
,  // measure 2
0000
0000
0000
0000
,  // measure 3
0000
0000
0000
0000
,  // measure 4
0000
0000
0000
0000
0000
0000
1000
0100
,  // measure 5
0000
0010
0002
0000
0100
0000
1003
0000
,  // measure 6
0010
0001
0100
0010
0000
0010
1000
0100
,  // measure 7
0020
0000
0000
0000
0001
0000
0000
0000
0130
0000
0000
0100
0010
0000
1000
0000
,  // measure 8
0010
0001
0100
1000
0001
1000
0010
1000
,  // measure 9
0200
0000
0301
0001
0010
0010
0100
0010
,  // measure 10
1000
0001
0100
0020
0000
1030
0001
0100
,  // measure 11
0010
0000
1010
1000
0100
0001
0100
0010
,  // measure 12
0000
0000
0010
0000
0100
0010
0200
0000
0001
0000
0000
0000
0310
0000
1000
0000
,  // measure 13
0001
0000
0011
0001
0100
0010
1000
0001
,  // measure 14
0010
0100
1000
0002
0000
0103
0010
1000
,  // measure 15
0001
0000
1001
1000
0100
0010
0001
0100
,  // measure 16
0000
0000
0010
0000
0001
0010
0002
0000
0010
0000
0000
0000
0103
0000
0010
0000
,  // measure 17
2000
0100
3001
1001
,  // measure 18
1000
0000
0100
0000
0010
0000
0001
0000
0000
0001
0010
0000
0100
0000
0010
0000
,  // measure 19
0200
0000
1000
0000
0310
0001
0100
0010
,  // measure 20
0000
0100
0010
1000
0000
1000
0001
0100
,  // measure 21
0020
1000
0130
0101
,  // measure 22
0001
0000
0100
0001
0100
0000
0010
0000
0000
0000
1000
0100
1000
0000
0010
0000
,  // measure 23
0002
0000
0010
0000
1003
0001
1001
1000
,  // measure 24
0000
0000
1000
0001
1000
0000
0100
0000
0000
0000
0010
0001
0010
0000
0001
0000
,  // measure 25
0100
0010
0100
0001
0010
0100
1000
0001
,  // measure 26
0000
0011
0000
0101
0000
0100
0010
0100
,  // measure 27
0000
0100
0001
1000
0001
0100
0000
2010
,  // measure 28
0000
0100
0000
0001
0000
3010
0001
0100
,  // measure 29
0010
0000
1010
1000
0001
0100
0010
0100
,  // measure 30
0000
0000
0110
0000
0000
0000
1001
0000
0000
0001
0010
0000
0100
0000
1000
0000
,  // measure 31
0000
0001
0100
0010
0100
0000
0100
0010
,  // measure 32
0000
2002
0000
3003
0000
0100
0010
0200
,  // measure 33
0001
0010
2300
3100
,  // measure 34
1000
0010
0100
0001
0000
0001
0010
0002
,  // measure 35
0100
0000
1000
0000
0023
0000
0130
0010
,  // measure 36
0000
0001
0100
0010
0000
1000
0100
0010
,  // measure 37
2010
3100
0102
0013
,  // measure 38
0010
0001
0100
1000
0000
1000
0100
0001
,  // measure 39
0021
0000
0130
0010
0100
0000
0010
0200
,  // measure 40
0000
0001
0000
1000
0000
0301
0010
0100
,  // measure 41
1000
0000
1100
1000
0001
0100
0001
0010
,  // measure 42
0001
0100
0010
0110
0000
0100
0001
0010
,  // measure 43
0100
0000
0000
0100
0001
0000
0010
0000
0001
0000
0100
0000
0010
0000
1000
0000
,  // measure 44
0000
0000
1000
0001
1000
0000
0100
0000
0010
0000
0001
0000
0100
0000
0110
0000
,  // measure 45
0000
0010
0100
0000
0110
0000
0010
0000
0100
0000
0001
0000
0100
0000
0010
0000
,  // measure 46
1000
0100
0001
0010
0000
0100
1000
0001
,  // measure 47
0010
0000
0011
0001
0100
0010
1000
0001
,  // measure 48
0010
0000
0001
0000
0100
0000
0010
0000
1000
0000
0001
0000
0010
0000
0100
0010
,  // measure 49
0200
0001
0010
0301
,  // measure 50
1000
0100
0010
0011
0000
0001
0010
0100
,  // measure 51
1200
0010
0301
0000
;
