#TITLE:Long Live;
#SUBTITLE:(Taylor's Version);
#ARTIST:Taylor Swift;
#TITLETRANSLIT:;
#SUBTITLETRANSLIT:;
#ARTISTTRANSLIT:;
#GENRE:;
#CREDIT:;
#BANNER:;
#BACKGROUND:Ours (Taylor's Version)-bg.png;
#LYRICSPATH:;
#CDTITLE:;
#MUSIC:Long Live (Taylor's Version).mp3;
#OFFSET:0.000000;
#SAMPLESTART:100.000000;
#SAMPLELENGTH:12.000000;
#SELECTABLE:YES;
#BPMS:0.000000=200.000000
,4.000000=204.000000
,729.000000=102.000000
,795.500000=153.000000
,819.500000=102.000000
,833.000000=204.000000
;
#STOPS:251.000000=0.860000
;
#BGCHANGES:0.000=Ours (Taylor's Version)-bg.png=1.000=0=0=0=StretchNoLoop====,
0.500=Long Live (Taylor's Version).mp4=1.000=0=0=1=====,
99999=-nosongbg-=1.000=0=0=0 // don't automatically add -songbackground-
;
#KEYSOUNDS:;
#ATTACKS:;

//---------------dance-single - ----------------
#NOTES:
     dance-single:
     :
     Hard:
     17:
     0.478845,1.107391,0.306425,0.350200,0.050029,1072.000000,974.000000,98.000000,112.000000,0.000000,0.000000,0.478845,1.107391,0.306425,0.350200,0.050029,1072.000000,974.000000,98.000000,112.000000,0.000000,0.000000:
0000
0000
0000
0000
,
0000
0000
0000
0000
,
0000
0000
0000
0000
,
0000
0000
0000
0000
,
0000
0000
0000
0000
,
0000
0000
0000
0000
,
0000
0000
0000
0000
,
0000
0000
0000
0000
,
0000
1000
0010
0001
,
0100
0000
0110
0000
,
1001
0000
0000
0000
,
0000
0000
0100
0010
,
0100
0010
0010
0001
,
0001
0000
0100
0000
0100
0000
1000
0100
,
0010
0001
0200
0000
0010
0000
0010
0000
,
0010
0010
0010
0010
,
0310
0100
0000
0110
,
0000
0000
0100
0010
0100
0000
1001
0000
,
0010
0000
1000
0000
0000
0000
0001
0010
,
0001
0100
0010
1000
,
0001
0100
0000
0101
,
0000
0000
1000
0100
1000
0000
1001
0000
,
0100
0010
0100
0100
,
0010
0010
0001
1000
,
0002
0000
0203
0000
,
2300
0000
3020
0000
,
0230
0000
0302
0000
,
2003
0000
3200
0000
,
0320
0000
0000
0130
,
0000
0000
0100
0010
0100
0000
0100
0000
,
0110
0010
0001
1000
,
0001
0100
1000
0100
,
0002
1000
0000
0103
,
0010
0001
0100
0010
,
0100
2000
0000
3001
,
0100
0000
1000
0100
0000
0010
0000
0000
,
0100
2000
0000
3001
,
0000
1000
0010
0001
,
0010
1000
0001
0100
,
0010
0100
0010
1000
,
0002
0003
0200
0300
,
0020
0030
2000
3000
,
0200
0300
0020
0030
,
0002
0003
2000
3000
,
0200
0300
0000
0010
,
0100
0000
0010
0100
0010
0000
0100
0000
,
0110
0020
0100
0100
,
1000
1000
0001
0031
,
1000
0200
0000
0001
,
0300
1000
0100
0001
,
0100
2000
0000
3100
,
1000
0000
0100
0001
0000
0001
0100
0000
,
1000
0002
0000
0100
,
0000
1003
0000
0100
,
0010
0001
0100
0110
,
0010
1000
0001
0100
,
1200
0301
0010
0100
,
1000
0010
1000
0010
,
0001
0000
0100
0000
1000
0000
0100
1000
,
0100
0000
0010
0000
0000
0001
0010
0000
,
0100
1000
1000
0100
,
0100
0010
0010
0001
,
0001
0000
0100
0100
1000
1000
0020
0000
,
0130
0000
0110
0000
,
0100
0020
0030
0100
,
2000
3000
1001
0000
,
1000
0001
1000
0000
0100
0000
0100
0000
,
1000
0000
0001
0000
0200
0000
0300
0001
,
0100
0000
0100
0000
1000
0001
1000
0000
,
0200
0000
0302
0000
,
1003
0001
0100
0100
,
0220
0330
2002
3003
,
1000
0001
0100
1000
,
0100
0001
0000
1000
,
0100
0001
0100
1000
,
0010
0100
0002
0000
,
0000
0003
0100
1000
,
0100
0000
1000
0100
2000
0000
0000
0000
,
3000
0000
1000
0001
1000
0000
0100
0000
,
0010
0001
0100
0010
,
1000
0001
0010
0001
,
0100
0010
1000
0001
2000
0000
0010
0000
,
0010
0100
0100
0001
,
0001
3100
0110
0000
,
1001
0000
0100
0010
1000
0100
0010
0001
,
0100
0010
1000
0002
,
0100
0100
1000
1000
,
0010
0013
1001
0000
,
0110
0000
0010
1000
0100
0010
0001
1000
,
0010
0100
0001
0200
,
0010
0010
1000
1000
,
0301
2000
0000
3200
,
0000
0320
0000
0032
,
0000
0203
0000
0310
,
0000
0000
0100
0100
,
0010
2000
0000
3001
,
0000
0002
1000
1003
,
0100
0010
1000
0001
0020
0000
0100
0000
,
0100
1000
1000
0001
,
0001
0031
1000
0100
,
1000
0010
0001
0100
,
0010
1000
0100
0000
0101
0000
0000
1010
,
0000
0000
1100
0000
0000
1000
0001
0000
,
0100
0010
1000
0100
,
0001
0000
1000
0010
0100
0001
1000
0100
,
0010
0000
0100
0000
0001
0000
0000
1000
,
0001
0100
0010
1000
,
0001
0200
0000
0310
,
0100
0000
0001
0000
1000
0000
0100
0010
,
1000
0002
0000
0203
,
0000
0320
1000
2030
,
0000
0000
0000
3002
,
1000
1000
1003
1001
,
0001
0000
0100
0010
1000
0100
0010
0001
,
0100
0000
0110
0000
0010
0000
0000
0010
,
0100
0000
0100
0001
0200
0000
0000
0000
,
0301
1000
0100
0010
,
0001
0000
1000
0000
0010
0000
0000
0100
,
0010
0000
0100
0000
0001
0010
1000
0100
,
0001
0010
1000
0100
0001
0000
1001
0000
,
0001
2000
0000
3100
,
0001
0000
1001
0000
1000
0000
0001
0010
,
0001
0100
0010
1000
,
0001
0200
0000
2300
,
0000
3020
0000
0032
,
0000
0203
0000
0320
,
0000
2030
0000
3100
,
2000
0001
0001
0001
,
0001
0001
0001
3001
,
1001
0002
1000
1000
,
1000
1000
1003
1001
,
0001
0010
0100
1000
0001
0000
0000
0100
,
0010
0100
0101
1000
,
0100
0001
2002
3003
,
1000
0001
1000
0000
0100
0000
0100
0000
,
1000
0000
1000
0000
0002
0000
0003
0100
,
0001
1000
0100
0100
,
0010
0001
2000
0000
,
3100
0000
1000
0100
0001
0000
0100
0000
,
1001
0110
1001
0010
,
0001
0100
1000
0001
,
1001
0000
1001
0000
0100
0000
0010
1000
,
0100
0010
0001
1000
,
0001
0100
0020
0000
,
0000
0130
0000
0010
,
0100
0010
1000
0100
,
0010
0000
0001
0000
1000
0010
0100
0001
,
1000
0110
1001
0100
,
0010
0001
0100
0000
0010
0000
1010
0000
,
1000
1001
0010
0100
,
0010
0100
0010
0000
1000
0000
0100
0000
,
0001
0000
0010
0000
2000
0000
3000
0001
,
0100
1000
0010
0001
,
0100
0110
0010
1000
,
0001
0010
0100
1000
0001
0000
0100
0000
,
1001
0110
2001
0000
,
3100
0000
0010
0001
0100
0010
0000
1000
,
0100
0000
1000
0010
0100
0000
0010
0100
,
0001
1001
0110
1001
,
0011
0101
2200
3300
,
1000
0000
0001
0000
0100
0000
0010
0001
,
0100
0010
1000
0000
0100
0000
0010
0000
,
0001
0000
1000
0010
0100
0001
1000
0100
,
0010
0001
2002
3003
,
0001
0010
0100
1000
,
0001
0100
2000
0000
,
3200
0000
0000
0000
0320
0000
0031
0010
,
0001
0010
0200
0000
,
0000
2300
0000
0000
,
3100
0010
0001
0100
,
1000
0010
0001
0100
,
1000
0000
0200
0000
,
0000
0302
0000
0000
,
0013
0000
0000
0000
0010
0000
0000
0010
,
0001
0100
0000
0110
,
0000
1001
0000
0000
0200
0000
0000
0000
,
0000
0320
0000
0000
,
2030
0000
0000
3002
,
0000
0000
0103
0220
,
0000
0000
0000
0000
,
0000
0000
0000
0000
,
0000
0000
0000
0330
,
0000
0000
0000
0000
1000
0100
1000
0000
0100
0000
0010
0000
0001
0000
2000
0000
,
0000
0000
0100
0000
0100
0000
0010
0000
3010
0000
0001
0010
0100
1000
0001
0000
,
0100
0000
0010
0000
1000
0000
0200
0000
0310
1000
0100
0000
0020
0000
0001
0000
,
0001
0000
0100
0000
0130
0000
0010
0000
0010
0000
1000
0100
0010
0001
0200
0000
,
0010
0000
0010
0000
0001
0000
0301
0000
1000
0000
0010
0001
0100
0000
0010
0000
,
1000
0000
0001
0000
0100
0000
0010
0000
1000
0000
0001
1000
0000
0100
0000
1000
,
0000
0001
0000
0000
0000
0000
0100
0000
0100
0010
0100
0000
0010
0000
2000
0000
,
0000
0000
3001
0000
1000
0000
0100
0000
0010
0000
0001
0010
0100
1000
0020
0000
,
0100
0100
1000
1000
0001
0031
0101
1200
,
0310
0000
0001
0000
0100
0000
0010
0000
1000
0000
0100
0001
0010
0001
1000
0000
,
0100
0010
0100
0000
1000
0000
0100
0000
0001
0000
1001
0000
1001
0000
0100
0000
,
0100
0000
0010
0000
0010
0000
0001
0000
0001
0000
1000
0100
1000
0100
0001
0000
,
0100
1000
0100
0000
0001
0000
1000
0000
0100
0000
1001
0000
0110
0000
1001
0000
,
0001
0000
0001
0000
0100
0000
0100
0000
0010
0000
0010
0001
1000
0001
0010
0001
,
0100
0000
0010
0000
0000
0000
1000
0001
0000
0100
0001
0000
1000
0000
1100
0000
,
1000
0001
0100
1000
0100
0001
1000
0010
,
0001
0000
0010
0000
1000
0000
0100
1000
0100
0000
0010
1000
0010
0100
0001
0000
,
0000
0000
0000
0000
0000
0000
0000
0101
0000
0000
0000
0000
0000
0000
0000
0000
,
2200
0000
3300
0000
,
0000
0000
0001
0000
0000
0100
0000
0000
0010
0000
0000
1000
0000
0000
0110
0000
,
0000
0000
0000
0000
0000
0000
0000
1001
0000
0000
0000
0000
0000
0000
0000
0000
,
0220
0000
0000
0000
,
0330
0000
0000
0000
0100
0000
0000
0100
,
0000
0010
0100
0000
1000
0001
0000
1001
,
1000
0001
0100
0010
0100
0001
1000
1001
,
1001
1001
1001
1001
1001
1001
0110
1001
,
1001
1001
1001
0000
0110
0000
0000
0000
,
1001
0000
0110
0000
,
1000
0100
0000
0001
,
0100
0000
1001
0000
,
1000
0010
0001
0010
,
1000
0000
0100
0000
1001
0000
0000
0001
,
0100
1000
0100
0001
,
0100
0001
0010
0100
0001
0010
0100
0000
,
0010
1000
0100
0001
,
0101
1010
1100
1000
,
0001
0100
0001
0000
1000
0000
0100
0000
,
0110
0000
1001
0000
0001
0000
0100
0001
,
1000
0100
0010
0001
,
1000
0001
0100
0001
1000
0100
0010
0001
,
0100
0010
0000
0100
,
0001
0100
1000
0100
,
0001
0000
1000
0000
0010
0001
0100
0010
,
1010
0011
0101
1000
,
0010
0100
0001
1000
0100
0000
0010
0000
,
0001
0010
1000
0001
0100
0000
0001
0010
,
0100
1000
0001
0000
1010
0000
1100
0000
,
0101
0000
2002
3003
,
0100
0010
1000
0000
0100
0000
0100
0000
,
0010
0010
0001
0000
,
0100
0010
2001
3100
,
0201
0310
2000
0000
,
3001
0000
0010
0001
0100
0010
0000
0100
,
0000
0001
0100
0010
1000
0000
0100
0000
,
0010
0001
0010
0000
0001
0000
0100
0000
,
0010
0000
1000
0100
0010
0001
0100
0001
,
0010
0100
1000
0000
0100
0000
0010
1000
,
0010
0100
0002
0103
,
0020
1030
0200
1300
,
2000
3001
0100
0010
,
1001
0000
0100
0010
0200
0000
0010
0000
,
0010
0010
0010
0000
,
0000
0300
0000
0000
;

//---------------dance-single - ----------------
#NOTES:
     dance-single:
     :
     Medium:
     14:
     0.318932,0.572789,0.178227,0.212622,0.009380,714.000000,657.000000,57.000000,68.000000,0.000000,0.000000,0.318932,0.572789,0.178227,0.212622,0.009380,714.000000,657.000000,57.000000,68.000000,0.000000,0.000000:
// measure 0
0000
0000
0000
0000
,  // measure 1
0000
0000
0000
0000
,  // measure 2
0000
0000
0000
0000
,  // measure 3
0000
0000
0000
0000
,  // measure 4
0000
0000
0000
0000
,  // measure 5
0000
0000
0000
0000
,  // measure 6
0000
0000
0000
0000
,  // measure 7
0000
0000
0000
0000
,  // measure 8
0000
0001
1000
0001
,  // measure 9
1000
0000
0010
0000
,  // measure 10
0010
0000
0000
0010
,  // measure 11
0100
0000
0100
0010
,  // measure 12
0100
0010
0000
0010
,  // measure 13
0000
0010
0010
0100
,  // measure 14
0010
0200
0001
0001
,  // measure 15
0001
0001
0001
0001
,  // measure 16
0001
0001
0000
0300
,  // measure 17
0000
0000
0000
1001
,  // measure 18
0000
1001
0000
0020
,  // measure 19
1000
1000
1000
1000
,  // measure 20
1000
0000
0030
0000
,  // measure 21
0000
0000
0000
1001
,  // measure 22
0000
1001
0001
1000
,  // measure 23
0001
1000
0001
0100
,  // measure 24
0001
0000
0001
0000
,  // measure 25
0001
0000
0001
0000
,  // measure 26
1000
0000
1000
0000
,  // measure 27
1000
0000
1000
0000
,  // measure 28
1000
0000
1000
0000
,  // measure 29
1000
0100
1000
0001
,  // measure 30
0010
0002
1000
1000
,  // measure 31
1000
1000
1000
1000
,  // measure 32
1000
1000
0000
0003
,  // measure 33
0000
0000
0000
1001
,  // measure 34
0000
1001
0000
2000
,  // measure 35
0010
0010
0010
0010
,  // measure 36
0010
0010
0000
3000
,  // measure 37
0000
0000
0000
1001
,  // measure 38
0000
1001
0001
0100
,  // measure 39
0001
0100
0010
1000
,  // measure 40
0100
0000
0100
0000
,  // measure 41
0100
0000
0100
0000
,  // measure 42
0010
0000
0010
0000
,  // measure 43
0010
0000
0010
0000
,  // measure 44
0010
0000
0010
0000
,  // measure 45
0010
0100
0010
0100
,  // measure 46
0010
0100
0020
0100
,  // measure 47
0100
0100
0100
0100
,  // measure 48
0100
0100
0030
0000
,  // measure 49
0100
0000
0100
0000
,  // measure 50
0100
0000
0000
2000
,  // measure 51
0001
0001
0001
0001
,  // measure 52
0010
3010
0000
0010
,  // measure 53
0000
0010
0000
0010
,  // measure 54
0000
0002
0100
0100
,  // measure 55
0100
0100
0100
0100
,  // measure 56
1000
1003
0000
1000
,  // measure 57
0000
1000
0000
1000
,  // measure 58
0000
1000
0000
1000
,  // measure 59
0001
1000
0000
1001
,  // measure 60
0000
0010
0100
0010
,  // measure 61
0100
0010
0100
0010
,  // measure 62
0100
0110
0110
0110
,  // measure 63
0110
0000
1001
0000
,  // measure 64
0001
0010
0000
1000
,  // measure 65
0010
0000
0101
0000
,  // measure 66
1000
0100
1000
0100
,  // measure 67
1000
0100
0020
0030
,  // measure 68
0001
0100
0001
0100
,  // measure 69
0002
0000
1003
0000
,  // measure 70
0001
0010
0100
1000
,  // measure 71
0001
0100
0010
0000
,  // measure 72
0010
1000
0010
1000
,  // measure 73
0100
1000
0000
0000
,  // measure 74
0100
0010
0100
0010
,  // measure 75
0100
0010
0220
0000
,  // measure 76
0000
0000
0000
0330
0000
0000
0110
0000
,  // measure 77
0000
2002
0000
3003
,  // measure 78
0000
0002
0023
2030
,  // measure 79
3200
0302
0023
0030
,  // measure 80
0000
0000
0000
0000
,  // measure 81
0000
0000
0000
0002
,  // measure 82
0100
0100
0100
0100
,  // measure 83
0100
0100
0100
0000
,  // measure 84
0003
0000
0000
0000
,  // measure 85
0000
0000
0000
2000
,  // measure 86
0010
0010
0010
0010
,  // measure 87
0010
0010
0010
0000
,  // measure 88
3000
0000
0000
0000
,  // measure 89
0000
0000
0000
0200
,  // measure 90
1000
1000
1000
1000
,  // measure 91
1000
1000
0000
1000
,  // measure 92
0000
1000
0000
1000
,  // measure 93
0000
1000
0000
1000
,  // measure 94
0300
0000
0020
0001
,  // measure 95
0001
0001
0001
0001
,  // measure 96
0001
0000
0030
0000
,  // measure 97
0000
0000
0000
0001
,  // measure 98
0100
0010
1000
0010
,  // measure 99
0100
0001
1000
0000
,  // measure 100
1100
0000
0101
0000
,  // measure 101
0100
0000
0010
0000
0100
0000
0000
0100
,  // measure 102
0000
0100
0000
0010
,  // measure 103
1000
0010
1000
0000
,  // measure 104
0000
0000
1001
0000
,  // measure 105
1001
0000
1001
0000
,  // measure 106
0001
0010
0001
0010
,  // measure 107
0001
0010
0000
0010
,  // measure 108
0000
0010
0000
0010
,  // measure 109
0001
0100
0000
0100
,  // measure 110
0000
0100
0100
1000
,  // measure 111
0001
0000
0000
2002
,  // measure 112
0000
0000
0000
0000
,  // measure 113
0000
0000
3003
0000
,  // measure 114
0020
1000
1000
1000
,  // measure 115
1000
0000
1000
0000
0000
2000
0000
0000
,  // measure 116
0000
0000
0000
3030
0000
0000
0000
0000
,  // measure 117
0000
0000
0000
0000
,  // measure 118
0110
0110
0001
0010
,  // measure 119
0100
1000
0000
0000
,  // measure 120
0100
0010
1000
0100
,  // measure 121
0001
0100
0010
0200
,  // measure 122
0001
0001
0001
0001
,  // measure 123
0001
0001
0000
0001
,  // measure 124
0000
0001
0000
0001
,  // measure 125
0000
0001
0000
0001
,  // measure 126
0000
0301
0000
0001
,  // measure 127
0001
0000
0010
0000
0100
0010
0100
0000
,  // measure 128
1000
0000
0100
0000
1000
0100
1000
0000
,  // measure 129
0100
0010
0001
0010
,  // measure 130
0001
0000
0010
0000
0001
0010
0001
0000
,  // measure 131
2002
3003
0101
0000
,  // measure 132
0100
0010
0000
0010
,  // measure 133
1000
0000
1001
0000
,  // measure 134
1000
0100
0001
0010
,  // measure 135
1000
0000
1001
0000
,  // measure 136
0001
0010
1000
0100
,  // measure 137
0010
0000
0101
0000
,  // measure 138
0100
0001
1000
0001
,  // measure 139
0020
0000
0130
0000
,  // measure 140
1000
0001
1000
0001
,  // measure 141
1000
0100
0000
0200
,  // measure 142
1000
1000
1000
1000
,  // measure 143
1000
1000
1000
0000
,  // measure 144
0000
0310
0000
0010
,  // measure 145
0100
0000
0010
0000
0100
0010
0100
0000
,  // measure 146
0001
0000
1000
0000
0001
1000
0001
0000
,  // measure 147
1000
0010
0220
0330
,  // measure 148
0010
0010
0100
0010
,  // measure 149
0100
0010
0000
0010
,  // measure 150
0001
0100
1000
0010
,  // measure 151
0100
0000
1001
0000
,  // measure 152
0010
0100
0001
0010
,  // measure 153
0100
1000
0010
0000
,  // measure 154
0100
0001
1000
0001
,  // measure 155
0010
0001
0100
0000
,  // measure 156
0000
0000
0000
0000
0001
0000
0000
0000
0001
0000
0000
0001
0000
0000
0001
0000
,  // measure 157
0000
0001
0000
0010
,  // measure 158
0001
1000
0001
0100
,  // measure 159
0001
1000
0002
0000
,  // measure 160
0000
0000
0103
0010
,  // measure 161
1000
0100
0020
0000
,  // measure 162
0130
0200
0001
0001
,  // measure 163
0001
0001
0001
0000
,  // measure 164
0000
0300
0000
0000
,  // measure 165
0000
0000
0100
0010
,  // measure 166
0100
0000
0010
0000
0100
0000
0010
0100
,  // measure 167
0010
0000
2000
0000
,  // measure 168
3000
0200
0000
0300
,  // measure 169
0000
0000
0002
0000
,  // measure 170
0003
0000
0020
0000
,  // measure 171
0030
0000
0200
0000
,  // measure 172
0300
2000
0000
3000
,  // measure 173
0000
0000
0000
0000
1010
0000
0000
1000
,  // measure 174
0010
0002
1000
1000
,  // measure 175
0000
1003
0000
0000
1001
0000
0000
0000
,  // measure 176
0000
1100
0000
0000
,  // measure 177
1001
0000
0000
0101
,  // measure 178
0000
0000
1001
2002
,  // measure 179
0000
0000
0000
0000
,  // measure 180
0000
0000
0000
3003
,  // measure 181
0000
0000
0000
0000
,  // measure 182
0000
0000
0001
0010
0001
0100
0001
2000
,  // measure 183
0000
3000
0000
0000
0000
0000
0000
0000
,  // measure 184
0000
0000
0000
1000
0100
1000
0020
0000
,  // measure 185
0030
0000
0000
0000
0000
0000
0000
0001
,  // measure 186
0010
1000
0100
0010
0001
0100
0100
0200
,  // measure 187
0000
0300
0000
0000
0000
0100
1000
0001
,  // measure 188
0100
0000
0010
0000
0000
0000
0010
0000
0000
0010
1000
0000
0000
0000
0020
0000
,  // measure 189
0000
0100
0000
0100
0000
0100
0000
0130
,  // measure 190
0100
0001
1000
0001
0010
0001
0100
0202
,  // measure 191
0000
0303
0000
0000
0000
0000
0000
0000
,  // measure 192
0100
0010
1000
0010
0100
1000
2200
0000
,  // measure 193
3300
0000
0000
0000
,  // measure 194
0000
1000
0010
0100
0001
0010
2000
0002
,  // measure 195
0000
3003
0000
0000
0000
0000
0000
0000
,  // measure 196
0000
0101
0000
1010
0000
0101
0000
2020
,  // measure 197
0000
3030
0000
0000
0000
0000
0000
0110
,  // measure 198
0000
0000
0000
0100
0100
0010
0010
1000
,  // measure 199
0000
0000
0000
0000
0000
0000
0000
0100
0000
0000
0000
0000
0000
0000
0000
0000
,  // measure 200
0001
0000
0000
0000
,  // measure 201
0000
0000
0010
0000
0000
0010
0000
0000
0100
0000
0000
0100
0000
0000
1000
0000
,  // measure 202
0000
0000
0000
0000
0000
0000
0000
0001
0000
0000
0000
0000
0000
0000
0000
0000
,  // measure 203
2002
0000
0000
0000
,  // measure 204
0000
0000
0000
3000
1000
0000
0000
1003
,  // measure 205
0000
0000
0000
0000
0000
0000
0000
1010
,  // measure 206
0000
0000
0000
0000
0000
0000
0000
0100
,  // measure 207
0100
0010
0010
0100
0100
0010
0010
1000
,  // measure 208
0001
1000
0001
0000
1001
0000
0000
0000
,  // measure 209
1001
0000
1001
0000
,  // measure 210
0010
0001
0000
0001
,  // measure 211
0100
0000
0101
0000
,  // measure 212
0001
0010
1000
0100
,  // measure 213
0010
0001
0200
0300
,  // measure 214
0010
0001
0100
0010
,  // measure 215
1000
0100
0020
0030
,  // measure 216
0001
0100
0001
1000
,  // measure 217
0001
0010
0001
0000
,  // measure 218
0100
0010
1000
0001
,  // measure 219
0010
0100
0000
1000
,  // measure 220
0010
1000
0001
1000
,  // measure 221
0100
1000
0200
0000
,  // measure 222
0300
0110
0000
0010
,  // measure 223
1000
0001
0100
0010
,  // measure 224
1000
0000
0001
0000
0010
0100
0010
0000
,  // measure 225
0100
1000
0001
1000
,  // measure 226
0001
0010
0100
0001
,  // measure 227
1000
0010
0000
0010
,  // measure 228
0010
0010
0010
0010
,  // measure 229
0100
0000
0110
0000
,  // measure 230
0010
1000
0100
0010
,  // measure 231
0001
0100
0020
0000
,  // measure 232
0030
0001
1000
0000
,  // measure 233
1001
0000
0110
0000
,  // measure 234
0000
0020
1000
1000
,  // measure 235
1000
1030
0000
0002
,  // measure 236
1000
1000
1000
1000
,  // measure 237
1000
1000
1000
0000
,  // measure 238
0000
0000
0003
1000
,  // measure 239
0000
2000
0001
0001
,  // measure 240
0001
0001
0001
0001
,  // measure 241
0001
0001
0001
3001
,  // measure 242
0200
0000
0010
0010
,  // measure 243
0010
0010
0010
0000
,  // measure 244
0000
0300
0000
0000
;
