#TITLE:Lift You Up;
#SUBTITLE:;
#ARTIST:wolli;
#TITLETRANSLIT:;
#SUBTITLETRANSLIT:;
#ARTISTTRANSLIT:;
#GENRE:;
#CREDIT:;
#BANNER:Lift You Up.png;
#BACKGROUND:Lift You Up-bg.png;
#LYRICSPATH:;
#CDTITLE:;
#MUSIC:Lift You Up.ogg;
#OFFSET:0.000000;
#SAMPLESTART:42.910000;
#SAMPLELENGTH:15.000000;
#SELECTABLE:YES;
#DISPLAYBPM:123.000000;
#BPMS:0.000000=123.288002
,4.000000=122.995003
;
#STOPS:
;
#BGCHANGES:;
#KEYSOUNDS:;
#ATTACKS:;

//---------------dance-single - ----------------
#NOTES:
     dance-single:
     :
     Beginner:
     3:
     0.110769,0.148173,0.000000,0.000000,0.000000,73.000000,73.000000,0.000000,0.000000,0.000000,0.000000,0.110769,0.148173,0.000000,0.000000,0.000000,73.000000,73.000000,0.000000,0.000000,0.000000,0.000000:
0000
0000
0000
0000
,
0000
0000
0000
0000
,
0000
0000
0000
0000
,
0000
0000
0000
0000
,
0000
0000
0000
0000
,
0000
0000
1000
0000
,
0000
0000
1000
0000
,
0000
0000
0001
0000
,
0000
0000
0001
0000
,
0000
0000
0100
0000
,
0000
0000
0100
0000
,
0000
0000
0010
0000
,
0000
0000
0010
0000
,
0000
0000
1000
0000
,
1000
0000
0001
0000
,
0001
0000
0010
0000
,
0010
0000
0100
0000
,
0100
0000
1000
0000
,
0001
0000
0010
0010
,
0010
0000
0001
0000
,
1000
0000
0100
0100
,
0100
0000
0000
0000
,
0000
0000
0000
0010
,
0000
0010
0000
1000
,
0000
0001
0000
0100
,
0000
0100
0000
0001
,
0000
0100
0000
1000
,
0000
0100
0000
0001
,
0000
1000
0000
0001
,
0000
1000
1000
0000
,
0000
0000
0010
0000
,
0000
0000
0001
0000
,
0001
0000
0010
0000
,
0010
0000
1000
0000
,
1000
0000
0100
0000
,
0100
0000
0001
0001
,
0000
0000
1000
1000
,
0000
0000
0100
0100
,
0000
0000
0010
0010
,
0000
0000
0000
0010
,
0000
0001
0000
1000
,
0000
0010
0000
1000
,
0000
0100
0000
0001
,
0000
0100
0000
1000
,
0000
0001
0000
0010
,
0000
1000
0000
0001
,
0000
1000
1000
0000
,
0000
0000
0000
0000
;

//---------------dance-single - ----------------
#NOTES:
     dance-single:
     :
     Easy:
     4:
     0.191190,0.222259,0.053108,0.031865,0.000000,126.000000,121.000000,5.000000,3.000000,0.000000,0.000000,0.191190,0.222259,0.053108,0.031865,0.000000,126.000000,121.000000,5.000000,3.000000,0.000000,0.000000:
0000
0000
0000
0000
,
0000
0000
0000
0000
,
0000
0000
0000
0000
,
0000
0000
0000
0000
,
0000
0000
0000
0000
,
0000
0000
0100
1000
,
0010
0000
0100
0001
,
0010
0000
1000
0010
,
0001
0010
1001
0000
,
0100
0000
0010
0000
,
0010
0000
0001
1000
,
0100
0000
0010
0000
,
0010
0000
1000
0001
,
0100
0000
0001
0000
,
0001
0000
0010
1000
,
0100
0000
1000
0000
,
1000
0000
0010
0001
,
1000
1001
0010
0100
,
0001
0000
0010
0100
,
1000
0000
0010
0000
,
0100
0000
1000
0001
,
2002
3003
0100
0000
,
0010
0010
0001
1000
,
0100
0001
0100
1000
,
0010
0000
1000
0001
,
0100
0010
0100
0000
,
0001
0001
0010
1000
,
0001
0010
0100
1000
,
0001
0000
0100
0010
,
0100
0010
1000
0001
,
0010
0000
0200
0000
,
0000
0300
0001
0000
,
0100
0000
1000
0000
,
0010
0000
0001
0000
,
1000
0000
0010
0000
,
0001
0000
0001
0001
,
0010
0000
1000
1000
,
0010
0000
1000
0000
,
0010
0000
1001
0000
,
0010
0010
1000
0001
,
0010
1000
0010
0001
,
0100
0000
0001
1000
,
0010
0100
0010
0000
,
0001
0001
0100
0001
,
1000
0100
0010
0001
,
1000
0000
0010
1000
,
0010
0001
1001
0000
,
0000
0000
0000
0000
;

//---------------dance-single - ----------------
#NOTES:
     dance-single:
     :
     Medium:
     6:
     0.280716,0.321040,0.169947,0.053108,0.000000,185.000000,169.000000,16.000000,5.000000,0.000000,0.000000,0.280716,0.321040,0.169947,0.053108,0.000000,185.000000,169.000000,16.000000,5.000000,0.000000,0.000000:
0000
0000
0000
0000
,
0000
0000
0000
0000
,
0000
0000
0000
0000
,
0000
0000
0000
0000
,
0000
0000
0000
0000
,
0000
0000
0010
1000
,
0100
1100
0010
0001
,
0100
0101
1000
0100
,
0001
0100
1001
0000
,
0010
0010
0100
0001
,
0100
0000
1000
0000
0001
0100
1000
0000
,
0010
0000
1000
0010
,
0001
0010
1000
0001
,
0110
0000
0100
0010
,
1000
0000
0100
0000
0001
0010
1000
0000
,
0010
0000
1000
0010
,
0001
0000
0010
0000
0100
1000
0001
0000
,
0100
1001
0100
0001
,
0010
0001
1000
0000
0100
0000
1000
0000
,
0010
1000
0001
0000
0100
0000
1000
0000
,
0100
0000
0001
0000
0010
0001
0100
0000
,
2002
3003
0010
0010
,
0100
0110
0001
1000
,
0010
0100
0001
0000
0010
0000
1100
0000
,
0010
0101
1000
0001
,
0010
0001
0100
0000
2010
0000
0000
0000
,
0001
3001
0100
1000
,
0001
1000
0100
0000
0010
0000
1000
0000
,
0001
0000
0100
0000
0010
1000
0100
0000
,
0010
0001
0100
0000
1000
0000
0100
0000
,
1001
0000
0020
0000
,
0000
0030
0001
0001
,
0010
0010
1000
1000
,
0100
0100
0001
0010
,
1000
0100
0001
0010
,
1000
0000
0100
0000
0001
0010
0001
0000
,
0100
0000
0000
0000
1000
0010
1000
0000
,
0100
0000
1000
0001
,
0100
0010
1001
0000
,
0100
0100
1000
0001
,
0100
0010
1000
0000
0100
0000
1001
0000
,
0010
0110
0001
1000
,
0100
0001
0010
0000
2100
0000
0000
0000
,
0001
3001
0010
0001
,
1000
0100
0010
0000
0100
0000
0001
0000
,
1000
0000
0001
0000
0100
0010
1000
0000
,
0100
0010
0001
0000
1001
0000
0000
0000
,
0000
0000
0000
0000
;

//---------------dance-single - ----------------
#NOTES:
     dance-single:
     :
     Hard:
     10:
     0.362655,0.419822,0.106217,0.031865,0.260231,239.000000,229.000000,10.000000,3.000000,0.000000,0.000000,0.362655,0.419822,0.106217,0.031865,0.260231,239.000000,229.000000,10.000000,3.000000,0.000000,0.000000:
0000
0000
0000
0000
,
0000
0000
0000
0000
,
0000
0000
0000
0000
,
0000
0000
0000
0000
,
0000
0000
0000
0000
,
0000
0000
1000
0001
,
0010
0000
0000
0011
0000
0000
1000
0000
0100
0000
0000
0000
0010
0000
0000
0000
,
0100
0001
0010
1000
,
0001
0000
0000
0110
0000
0000
1000
0000
0010
0000
0000
0000
0100
0000
0000
0000
,
0001
0000
0010
1000
,
0010
0001
1000
0001
,
0100
0000
0010
0100
0001
0000
0100
0000
,
1000
0000
0100
0000
0001
0010
1000
0000
,
0100
1001
0010
0100
,
0001
0010
1000
0001
,
0100
0000
1000
0100
0001
0000
0100
0000
,
1000
0000
0100
0000
0010
0001
1000
0000
,
0010
0000
0000
0000
0101
0000
0000
0000
0010
0000
0000
0010
1000
0000
0000
1000
,
0001
0000
0100
0000
1000
0000
0000
0000
0001
0000
0000
0001
0010
0000
0000
0010
,
0100
0000
1000
0000
0001
0000
0000
0000
0010
0000
0000
0010
0001
0000
0000
0000
,
0010
0000
0000
0010
1000
0000
0000
0000
0001
0000
0100
0000
1000
0000
0000
0000
,
2002
3003
0100
0100
,
0010
0000
0100
0000
0010
0000
0000
0000
1000
0000
0000
1000
0001
0000
0000
0001
,
0100
0000
0000
0100
1000
0000
0000
1000
0100
0000
0000
0100
0001
0000
0000
0001
,
0010
0000
0001
0000
0100
0000
0000
0000
0001
0000
0000
0001
1000
0000
0000
1000
,
0100
0000
0000
0100
0010
0000
0000
0010
0100
0000
0000
0100
1000
0000
0000
1000
,
0010
0000
0000
0000
0101
0000
0000
0000
0010
0000
0000
0010
0001
0000
0000
0001
,
1000
0000
0000
1000
0010
0000
0000
0010
0100
0000
0000
0100
0001
0000
0000
0001
,
1000
0000
0100
0000
0001
0000
0000
0000
0100
0000
0000
0100
0010
0000
0001
0000
,
0100
0000
0000
0100
0010
0000
1000
0000
0001
0000
0000
0001
0010
0000
0100
0000
,
1001
0000
0200
0000
,
0000
0300
1000
1000
,
0100
0100
0001
0001
,
0010
0010
1000
0100
,
0001
0010
1000
0100
,
0001
0000
0010
0000
1000
0100
1000
0000
,
0001
0000
0100
0000
0010
0001
0010
0000
,
1000
0000
0010
0000
0001
0100
1000
0000
,
1000
0100
0001
0000
1000
0000
0100
0000
,
0010
0000
0000
0000
1001
0000
0000
0000
0001
0000
0000
0001
1000
0000
0000
1000
,
0010
0000
0000
0010
0001
0000
0000
0001
0010
0000
0000
0010
1000
0000
0000
1000
,
0100
0000
1000
0000
0010
0000
0000
0000
1000
0000
0000
1000
0001
0000
0000
0001
,
0010
0000
0000
0010
0100
0000
0000
0100
0010
0000
0000
0010
0001
0000
0000
0001
,
0100
0000
0000
0000
1010
0000
0000
0000
0100
0000
0000
0100
1000
0000
0000
1000
,
0001
0000
0000
0001
0100
0000
0000
0100
0010
0000
0000
0010
1000
0000
0000
1000
,
0001
0000
0010
0000
1000
0000
0000
0000
0010
0000
0000
0010
0001
0000
0100
0000
,
0010
0000
0000
0010
1000
0000
0100
0000
1001
0000
0000
0000
0000
0000
0000
0000
,
0000
0000
0000
0000
;

//---------------dance-double - ----------------
#NOTES:
     dance-double:
     :
     Easy:
     5:
     0.185121,0.222259,0.042487,0.053108,0.000000,122.000000,118.000000,4.000000,5.000000,0.000000,0.000000,0.185121,0.222259,0.042487,0.053108,0.000000,122.000000,118.000000,4.000000,5.000000,0.000000,0.000000:
00000000
00000000
00000000
00000000
,
00000000
00000000
00000000
00000000
,
00000000
00000000
00000000
00000000
,
00000000
00000000
00000000
00000000
,
00000000
00000000
00000000
00000000
,
00000000
00000000
00100000
00000000
,
01000000
00000000
10000000
01000000
,
00010000
00000000
00001000
00000100
,
00000001
00000100
00002002
00000000
,
00000000
00003003
00000010
00000000
,
00000010
00000000
00001000
00010000
,
00001000
00000000
01000000
00000000
,
01000000
00000000
00010000
10000000
,
00100000
00000000
01000000
00000000
,
01000000
00000000
00010000
00001000
,
00010000
00000000
00000010
00000000
,
00000010
00000000
00000100
00001000
,
00000001
00000100
00000010
00001000
,
00000100
00000000
00010000
00001000
,
00100000
00000000
01000000
00000000
,
00100000
00000000
00010000
00001000
,
00022000
00000000
00000000
00033000
,
00000100
00000100
00001000
00000001
,
00000010
00001000
00010000
00100000
,
10000000
00000000
00010000
10000000
,
00100000
01000000
00010000
00000000
,
00001000
00001000
00000100
00000001
,
00001000
00000100
00000010
00001000
,
00010000
00000000
00100000
10000000
,
00100000
00010000
10000000
01000000
,
00010000
00000000
00002000
00000000
,
00000000
00003000
00000010
00000000
,
00000001
00000000
00000100
00000000
,
00001000
00000000
00010000
00000000
,
00100000
00000000
10000000
00000000
,
01000000
00000000
00010000
00010000
,
00000010
00000000
00001000
00001000
,
01000000
00000000
00010000
00000000
,
00000100
00000000
00001001
00000000
,
00000100
00000100
00001000
00000001
,
00000100
00001000
00010000
01000000
,
10000000
00000000
00010000
10000000
,
00100000
01000000
00010000
00000000
,
00001000
00001000
00000010
00000001
,
00001000
00000010
00000100
00001000
,
00010000
00000000
01000000
10000000
,
01000000
00010000
10010000
00000000
,
00000000
00000000
00000000
00000000
;

//---------------dance-double - ----------------
#NOTES:
     dance-double:
     :
     Medium:
     6:
     0.277681,0.321040,0.106217,0.053108,0.000000,183.000000,173.000000,10.000000,5.000000,0.000000,0.000000,0.277681,0.321040,0.106217,0.053108,0.000000,183.000000,173.000000,10.000000,5.000000,0.000000,0.000000:
00000000
00000000
00000000
00000000
,
00000000
00000000
00000000
00000000
,
00000000
00000000
00000000
00000000
,
00000000
00000000
00000000
00000000
,
00000000
00000000
00000000
00000000
,
00000000
00000000
00000100
00000001
,
00000010
00000000
00000001
00001000
00000010
00000000
00010000
00000000
,
01000000
10000000
00100000
00010000
,
00100000
10000000
01010000
00000000
,
00100000
00100000
00010000
00001000
,
00000010
00000000
00000001
00000000
00001000
00000100
00010000
00000000
,
00001000
00000000
00000010
00000001
,
00000100
00000000
00001000
00000000
00010000
00001000
00000010
00000000
,
00000100
00000000
00000010
00001000
,
00010000
00000000
00100000
00000000
10000000
00010000
01000000
00000000
,
00100000
00000000
10000000
01000000
,
00010000
00000000
00001000
00000000
00000010
00000001
00001000
00000000
,
00000010
00000101
00000010
00001000
,
00000100
00010000
00001000
00000000
00100000
00000000
00010000
00000000
,
01000000
10000000
00100000
00000000
01000000
00000000
00001000
00000000
,
00010000
00000000
00100000
00000000
00010000
00001000
00000010
00000000
,
00002002
00003003
00000100
00000100
,
00000010
00000110
00001000
00000001
,
00000100
00001000
00010000
00000000
00001000
00000000
00000010
00000000
,
00001000
00010000
00100000
10000000
,
00010000
00100000
01000000
00000000
10020000
00000000
00000000
00000000
,
01000000
00000000
01030000
00000000
00100000
00010000
00001000
00000000
,
00000010
00000000
00000100
00000000
00010000
00001000
00000010
00000000
,
00000001
00000000
00000100
00000000
00001000
00010000
01000000
00000000
,
00100000
00001000
00010000
00000000
00100000
00000000
10000000
00000000
,
01010000
00000000
00200000
00000000
,
00000000
00300000
10000000
10000000
,
01000000
01000000
00010000
00010000
,
00001000
00001000
00000010
00000010
,
00000001
00000001
00000100
00000100
,
00001000
00000000
00001000
00000000
00100000
00001000
01000000
00000000
,
00010000
00000000
00000000
00000000
00000010
00010000
00000100
00000000
,
00001000
00000000
00000001
00001000
,
00000010
00000100
00000101
00000000
,
00001000
00011000
00010000
10000000
,
00100000
00010000
00001000
00000000
00010000
00000000
01000000
00000000
,
00010000
00001000
00000100
00000001
,
00001000
00000100
00000010
00000000
00002001
00000000
00000000
00000000
,
00000010
00000000
00003010
00000000
00000100
00001000
00010000
00000000
,
01000000
00000000
00100000
00000000
00001000
00010000
01000000
00000000
,
10000000
00000000
00100000
00000000
00010000
00001000
00000010
00000000
,
00000100
00010000
00001000
00000000
00001010
00000000
00000000
00000000
,
00000000
00000000
00000000
00000000
;

//---------------dance-double - ----------------
#NOTES:
     dance-double:
     :
     Hard:
     8:
     0.335342,0.395127,0.074352,0.031865,0.047798,221.000000,214.000000,7.000000,3.000000,0.000000,0.000000,0.335342,0.395127,0.074352,0.031865,0.047798,221.000000,214.000000,7.000000,3.000000,0.000000,0.000000:
00000000
00000000
00000000
00000000
,
00000000
00000000
00000000
00000000
,
00000000
00000000
00000000
00000000
,
00000000
00000000
00000000
00000000
,
00000000
00000000
00000000
00000000
,
00000000
00000000
00010000
10000000
,
00100000
00000000
00000000
00010000
00000000
00000000
00001000
00000000
00000100
00000000
00000000
00000000
00000010
00000000
00000000
00000000
,
00001000
00000000
00000000
00000100
00000000
00000000
00000001
00000000
00000010
00000000
00000000
00000000
00000100
00000000
00000000
00000000
,
00010000
00000000
00000000
00001000
00000000
00000000
01000000
00000000
00100000
00000000
00000000
00000000
10000000
00000000
00000000
00000000
,
01000000
00000000
00100000
00010000
,
00100000
00000000
00000000
00000000
01000000
00000000
00000000
00000000
10000000
00000000
00000000
01000000
00000000
00000000
00010000
00000000
,
00001000
00000100
00000001
00000010
,
00001000
00000000
00000000
00000000
00000010
00000000
00000000
00000000
00000100
00000000
00000000
00001000
00000000
00000000
00010000
00000000
,
00100000
10010000
00100000
01000000
,
10000000
00000000
00000000
00000000
00100000
00000000
00000000
00000000
00010000
00000000
00000000
00001000
00000000
00000000
00000010
00000000
,
00000001
00001000
00000010
00010000
,
00000100
00000000
00000000
00000000
00001000
00000000
00000000
00000000
00010000
00000000
00000000
01000000
00000000
00000000
00100000
00000000
,
10000000
00000000
00000000
00000000
11000000
00000000
00000000
00000000
00100000
00000000
00000000
00100000
00010000
00000000
10000000
00000000
,
00100000
00000000
00000000
00000000
01010000
00000000
00000000
00000000
00001000
00000000
00000000
00001000
00000010
00000000
00000100
00000000
,
00000001
00000000
00001100
00000000
00000010
00000100
00001000
00000000
,
00000010
00000100
00000001
00000000
00000010
00001000
00010000
00001000
,
00220000
00330000
01000000
01000000
,
00100000
01000000
00100000
00000000
00010000
01000000
00010000
00000000
,
10000000
01000000
10000000
00000000
00100000
01000000
00100000
00000000
,
00010000
00001000
00000010
00000001
00000100
00001000
00000100
00000000
,
00000001
00001000
00000001
00000000
00000010
00001000
00010000
00001000
,
00000010
00000000
00000100
00000000
00010000
00001000
00100000
00000000
,
00010000
01000000
10000000
00000000
01000000
00100000
10000000
00000000
,
01000000
00010000
00001000
00000100
00000001
00000010
00000001
00000000
,
00001000
00000010
00001000
00000000
00000100
00010000
00001000
00100000
,
00010000
01000000
00200000
00000000
,
00000000
00300000
10000000
01000000
,
00100000
01000000
00010000
00001000
,
00000010
00000001
00000100
00001000
,
00000100
00000010
00001000
00010000
,
00100000
00000000
10000000
00000000
00010000
01000000
00010000
00000000
,
10000000
00000000
01000000
00000000
00010000
00001000
00010000
00000000
,
00000100
00000000
00000010
00000000
00000001
00000100
00001000
00000000
,
00000100
00000010
00001000
00000000
00000100
00000000
00000010
00000000
,
00001000
00000000
00011000
00000000
00010000
00100000
10000000
00000000
,
00010000
01000000
10000000
00000000
01000000
00100000
01000000
00000000
,
00010000
00001000
00000100
00000001
00000010
00001000
00000010
00000000
,
00000001
00001000
00000001
00000000
00000010
00010000
00000100
00001000
,
00000010
00000000
00000100
00000000
00001000
00010000
01000000
00000000
,
00100000
00010000
10000000
00000000
00100000
01000000
00001000
00000000
,
00100000
00010000
00001000
00000010
00000001
00000100
00000001
00000000
,
00001000
00000100
00010000
00000000
00011000
00000000
00000000
00000000
,
00000000
00000000
00000000
00000000
;

//---------------dance-single - ----------------
#NOTES:
     dance-single:
     :
     Challenge:
     13:
     0.614540,0.752812,0.361137,0.329272,0.557639,405.000000,371.000000,34.000000,31.000000,0.000000,0.000000,0.614540,0.752812,0.361137,0.329272,0.557639,405.000000,371.000000,34.000000,31.000000,0.000000,0.000000:
// measure 0
0000
0000
0000
0000
,  // measure 1
0000
0000
0000
0000
,  // measure 2
0000
0000
0000
0000
,  // measure 3
0000
0000
0000
0000
,  // measure 4
0000
0000
0000
0000
,  // measure 5
0000
0000
0000
0000
0000
0000
0000
0000
0001
0000
0000
0001
0010
0000
0000
0010
,  // measure 6
0100
0000
0000
0100
1000
0000
0000
1000
0010
0000
0000
0010
0100
0000
0000
0100
,  // measure 7
0001
0010
0100
1000
0000
1010
0000
0101
,  // measure 8
0000
1100
0000
0022
0000
0000
0000
0033
,  // measure 9
0000
0000
0000
0000
0000
0000
1000
0000
0200
0000
0001
0010
0000
0000
0310
0000
,  // measure 10
2000
0000
0010
0100
0000
0000
3100
0000
0002
0000
1000
0100
0000
0000
0103
0000
,  // measure 11
0020
0000
0000
0000
0130
0000
0001
0100
0020
0000
1000
0100
0000
0000
0130
0000
,  // measure 12
0002
0000
0010
1000
0000
0000
1003
0000
0200
0000
0001
0010
0000
0000
0310
0000
,  // measure 13
2000
0000
0000
0000
3100
0000
0010
0100
2000
0000
0100
0010
0000
0000
3001
0000
,  // measure 14
0020
0000
0001
0100
0000
0000
0130
0000
0002
0000
0010
0100
0000
0000
0103
0000
,  // measure 15
0200
0000
0000
0000
0301
0010
0100
0000
0010
0100
1000
0100
0010
0000
0001
0010
,  // measure 16
0100
0000
0010
1000
0100
0000
0100
0010
1000
0000
0000
0101
0000
0000
1001
0000
,  // measure 17
0010
0000
0000
0000
0100
0001
0010
0001
0100
0000
1000
0100
0000
0000
1100
0000
,  // measure 18
1000
0010
0100
0000
0101
0000
0001
0010
0100
0000
1000
0001
0000
0000
0101
0000
,  // measure 19
0011
0000
0001
0010
0100
0000
0010
1000
0100
0000
0010
0001
0000
0000
0101
0000
,  // measure 20
1010
0000
2200
3300
2000
3020
0230
0302
,  // measure 21
1003
0001
1000
0001
1000
0001
1000
0001
1000
0001
1000
0001
1000
0001
1000
0001
,  // measure 22
2000
0000
3020
0000
0230
0000
0301
0000
0100
0000
0001
0010
0100
0000
0010
0100
,  // measure 23
1000
0000
1000
0100
0010
0000
1000
0010
0100
0000
1100
0000
1010
0000
0100
0001
,  // measure 24
0010
0000
1000
0100
1000
0001
0100
0000
0010
0000
0001
0010
0100
0000
0010
0001
,  // measure 25
0100
0000
0010
0100
1000
0001
0100
0010
0001
0000
1000
0010
0100
0000
1000
0100
,  // measure 26
0010
0000
0001
0100
0010
0000
0001
0000
0010
0000
0100
0001
0010
0000
0100
1000
,  // measure 27
0010
0000
1000
0100
0010
0000
1000
0001
0100
0000
1000
0000
0010
0000
0001
1000
,  // measure 28
0001
0000
0100
0001
0010
0000
1000
0000
0001
0000
0010
0100
1000
0000
0100
0010
,  // measure 29
0001
2000
0000
0002
0000
0000
0000
0000
,  // measure 30
0000
0000
3003
0000
1001
0000
0000
0000
0010
0001
0100
0020
0200
0000
0300
0000
,  // measure 31
0100
0100
0130
0100
0101
0000
1010
0000
,  // measure 32
1000
0100
0001
0010
0000
0110
1001
0000
,  // measure 33
0010
0001
0100
2000
0000
3000
1010
0000
,  // measure 34
1000
0100
0010
0002
0000
0103
0101
0000
,  // measure 35
0010
0001
0100
1000
0000
1001
0000
0101
,  // measure 36
0000
0010
0001
0100
0000
1010
1100
0000
,  // measure 37
1000
0100
0001
0100
0000
1100
0000
1010
,  // measure 38
0000
0000
0101
0000
0011
0000
0110
0000
0100
0001
1000
0100
0010
0001
0010
0100
,  // measure 39
1000
0010
0100
0010
1000
0010
0100
0010
1000
0000
0100
0010
0001
0000
0010
0100
,  // measure 40
1000
0000
1000
0100
0010
0001
0010
0100
1000
0000
0010
0100
0001
0000
0100
0010
,  // measure 41
1000
0000
0011
0000
0100
0001
1000
0100
0010
0000
0100
0001
1000
0000
0010
0100
,  // measure 42
0001
0000
0100
1000
0010
0000
0100
0001
0010
0000
1000
0100
0010
0000
0001
0010
,  // measure 43
0100
0000
1100
0000
1000
0010
0001
0100
1000
0000
0010
1000
0100
0000
0010
0001
,  // measure 44
0100
0000
0010
0001
1000
0001
0100
0010
0001
0000
0010
0100
1000
0000
0100
0010
,  // measure 45
1000
0000
1100
0000
0010
1000
0100
0010
0001
0000
0010
0100
0001
0000
0100
0010
,  // measure 46
1000
0000
1000
0100
0010
1000
0100
0020
2000
0000
0000
0000
0000
0000
0000
0000
,  // measure 47
0000
3030
0000
0000
;
