#VERSION:0.83;
#TITLE:Let's Get It Started;
#SUBTITLE:;
#ARTIST:Black Eyed Peas;
#TITLETRANSLIT:;
#SUBTITLETRANSLIT:;
#ARTISTTRANSLIT:;
#GENRE:;
#ORIGIN:;
#CREDIT:;
#BANNER:Let's Get It Started.png;
#BACKGROUND:Let's Get It Started-bg.png;
#PREVIEWVID:;
#JACKET:;
#CDIMAGE:;
#DISCIMAGE:;
#LYRICSPATH:;
#CDTITLE:;
#MUSIC:Let's Get It Started.ogg;
#OFFSET:0.000000;
#SAMPLESTART:63.125000;
#SAMPLELENGTH:15.000000;
#SELECTABLE:YES;
#DISPLAYBPM:105.000000;
#BPMS:0.000=104.200,
4.000=105.030;
#STOPS:;
#DELAYS:;
#WARPS:;
#TIMESIGNATURES:0.000=4=4;
#TICKCOUNTS:0.000=4;
#COMBOS:0.000=1;
#SPEEDS:0.000=1.000=0.000=0;
#SCROLLS:0.000=1.000;
#FAKES:;
#LABELS:0.000=Song Start;
#BGCHANGES:0.000=Let's Get It Started.avi=1.000=0=0=0=StretchNoLoop====,
99999=-nosongbg-=1.000=0=0=0 // don't automatically add -songbackground-
;
#KEYSOUNDS:;
#ATTACKS:
;

//---------------dance-single - ----------------
#NOTEDATA:;
#CHARTNAME:;
#STEPSTYPE:dance-single;
#DESCRIPTION:;
#CHARTSTYLE:;
#DIFFICULTY:Beginner;
#METER:1;
#RADARVALUES:0.080656,0.158482,0.029715,0.000000,0.000000,57.000000,54.000000,3.000000,0.000000,0.000000,0.000000,0.000000,0.000000,0.000000,0.080656,0.158482,0.029715,0.000000,0.000000,57.000000,54.000000,3.000000,0.000000,0.000000,0.000000,0.000000,0.000000,0.000000;
#CREDIT:;
#DISPLAYBPM:105.000000;
#NOTES:
0000
0000
0000
0000
,
0000
0000
0000
0000
,
0000
0000
0000
0000
,
0000
0000
0000
0000
,
0000
0000
0000
0000
,
0000
0000
0000
0000
,
1000
0000
0000
0000
,
0001
0000
0000
0000
,
1000
0000
0000
0000
,
0001
0000
0000
0000
,
0010
0000
0000
0000
,
0010
0000
0000
0000
,
0100
0000
0000
0000
,
0000
0000
0000
0000
,
1000
0000
1000
0000
,
0001
0000
0001
0000
,
1000
0000
0000
0000
,
0001
0000
0000
0000
,
1000
0000
0000
0000
,
0001
0000
0000
0000
,
0010
0000
0010
0000
,
0010
0000
0010
0000
,
1000
0000
0001
0000
,
1000
0000
0001
0000
,
1000
0000
0000
0000
,
0010
0010
0010
0000
,
0001
0000
0000
0000
,
0010
0010
0010
0000
,
1000
0000
0000
0000
,
0010
0010
0010
0000
,
0001
0000
0000
0000
,
0010
0010
0010
0000
,
1000
0000
0001
0000
,
0010
0000
0000
0000
,
0001
0000
1000
0000
,
0010
0000
0000
0000
,
1001
0000
0000
0000
,
1001
0000
0000
0000
,
1000
1000
1000
0000
,
0001
0001
0001
0000
,
1001
0000
0000
0000
;

//---------------dance-single - ----------------
#NOTEDATA:;
#CHARTNAME:;
#STEPSTYPE:dance-single;
#DESCRIPTION:;
#CHARTSTYLE:;
#DIFFICULTY:Easy;
#METER:4;
#RADARVALUES:0.135842,0.198102,0.039620,0.128766,0.000000,96.000000,92.000000,4.000000,13.000000,0.000000,0.000000,0.000000,0.000000,0.000000,0.135842,0.198102,0.039620,0.128766,0.000000,96.000000,92.000000,4.000000,13.000000,0.000000,0.000000,0.000000,0.000000,0.000000;
#CREDIT:;
#DISPLAYBPM:105.000000;
#NOTES:
0000
0000
0000
0000
,
0000
0000
0000
0000
,
0000
0000
0000
0000
,
0000
0000
0000
0000
,
0000
0000
0000
0000
,
0000
0000
0000
0000
,
1000
0000
0010
0000
,
0001
0000
0010
0000
,
1000
0000
0010
0000
,
0001
0000
0000
0000
,
1000
0000
1000
0000
,
0001
0000
0001
1000
,
1000
0000
1000
0000
,
0001
0000
0001
0001
,
1000
1000
0001
0001
,
1000
0001
1000
0001
,
1000
0000
0100
0000
,
0001
0000
0100
0000
,
1000
0000
0100
0000
,
0001
0001
1000
1000
,
0020
0030
0020
0030
,
0020
0030
0020
0030
,
0001
1000
0001
1000
,
0001
0100
1000
0100
,
0001
0000
0001
0000
,
1000
0100
0010
0000
,
1000
0000
1000
0000
,
0001
0100
0010
0000
,
0001
0000
0001
0000
,
1000
0100
0010
0000
,
1000
0000
1000
0000
,
0001
0100
0010
0000
,
2002
3003
1000
0001
,
0020
0030
0001
1000
,
2002
3003
1000
0001
,
0020
0030
0001
1000
,
2002
3003
0000
0000
,
0020
0030
0001
1000
,
0010
0010
0010
0010
,
0100
0100
0100
0100
,
0110
0000
0000
0000
;

//---------------dance-single - ----------------
#NOTEDATA:;
#CHARTNAME:;
#STEPSTYPE:dance-single;
#DESCRIPTION:;
#CHARTSTYLE:;
#DIFFICULTY:Medium;
#METER:6;
#RADARVALUES:0.250458,0.316963,0.128766,0.168387,0.000000,177.000000,164.000000,13.000000,17.000000,0.000000,0.000000,0.000000,0.000000,0.000000,0.250458,0.316963,0.128766,0.168387,0.000000,177.000000,164.000000,13.000000,17.000000,0.000000,0.000000,0.000000,0.000000,0.000000;
#CREDIT:;
#DISPLAYBPM:105.000000;
#NOTES:
0000
0000
0000
0000
,
0000
0000
0000
0000
,
0000
0000
0000
0000
,
0000
0000
0000
0000
,
0000
0000
0000
0000
,
0000
0000
0000
0000
,
1000
0000
0100
0000
0010
0001
0010
0001
,
0001
0000
0100
0000
0010
1000
0010
0100
,
0001
0000
0010
0000
0100
1000
0100
1000
,
0100
0000
0010
0000
0100
0010
0110
0000
,
1000
0000
0100
0000
1000
0001
0100
0000
,
0001
0000
0010
0000
0001
0001
1000
1000
,
0100
0010
0001
0100
,
0010
0000
1000
0000
0001
0010
0110
0000
,
1000
0100
0001
0010
,
1000
0100
0001
0100
,
0001
0001
0100
0000
1000
1000
0100
0000
,
0001
0001
0010
0000
1000
1000
0100
0000
,
1000
1000
0100
0000
0001
0001
0100
0000
,
0001
0001
0101
0000
1000
1000
1100
0000
,
0201
0310
1020
0130
,
1200
0310
0021
0130
,
1000
0001
1000
0010
,
0100
0000
0001
0000
1000
0001
1001
0000
,
0001
0000
0100
0000
0001
0010
0001
0000
,
1000
0100
0010
0100
,
1000
0000
0001
0000
1000
0010
1000
0000
,
0001
0100
0010
0001
,
0001
0000
0100
0000
0001
0010
0001
0000
,
1000
0100
0010
0100
,
1000
0000
0001
0000
1000
0010
1000
0000
,
0001
0100
0010
0001
,
0012
0000
0003
0000
1000
0100
0001
0000
,
2000
0000
3100
0000
0001
0100
1000
0000
,
0012
0000
0003
0000
1000
0100
0001
0000
,
2000
0000
3100
0000
0001
0100
1000
0000
,
0012
0000
0003
0000
1000
0100
0010
0000
,
2000
0000
3100
0000
0001
0100
0010
0000
,
2000
3020
0230
0320
,
0230
0302
0023
0130
,
1001
0000
0000
0000
;

//---------------dance-single - ----------------
#NOTEDATA:;
#CHARTNAME:;
#STEPSTYPE:dance-single;
#DESCRIPTION:;
#CHARTSTYLE:;
#DIFFICULTY:Hard;
#METER:9;
#RADARVALUES:0.328284,0.376394,0.118861,0.069336,0.094099,232.000000,220.000000,12.000000,7.000000,0.000000,0.000000,0.000000,0.000000,0.000000,0.328284,0.376394,0.118861,0.069336,0.094099,232.000000,220.000000,12.000000,7.000000,0.000000,0.000000,0.000000,0.000000,0.000000;
#CREDIT:;
#DISPLAYBPM:105.000000;
#NOTES:
0000
0000
0000
0000
,
0000
0000
0000
0000
,
0000
0000
0000
0000
,
0000
0000
0000
0000
,
0000
0000
0000
0000
,
0000
0000
0000
0000
,
1000
0100
1000
0100
0010
0100
0010
0001
,
1000
0010
1000
0010
0100
0010
0100
0001
,
0001
0100
0001
0100
0010
1000
0010
1000
,
0100
0010
0001
0001
1000
0010
0100
0110
,
0001
0000
0100
0000
1000
0001
0100
0000
,
1000
0000
0001
0000
0100
1001
0100
1001
,
0010
0000
0100
0000
0001
1000
0010
0000
,
0100
0000
0100
0000
0100
0000
0100
0000
0010
0000
0100
0000
0001
1000
0001
0000
,
1000
0100
0001
0100
,
1000
0010
0001
0100
,
1000
0001
0101
0000
1000
1000
0010
0000
,
0001
1000
1100
0000
0001
0010
0010
0000
,
1000
0001
0101
0000
1000
1000
0010
0000
,
0001
0100
0001
0100
0001
0000
0000
0000
1000
0100
1000
0100
1000
0000
0000
0000
,
0010
0000
0000
1000
0000
0001
1000
0000
0100
0000
0000
1000
0000
0001
0100
0000
,
0010
0000
0000
0001
0000
1000
0001
0000
0100
0000
0000
0001
0000
1000
0001
0000
,
1000
0100
0010
0100
1000
0010
0100
0010
,
0100
0001
0010
0001
0100
1001
0110
0000
,
0001
0000
0100
0000
0001
0010
0100
0000
,
1000
0001
0100
0000
0010
1000
0100
0000
,
1000
0000
0100
0000
0001
0010
0100
0000
,
1000
0001
0100
0000
0001
1000
0100
0000
,
1000
0000
0100
0000
1000
0010
0100
0000
,
0001
1000
0100
0000
0010
0001
0100
0000
,
0001
0000
0100
0000
1000
0010
0100
0000
,
0001
1000
0100
0000
1000
0001
0100
0000
,
0012
0000
0000
0000
0103
0000
0000
0000
1000
0001
0010
0000
0100
0000
0000
0000
,
2000
0000
0000
0000
3010
0000
0000
0000
0100
0001
0100
0000
0010
0000
0000
0000
,
2010
0000
0000
0000
3100
0000
0000
0000
0001
1000
0010
0000
0100
0000
0000
0000
,
0002
0000
0000
0000
0013
0000
0000
0000
0100
1000
0100
0000
0010
0000
0000
0000
,
0022
0000
0000
0000
0033
0000
0000
0000
1000
0001
0010
0000
0100
0000
0000
0000
,
2000
0000
0000
0000
3001
0000
0000
0000
0100
0001
0100
0000
0010
0000
0000
0000
,
1000
1000
1000
1000
1000
1000
1000
1000
,
0001
0001
0010
0010
0001
0001
0100
0100
,
1001
0000
0000
0000
;

//---------------dance-double - ----------------
#NOTEDATA:;
#CHARTNAME:;
#STEPSTYPE:dance-double;
#DESCRIPTION:;
#CHARTSTYLE:;
#DIFFICULTY:Easy;
#METER:4;
#RADARVALUES:0.149992,0.198102,0.059431,0.118861,0.000000,106.000000,100.000000,6.000000,12.000000,0.000000,0.000000,0.000000,0.000000,0.000000,0.149992,0.198102,0.059431,0.118861,0.000000,106.000000,100.000000,6.000000,12.000000,0.000000,0.000000,0.000000,0.000000,0.000000;
#CREDIT:;
#DISPLAYBPM:105.000000;
#NOTES:
00000000
00000000
00000000
00000000
,
00000000
00000000
00000000
00000000
,
00000000
00000000
00000000
00000000
,
00000000
00000000
00000000
00000000
,
00000000
00000000
00000000
00000000
,
00000000
00000000
00000000
00000000
,
00010000
00000000
00000000
00000000
,
01000000
00000000
00000000
00000000
,
00001000
00000000
00010000
00000000
,
00000100
00001000
00000001
00000100
,
00000020
00000030
00002000
00003000
,
00000200
00000300
00010000
00001000
,
02000000
03000000
00020000
00030000
,
10000000
10000000
00010000
00100000
,
00001000
00000000
00010000
00000000
,
00001000
00010000
00001000
01000000
,
00001000
00001000
00010000
00000000
,
00010000
00010000
00001000
00000000
,
00001000
01000000
00010000
00000000
,
00100000
00100000
00001000
00001000
,
00011000
00000000
00110000
00000000
,
00011000
00000000
00001100
00000000
,
00000010
00000000
00000001
00000000
,
00000100
00000010
00001000
00000100
,
00010000
00000000
00001000
01000000
,
00010000
00100000
00001000
00010000
,
00001000
00000000
00010000
00000100
,
00001000
00000010
00010000
00001000
,
00010000
00000000
00001000
01000000
,
00010000
00100000
00001000
00010000
,
00001000
00000000
00010000
00000100
,
00001000
00000010
00001000
00000001
,
00000200
00000300
00000010
00010000
,
00002000
00003000
00100000
00100000
,
02000000
03000000
00100000
00001000
,
00020000
00030000
00000010
00000010
,
00002002
00003003
00000000
00000000
,
00020000
00030000
00000000
00010000
,
00001000
00001000
00010000
00001000
,
00001000
00010000
00010000
00010000
,
00011000
00000000
00000000
00000000
;

//---------------dance-double - ----------------
#NOTEDATA:;
#CHARTNAME:;
#STEPSTYPE:dance-double;
#DESCRIPTION:;
#CHARTSTYLE:;
#DIFFICULTY:Medium;
#METER:6;
#RADARVALUES:0.229233,0.336774,0.118861,0.128766,0.000000,162.000000,150.000000,12.000000,13.000000,0.000000,0.000000,0.000000,0.000000,0.000000,0.229233,0.336774,0.118861,0.128766,0.000000,162.000000,150.000000,12.000000,13.000000,0.000000,0.000000,0.000000,0.000000,0.000000;
#CREDIT:;
#DISPLAYBPM:105.000000;
#NOTES:
00000000
00000000
00000000
00000000
,
00000000
00000000
00000000
00000000
,
00000000
00000000
00000000
00000000
,
00000000
00000000
00000000
00000000
,
00000000
00000000
00000000
00000000
,
00000000
00000000
00000000
00000000
,
01000000
00000000
00010000
00000000
,
00100000
00000000
00001000
00000000
,
00010000
00000010
00001000
00000100
,
00010000
00010000
00001000
01000000
00010000
00010000
10000000
00010000
,
02000000
03000000
00020000
00030000
,
00200000
00000000
00300000
00000000
00001000
00010000
00000100
00001000
,
00000002
00000003
00000200
00000300
,
00000010
00000000
00001000
00000000
00000100
00010000
00001000
00000000
,
00010000
00100000
00001000
00000010
,
00001000
00010000
01000000
00000000
00001000
00000000
00000100
00000000
,
00011000
00010000
00100000
00010000
,
00011000
00001000
00000010
00001000
,
00011000
00010000
00100000
00010000
,
00011000
00001000
00000010
00001000
00011000
00010000
01000000
00100000
,
10010000
00000000
01010000
00000000
,
00011000
00000000
00001100
00000000
,
00000010
00000010
00000001
00000001
,
00000100
00000010
00001000
00000000
00000100
00010000
00010100
00000000
,
00000010
00001000
00000001
00000100
,
00000001
00000010
00000100
00000000
00010000
00001000
01000000
00000000
,
00100000
00010000
10000000
01000000
,
10000000
00100000
01000000
00000000
00001000
00010000
00000100
00000000
,
00000010
00001000
00000001
00000100
,
00000001
00000010
00000100
00000000
00010000
00001000
01000000
00000000
,
00100000
00010000
10000000
01000000
,
10000000
01000000
00100000
00000000
00010000
00001000
00000100
00000000
,
00000020
00000000
00000130
00000000
00000001
00000001
00001000
00000000
,
00002000
00000000
00003010
00000000
00010000
00010000
00001000
00000000
,
00200000
00000000
01300000
00000000
10000000
10000000
00010000
00000000
,
00020000
00000000
00130000
00000000
00001000
00001000
00010000
00000000
,
00002200
00000000
00003300
00000000
00000010
00010000
00001000
00000000
,
02000000
00000000
03000000
00000000
00010000
01000000
00010000
00000000
,
00200000
00010000
00001000
00010000
,
00001000
00001000
00010000
00310000
,
10010000
00000000
00000000
00000000
;

//---------------dance-double - ----------------
#NOTEDATA:;
#CHARTNAME:;
#STEPSTYPE:dance-double;
#DESCRIPTION:;
#CHARTSTYLE:;
#DIFFICULTY:Hard;
#METER:9;
#RADARVALUES:0.316963,0.435825,0.237723,0.069336,0.079241,224.000000,200.000000,24.000000,7.000000,0.000000,0.000000,0.000000,0.000000,0.000000,0.316963,0.435825,0.237723,0.069336,0.079241,224.000000,200.000000,24.000000,7.000000,0.000000,0.000000,0.000000,0.000000,0.000000;
#CREDIT:;
#DISPLAYBPM:105.000000;
#NOTES:
00000000
00000000
00000000
00000000
,
00000000
00000000
00000000
00000000
,
00000000
00000000
00000000
00000000
,
00000000
00000000
00000000
00000000
,
00000000
00000000
00000000
00000000
,
00000000
00000000
00000000
00000000
,
10000000
00000000
00010000
00000000
,
00100000
00001000
00010000
00000010
,
00000100
00000001
00000010
00000100
00001000
00000001
00000100
00000010
,
00001000
00000100
00001000
00000000
00000100
00000000
00010000
00000000
00001000
00010000
00001000
00000000
01000000
00000000
00010000
00000000
,
10000000
01000000
00000000
00000000
00100000
00000000
00000000
00000000
00001000
00010000
00000000
00000000
00000100
00000000
00000000
00000000
,
00000010
00000001
00000000
00000000
00000100
00000000
00000000
00000000
00000010
00000000
00001000
00000000
00000100
00010000
00001000
00000000
,
00100000
00010000
00000000
00000000
10000000
00000000
00000000
00000000
00100000
10000000
00000000
00000000
00010000
00000000
00000000
00000000
,
01000000
00010000
00000000
00000000
00100000
00000000
00000000
00000000
00010000
00000000
01000000
00001000
00010000
00000000
00000000
00000000
,
00011000
00100000
00011000
00000010
,
00001000
00010000
01000000
00000000
00010000
00001000
00000100
00000000
,
00011000
00010000
10000000
00000000
10010000
00010000
00001000
00000000
,
00011000
00001000
00000001
00000000
00001001
00001000
00010000
00000000
,
00011000
00010000
10000000
00000000
10010000
00010000
00001000
00000000
,
00011000
00001100
00000100
00001000
00011000
01010000
00010000
01000000
,
10010000
00000000
00101000
00000000
,
00010010
00000000
00001001
00000000
,
00000011
00000011
00001100
00001100
,
00000001
00000100
00000010
00001000
00000100
00011000
00110000
00000000
,
10000000
00000000
01000000
00000000
00010000
00100000
01000000
00000000
,
10000000
00100000
01000000
00010000
00001000
00000100
00000100
00000000
,
00000001
00000000
00000100
00000000
00001000
00000010
00000100
00000000
,
00000001
00000010
00000100
00001000
00010000
01000000
01000000
00000000
,
10000000
00000000
01000000
00000000
00010000
00100000
01000000
00000000
,
10000000
00100000
01000000
00010000
00001000
00000100
00000100
00000000
,
00000001
00000000
00000100
00000000
00001000
00000010
00000100
00000000
,
00000001
00000010
00000100
00001000
00010000
00000000
10000000
00000000
,
00200000
00000000
00000000
00000000
01300000
00000000
00000000
00000000
00010000
00100000
00010000
00000000
01000000
00000000
00000000
00000000
,
00020000
00000000
00000000
00000000
00100000
00030000
00000000
00000000
00001000
00010000
00001000
00000000
00010000
00000000
00000000
00000000
,
00000020
00000000
00000000
00000000
00000130
00000000
00000000
00000000
00001000
00000010
00001000
00000000
00000100
00000000
00000000
00000000
,
00002000
00000000
00000000
00000000
00000010
00003000
00000000
00000000
00010000
00001000
00010000
00000000
00001000
00000000
00000000
00000000
,
00220000
00000000
00000000
00000000
00330000
00000000
00000000
00000000
00100000
00001000
00010000
00000000
00000100
00000000
00000000
00000000
,
00002000
00000000
00000000
00000000
00003000
00000000
00000000
00000000
00000100
00000010
00000001
00000000
00000100
00000000
00000000
00000000
,
00000010
00000010
00000010
00000010
00000010
00000010
00000010
00000010
,
00010000
00010000
00001000
00001000
01000000
01000000
00010000
00010000
,
10010000
00000000
00000000
00000000
;

//---------------dance-single - ----------------
#NOTEDATA:;
#CHARTNAME:;
#STEPSTYPE:dance-single;
#DESCRIPTION:;
#CHARTSTYLE:;
#DIFFICULTY:Challenge;
#METER:16;
#RADARVALUES:0.766938,0.998435,0.366489,0.099051,1.218328,542.000000,505.000000,37.000000,10.000000,0.000000,0.000000,0.000000,0.000000,0.000000,0.766938,0.998435,0.366489,0.099051,1.218328,542.000000,505.000000,37.000000,10.000000,0.000000,0.000000,0.000000,0.000000,0.000000;
#CREDIT:;
#DISPLAYBPM:105.000000;
#NOTES:
// measure 0
0000
0000
0000
0000
,  // measure 1
0000
0000
0000
0000
,  // measure 2
0000
0000
0000
0000
,  // measure 3
0000
0000
0000
0000
,  // measure 4
0000
0000
0000
0000
,  // measure 5
0000
0000
0000
0000
,  // measure 6
1000
0100
1000
0100
1000
0100
1000
0100
0010
0001
0010
0001
0010
0001
0010
0001
,  // measure 7
1000
0010
1000
0010
1000
0010
1000
0010
0100
0001
0100
0001
0100
0001
0100
0001
,  // measure 8
0010
0100
0010
0100
0010
0100
0010
0100
0001
1000
0001
1000
0001
1000
0001
1000
,  // measure 9
0100
0010
0100
0010
0100
0010
0100
0010
1000
0001
1000
0001
1000
0001
1000
0001
,  // measure 10
1000
0000
0001
1000
0000
0100
1000
0000
1100
0000
1000
0100
0001
0010
0001
0000
,  // measure 11
0101
0000
0000
0000
0000
0000
0000
0000
0000
0000
0000
0000
0000
0000
0000
0000
0000
0000
0000
0000
0000
0000
0000
0000
0100
0000
0000
0000
0000
0000
0000
0000
0000
0000
0000
0000
0000
0000
0000
0000
0000
0000
0000
0000
0000
0000
0000
0000
0010
0000
0000
0000
0000
0000
0000
0000
0000
0000
0000
0000
0000
0000
0000
0000
0000
0000
0000
0000
0000
0000
0000
0000
1000
0000
0000
0000
0000
0000
0000
0000
0000
0000
0000
0000
0000
0000
0000
0000
0000
0000
0000
0000
0000
0000
0000
0000
0001
0000
0000
0000
0000
0000
0000
0000
0000
0000
0000
0000
0000
0000
0000
0000
0000
0000
0000
0000
0000
0000
0000
0000
0010
0000
0000
0000
0000
0000
0000
0000
0001
0000
0000
0000
0000
0000
0000
0000
0100
0000
0000
0000
0000
0000
0000
0000
0010
0000
0000
0000
0000
0000
0000
0000
0000
0000
0000
0000
0000
0000
0000
0000
0000
0000
1000
0000
0000
0000
0000
0000
0010
0000
0000
0000
0000
0000
0000
0000
0000
0000
0000
0000
0000
0000
0000
0000
0000
0000
0000
0000
0000
0000
0000
0000
,  // measure 12
0100
0000
0001
0010
0000
0100
1000
0000
1100
0000
1000
0010
0100
0001
0010
0000
,  // measure 13
0011
0000
0000
0001
0000
0000
1000
0000
0000
0001
0000
0000
0100
0000
0000
0010
0000
0000
0001
0010
0100
1000
0000
0000
,  // measure 14
0010
0000
1000
0010
1000
0000
1010
1010
1000
0000
0100
1000
0100
0000
1100
1100
,  // measure 15
0100
0000
0001
0100
0001
0000
0101
0101
0001
0000
0010
0001
0010
0000
0011
0011
,  // measure 16
0010
0000
0001
0010
1000
0000
1010
1010
1000
0000
0001
1000
0001
0000
1001
1001
,  // measure 17
0001
0101
1000
1100
0010
1010
0101
1001
,  // measure 18
0110
0001
1000
0010
0100
0000
0110
0000
1001
0000
0001
0010
0100
1000
0110
0000
,  // measure 19
1000
0100
0010
0001
1000
0010
0100
0001
1000
0010
0100
0001
1000
0100
0010
0001
,  // measure 20
0020
0000
0000
0100
0000
0000
0100
1000
0032
0000
0000
0010
0000
0000
0010
0010
,  // measure 21
2003
0000
0000
0001
0000
0000
0100
0100
3020
0000
0000
1000
0000
0000
0130
0001
,  // measure 22
0100
0101
1000
1100
0001
0011
1000
1010
,  // measure 23
0001
0000
0000
0010
0000
0000
1000
0000
0000
0000
0000
0000
1000
0000
0000
0010
0000
0000
0001
0000
0000
0000
0000
0000
1000
0000
0100
0000
0010
0000
0001
0000
0010
0000
0100
0000
1000
0000
0000
0000
0000
0000
1001
0000
0000
0000
0000
0000
,  // measure 24
0001
0000
0000
0000
0000
0000
0010
0000
0000
0000
0000
0000
0001
0000
0000
0000
0000
0000
0000
0000
0000
0000
0000
0000
1000
0000
0000
0000
0000
0000
0100
0000
0000
0000
0000
0000
1000
0000
0000
0000
0000
0000
0000
0000
0000
0000
0000
0000
0010
0000
0000
0000
0000
0000
0001
0000
0000
0000
0000
0000
0010
0000
0000
0000
0000
0000
0001
0000
0000
0000
0000
0000
0100
0000
0000
0000
0000
0000
0001
0000
0000
0000
0000
0000
0010
0000
0000
0000
0000
0000
0001
0000
0000
0000
0000
0000
0100
0000
0000
0000
0000
0000
0000
0000
0000
0000
0000
0000
0000
0000
0000
0000
0000
0000
0000
0000
0000
0000
0000
0000
0001
0000
0000
0000
0000
0000
0000
0000
0100
0000
0000
0000
0000
0000
0000
0000
0010
0000
0000
0000
0000
0000
0000
0000
1000
0000
0000
0000
0000
0000
0000
0000
0010
0000
0000
0000
0000
0000
0000
0000
0100
0000
0000
0000
0000
0000
0000
0000
0001
0000
0000
0000
0000
0000
0000
0000
0100
0000
0000
0000
0000
0000
0000
0000
0000
0000
0000
0000
0000
0000
0000
0000
,  // measure 25
0010
0000
0000
0000
0000
0000
0001
0000
0000
0000
0000
0000
0010
0000
0000
0000
0000
0000
0000
0000
0000
0000
0000
0000
1000
0000
0000
0000
0000
0000
0100
0000
0000
0000
0000
0000
1000
0000
0000
0000
0000
0000
0010
0000
0000
0000
0000
0000
0001
0000
0000
0000
0000
0000
0100
0000
0000
0000
0000
0000
0010
0000
0000
0000
0000
0000
1000
0000
0000
0000
0000
0000
0100
0000
0000
0000
0000
0000
0010
0000
0000
0000
0000
0000
0001
0000
0000
0000
0000
0000
0010
0000
0000
0000
0000
0000
0100
0000
0000
0000
0000
0000
0000
0000
0000
0000
0000
0000
0000
0000
0000
0000
0000
0000
0000
0000
0000
0000
0000
0000
1000
0000
0000
0000
0000
0000
0000
0000
0100
0000
0000
0000
0000
0000
0000
0000
0010
0000
0000
0000
0000
0000
0000
0000
0001
0000
0000
0000
0000
0000
0000
0000
0010
0000
0000
0000
0000
0000
0000
0000
0100
0000
0000
0000
0000
0000
0000
0000
1000
0000
0000
0000
0000
0000
0000
0000
0000
0000
0000
0000
0000
0000
0000
0000
0000
0000
0000
0000
0000
0000
0000
0000
,  // measure 26
1000
0000
0000
0000
0000
0000
0100
0000
0000
0000
0000
0000
1000
0000
0000
0000
0000
0000
0000
0000
0000
0000
0000
0000
0100
0000
0000
0000
0000
0000
0010
0000
0000
0000
0000
0000
0100
0000
0000
0000
0000
0000
0000
0000
0000
0000
0000
0000
0010
0000
0000
0000
0000
0000
0001
0000
0000
0000
0000
0000
0010
0000
0000
0000
0000
0000
0100
0000
0000
0000
0000
0000
0010
0000
0000
0000
0000
0000
0001
0000
0000
0000
0000
0000
0010
0000
0000
0000
0000
0000
0100
0000
0000
0000
0000
0000
0010
0000
0000
0000
0000
0000
0000
0000
0000
0000
0000
0000
0000
0000
0000
0000
0000
0000
0000
0000
0000
0000
0000
0000
0001
0000
0000
0000
0000
0000
0000
0000
0010
0000
0000
0000
0000
0000
0000
0000
0100
0000
0000
0000
0000
0000
0000
0000
1000
0000
0000
0000
0000
0000
0000
0000
0100
0000
0000
0000
0000
0000
0000
0000
0010
0000
0000
0000
0000
0000
0000
0000
0001
0000
0000
0000
0000
0000
0000
0000
0000
0000
0000
0000
0000
0000
0000
0000
0000
0000
0000
0000
0000
0000
0000
0000
,  // measure 27
0001
0000
0000
0000
0000
0000
0010
0000
0000
0000
0000
0000
0001
0000
0000
0000
0000
0000
0000
0000
0000
0000
0000
0000
0010
0000
0000
0000
0000
0000
0100
0000
0000
0000
0000
0000
0010
0000
0000
0000
0000
0000
0000
0000
0000
0000
0000
0000
0100
0000
0000
0000
0000
0000
1000
0000
0000
0000
0000
0000
0100
0000
0000
0000
0000
0000
1000
0000
0000
0000
0000
0000
0100
0000
0000
0000
0000
0000
1000
0000
0000
0000
0000
0000
0100
0000
0000
0000
0000
0000
1000
0000
0000
0000
0000
0000
0100
0000
0000
0000
0000
0000
0000
0000
0000
0000
0000
0000
0000
0000
0000
0000
0000
0000
0000
0000
0000
0000
0000
0000
1000
0000
0000
0000
0000
0000
0000
0000
0100
0000
0000
0000
0000
0000
0000
0000
0010
0000
0000
0000
0000
0000
0000
0000
0001
0000
0000
0000
0000
0000
0000
0000
0010
0000
0000
0000
0000
0000
0000
0000
0100
0000
0000
0000
0000
0000
0000
0000
1000
0000
0000
0000
0000
0000
0000
0000
0000
0000
0000
0000
0000
0000
0000
0000
0000
0000
0000
0000
0000
0000
0000
0000
,  // measure 28
0001
0000
0000
0000
0000
0000
0010
0000
0000
0000
0000
0000
0001
0000
0000
0000
0000
0000
0000
0000
0000
0000
0000
0000
0010
0000
0000
0000
0000
0000
0100
0000
0000
0000
0000
0000
0010
0000
0000
0000
0000
0000
0000
0000
0000
0000
0000
0000
0100
0000
0000
0000
0000
0000
1000
0000
0000
0000
0000
0000
0100
0000
0000
0000
0000
0000
1000
0000
0000
0000
0000
0000
0100
0000
0000
0000
0000
0000
1000
0000
0000
0000
0000
0000
0100
0000
0000
0000
0000
0000
1000
0000
0000
0000
0000
0000
0100
0000
0000
0000
0000
0000
0000
0000
0000
0000
0000
0000
0000
0000
0000
0000
0000
0000
0000
0000
0000
0000
0000
0000
1000
0000
0000
0000
0000
0000
0000
0000
0010
0000
0000
0000
0000
0000
0000
0000
0100
0000
0000
0000
0000
0000
0000
0000
0001
0000
0000
0000
0000
0000
0000
0000
0100
0000
0000
0000
0000
0000
0000
0000
0010
0000
0000
0000
0000
0000
0000
0000
1000
0000
0000
0000
0000
0000
0000
0000
0000
0000
0000
0000
0000
0000
0000
0000
0000
0000
0000
0000
0000
0000
0000
0000
,  // measure 29
1000
0000
0000
0000
0000
0000
0100
0000
0000
0000
0000
0000
1000
0000
0000
0000
0000
0000
0000
0000
0000
0000
0000
0000
0100
0000
0000
0000
0000
0000
0010
0000
0000
0000
0000
0000
0100
0000
0000
0000
0000
0000
0000
0000
0000
0000
0000
0000
0010
0000
0000
0000
0000
0000
0001
0000
0000
0000
0000
0000
0010
0000
0000
0000
0000
0000
0001
0000
0000
0000
0000
0000
0010
0000
0000
0000
0000
0000
0001
0000
0000
0000
0000
0000
0010
0000
0000
0000
0000
0000
0001
0000
0000
0000
0000
0000
0010
0000
0000
0000
0000
0000
0000
0000
0000
0000
0000
0000
0000
0000
0000
0000
0000
0000
0000
0000
0000
0000
0000
0000
0001
0000
0000
0000
0000
0000
0000
0000
0010
0000
0000
0000
0000
0000
0000
0000
0100
0000
0000
0000
0000
0000
0000
0000
1000
0000
0000
0000
0000
0000
0000
0000
0100
0000
0000
0000
0000
0000
0000
0000
0010
0000
0000
0000
0000
0000
0000
0000
0001
0000
0000
0000
0000
0000
0000
0000
0000
0000
0000
0000
0000
0000
0000
0000
0000
0000
0000
0000
0000
0000
0000
0000
,  // measure 30
0001
0000
0000
0000
0000
0000
0100
0000
0000
0000
0000
0000
0001
0000
0000
0000
0000
0000
0000
0000
0000
0000
0000
0000
0010
0000
0000
0000
0000
0000
1000
0000
0000
0000
0000
0000
0010
0000
0000
0000
0000
0000
0000
0000
0000
0000
0000
0000
0001
0000
0000
0000
0000
0000
0100
0000
0000
0000
0000
0000
0010
0000
0000
0000
0000
0000
1000
0000
0000
0000
0000
0000
0001
0000
0000
0000
0000
0000
0100
0000
0000
0000
0000
0000
0010
0000
0000
0000
0000
0000
1000
0000
0000
0000
0000
0000
0001
0000
0000
0000
0000
0000
0000
0000
0000
0000
0000
0000
0000
0000
0000
0000
0000
0000
0000
0000
0000
0000
0000
0000
1000
0000
0000
0000
0000
0000
0000
0000
0010
0000
0000
0000
0000
0000
0000
0000
0100
0000
0000
0000
0000
0000
0000
0000
0001
0000
0000
0000
0000
0000
0000
0000
1000
0000
0000
0000
0000
0000
0000
0000
0100
0000
0000
0000
0000
0000
0000
0000
0010
0000
0000
0000
0000
0000
0000
0000
0001
0000
0000
0000
0000
0000
0000
0000
0000
0000
0000
0000
0000
0000
0000
0000
,  // measure 31
0100
0000
0000
0000
0000
0000
0010
0000
0000
0000
0000
0000
0100
0000
0000
0000
0000
0000
0000
0000
0000
0000
0000
0000
0010
0000
0000
0000
0000
0000
0100
0000
0000
0000
0000
0000
0010
0000
0000
0000
0000
0000
0000
0000
0000
0000
0000
0000
0001
0000
0000
0000
0000
0000
0010
0000
0000
0000
0000
0000
0100
0000
0000
0000
0000
0000
1000
0000
0000
0000
0000
0000
0100
0000
0000
0000
0000
0000
0010
0000
0000
0000
0000
0000
0001
0000
0000
0000
0000
0000
0010
0000
0000
0000
0000
0000
0100
0000
0000
0000
0000
0000
0000
0000
0000
0000
0000
0000
0000
0000
0000
0000
0000
0000
0000
0000
0000
0000
0000
0000
1000
0000
0000
0000
0000
0000
0000
0000
0100
0000
0000
0000
0000
0000
0000
0000
0010
0000
0000
0000
0000
0000
0000
0000
0001
0000
0000
0000
0000
0000
0000
0000
0010
0000
0000
0000
0000
0000
0000
0000
0100
0000
0000
0000
0000
0000
0000
0000
1000
0000
0000
0000
0000
0000
0000
0000
0000
0000
0000
0000
0000
0000
0000
0000
0000
0000
0000
0000
0000
0000
0000
0000
,  // measure 32
2010
0000
0000
0000
0000
0000
0100
0000
0000
0100
0000
0000
3100
0000
0000
1000
0100
0010
0001
0010
0100
1000
0000
0000
,  // measure 33
0012
0000
0000
0000
0000
0000
0100
0000
0000
0100
0000
0000
0103
0000
0000
0001
0010
0100
1000
0100
0010
0001
0000
0000
,  // measure 34
0120
0000
0000
0000
0000
0000
1000
0000
0000
0100
0000
0000
0031
0000
0000
0010
0001
1000
0010
0100
0001
0010
0000
0000
,  // measure 35
0210
0000
0000
0000
0000
0000
0001
0000
0000
0010
0000
0000
1300
0000
0000
0010
0001
1000
0010
0100
0001
1000
0000
0000
,  // measure 36
0100
0000
0000
0000
0000
0000
1000
0000
0000
0000
0000
0000
0010
0000
0000
0000
0000
0000
0000
0000
0000
0000
0000
0000
0010
0000
0000
0000
0000
0000
1000
0000
0000
0000
0000
0000
0100
0000
0000
0000
0000
0000
0000
0000
0000
0000
0000
0000
0010
0000
0000
0000
0000
0000
0000
0000
0000
0000
0000
0000
0000
0000
0000
0000
0000
0000
0000
0000
0000
0000
0000
0000
0011
0000
0000
0000
0000
0000
0000
0000
0000
0000
0000
0000
0000
0000
0000
0000
0000
0000
0000
0000
0000
0000
0000
0000
0001
0000
0000
0000
0000
0000
0000
0000
0000
0000
0000
0000
0000
0000
0000
0000
0000
0000
0000
0000
0000
0000
0000
0000
0010
0000
0000
0000
0000
0000
0000
0000
0001
0000
0000
0000
0000
0000
0000
0000
0100
0000
0000
0000
0000
0000
0000
0000
0010
0000
0000
0000
0000
0000
0000
0000
1000
0000
0000
0000
0000
0000
0000
0000
0100
0000
0000
0000
0000
0000
0000
0000
0010
0000
0000
0000
0000
0000
0000
0000
0000
0000
0000
0000
0000
0000
0000
0000
0000
0000
0000
0000
0000
0000
0000
0000
,  // measure 37
0001
0000
0000
0000
0000
0000
0010
0000
0000
0000
0000
0000
0100
0000
0000
0000
0000
0000
0000
0000
0000
0000
0000
0000
0010
0000
0000
0000
0000
0000
0100
0000
0000
0000
0000
0000
1000
0000
0000
0000
0000
0000
0000
0000
0000
0000
0000
0000
0100
0000
0000
0000
0000
0000
0000
0000
0000
0000
0000
0000
0000
0000
0000
0000
0000
0000
0000
0000
0000
0000
0000
0000
1100
0000
0000
0000
0000
0000
0000
0000
0000
0000
0000
0000
0000
0000
0000
0000
0000
0000
0000
0000
0000
0000
0000
0000
1000
0000
0000
0000
0000
0000
0000
0000
0000
0000
0000
0000
0000
0000
0000
0000
0000
0000
0000
0000
0000
0000
0000
0000
0100
0000
0000
0000
0000
0000
0000
0000
1000
0000
0000
0000
0000
0000
0000
0000
0010
0000
0000
0000
0000
0000
0000
0000
0100
0000
0000
0000
0000
0000
0000
0000
0001
0000
0000
0000
0000
0000
0000
0000
0010
0000
0000
0000
0000
0000
0000
0000
0001
0000
0000
0000
0000
0000
0000
0000
0000
0000
0000
0000
0000
0000
0000
0000
0000
0000
0000
0000
0000
0000
0000
0000
,  // measure 38
0100
0001
0000
0000
0000
0000
0000
0000
0000
0000
0000
0000
0000
0000
0000
0000
0000
0000
0000
0000
0000
0000
0000
0000
0100
0001
0000
0000
0000
0000
0000
0000
0000
0000
0000
0000
0000
0000
0000
0000
0000
0000
0000
0000
0000
0000
0000
0000
0100
0001
0000
0000
0000
0000
0000
0000
0000
0000
0000
0000
0000
0000
0000
0000
0000
0000
0000
0000
0000
0000
0000
0000
0100
0001
0000
0000
0000
0000
0000
0000
0000
0000
0000
0000
0000
0000
0000
0000
0000
0000
0000
0000
0000
0000
0000
0000
0100
0010
0000
0000
0000
0000
0000
0000
0000
0000
0000
0000
0000
0000
0000
0000
0000
0000
0000
0000
0000
0000
0000
0000
0100
0010
0000
0000
0000
0000
0000
0000
0000
0000
0000
0000
0000
0000
0000
0000
0000
0000
0000
0000
0000
0000
0000
0000
0100
0010
0000
0000
0000
0000
0000
0000
0000
0000
0000
0000
0000
0000
0000
0000
0000
0000
0000
0000
0000
0000
0000
0000
0100
0010
0000
0000
0000
0000
0000
0000
0000
0000
0000
0000
0000
0000
0000
0000
0000
0000
0000
0000
0000
0000
0000
0000
,  // measure 39
0100
1000
0000
0000
0000
0000
0000
0000
0000
0000
0000
0000
0000
0000
0000
0000
0000
0000
0000
0000
0000
0000
0000
0000
0100
1000
0000
0000
0000
0000
0000
0000
0000
0000
0000
0000
0000
0000
0000
0000
0000
0000
0000
0000
0000
0000
0000
0000
0100
1000
0000
0000
0000
0000
0000
0000
0000
0000
0000
0000
0000
0000
0000
0000
0000
0000
0000
0000
0000
0000
0000
0000
0100
1000
0000
0000
0000
0000
0000
0000
0000
0000
0000
0000
0000
0000
0000
0000
0000
0000
0000
0000
0000
0000
0000
0000
0100
0010
0000
0000
0000
0000
0000
0000
0000
0000
0000
0000
0000
0000
0000
0000
0000
0000
0000
0000
0000
0000
0000
0000
0100
0010
0000
0000
0000
0000
0000
0000
0000
0000
0000
0000
0000
0000
0000
0000
0000
0000
0000
0000
0000
0000
0000
0000
0100
0010
0000
0000
0000
0000
0000
0000
0000
0000
0000
0000
0000
0000
0000
0000
0000
0000
0000
0000
0000
0000
0000
0000
0100
0010
0000
0000
0000
0000
0000
0000
0000
0000
0000
0000
0000
0000
0000
0000
0000
0000
0000
0000
0000
0000
0000
0000
,  // measure 40
2002
0000
0000
0000
,  // measure 41
0000
0000
0000
0000
,  // measure 42
3003
0000
0000
0000
;
