#VERSION:0.83;
#TITLE:La receta;
#SUBTITLE:;
#ARTIST:Carlos Coco Garcia;
#TITLETRANSLIT:;
#SUBTITLETRANSLIT:;
#ARTISTTRANSLIT:;
#GENRE:;
#ORIGIN:;
#CREDIT:;
#BANNER:La receta.png;
#BACKGROUND:La receta-bg.png;
#PREVIEWVID:;
#JACKET:La receta-jacket.png;
#CDIMAGE:;
#DISCIMAGE:;
#LYRICSPATH:;
#CDTITLE:;
#MUSIC:La receta.ogg;
#OFFSET:0.000000;
#SAMPLESTART:40.619999;
#SAMPLELENGTH:15.000000;
#SELECTABLE:YES;
#DISPLAYBPM:130.000000;
#BPMS:0.000=129.700,
4.000=130.000;
#STOPS:;
#DELAYS:;
#WARPS:;
#TIMESIGNATURES:0.000=4=4;
#TICKCOUNTS:0.000=4;
#COMBOS:0.000=1;
#SPEEDS:0.000=1.000=0.000=0;
#SCROLLS:0.000=1.000;
#FAKES:;
#LABELS:0.000=Song Start;
#BGCHANGES:;
#KEYSOUNDS:;
#ATTACKS:
;

//---------------dance-single - ----------------
#NOTEDATA:;
#CHARTNAME:;
#STEPSTYPE:dance-single;
#DESCRIPTION:;
#CHARTSTYLE:;
#DIFFICULTY:Beginner;
#METER:3;
#RADARVALUES:0.122734,0.181400,0.065369,0.000000,0.000000,92.000000,85.000000,7.000000,0.000000,0.000000,0.000000,0.000000,0.000000,0.000000,0.122734,0.181400,0.065369,0.000000,0.000000,92.000000,85.000000,7.000000,0.000000,0.000000,0.000000,0.000000,0.000000,0.000000;
#CREDIT:;
#DISPLAYBPM:130.000000;
#NOTES:
0000
0000
0000
0000
,
0000
0000
0000
0000
,
0000
0000
0000
0000
,
0000
0000
0000
0000
,
0000
0000
0000
0000
,
0001
0000
0000
0000
,
1000
0000
0000
0000
,
0001
0000
0000
0000
,
1000
1000
0000
0000
,
0001
0000
0000
0000
,
1000
0000
0000
0000
,
0001
0000
0000
0000
,
0001
0001
0000
0000
,
1001
0000
0000
0000
,
1000
1000
1000
0000
,
0001
0000
0001
0000
,
0010
0000
0000
0000
,
0001
0001
0001
0000
,
1000
0000
1000
0000
,
0001
0000
1000
0000
,
0010
0000
0000
0000
,
1001
0000
0000
0000
,
0001
0001
0000
0000
,
1000
1000
0000
0000
,
0010
0010
0000
0000
,
0010
0000
0000
0000
,
0001
0001
0000
0000
,
1000
1000
0000
0000
,
0010
0010
0000
0000
,
0100
0000
0000
0000
,
1001
0000
0000
0000
,
0000
0000
0000
0000
,
1001
0000
0000
0000
,
0000
0000
0000
0000
,
1000
1000
1000
0000
,
0001
0001
0001
0000
,
0010
0010
0010
0000
,
0010
0000
0000
0000
,
1000
1000
0000
0000
,
0001
0001
0000
0000
,
0010
0010
0000
0000
,
0010
0000
0000
0000
,
0001
0001
0001
0000
,
1000
1000
1000
0000
,
0010
0010
0010
0000
,
0010
0000
0000
0000
,
0001
0001
0000
0000
,
1000
1000
0000
0000
,
0010
0010
0000
0000
,
0100
0000
0000
0000
,
1001
0000
0000
0000
,
0000
0000
0000
0000
,
0010
0000
1000
0000
,
0001
0000
0010
0000
,
1000
0000
0001
0000
,
1001
0000
1001
0000
,
0000
0000
0000
0000
;

//---------------dance-single - ----------------
#NOTEDATA:;
#CHARTNAME:;
#STEPSTYPE:dance-single;
#DESCRIPTION:;
#CHARTSTYLE:;
#DIFFICULTY:Easy;
#METER:4;
#RADARVALUES:0.161422,0.208248,0.084046,0.205446,0.000000,121.000000,112.000000,9.000000,22.000000,0.000000,0.000000,0.000000,0.000000,0.000000,0.161422,0.208248,0.084046,0.205446,0.000000,121.000000,112.000000,9.000000,22.000000,0.000000,0.000000,0.000000,0.000000,0.000000;
#CREDIT:;
#DISPLAYBPM:130.000000;
#NOTES:
0000
0000
0000
0000
,
0000
0000
0000
0000
,
0000
0000
0000
0000
,
0000
0000
0000
0000
,
0000
0000
0000
0000
,
0001
0000
1000
0000
,
0001
0001
0010
0000
,
0001
0000
0100
0000
,
0001
1000
1001
0000
,
1000
0000
0001
0000
,
1000
1000
0010
0000
,
1000
0000
0100
0000
,
1000
1000
0001
0001
,
1001
0000
0000
0000
,
1000
0010
1000
0010
,
0010
0000
0100
0000
,
0001
0010
0001
0000
,
1000
1000
0001
0000
,
0010
0010
0100
0000
,
0001
1000
0001
1000
,
0001
0000
0100
0000
,
2002
0000
3003
0000
,
1000
1000
0100
0100
,
0010
0000
0010
0000
,
0002
0003
2000
3000
,
0020
0030
0000
0000
,
0001
0001
0100
0100
,
0010
0000
0010
0000
,
2000
3000
0002
0003
,
0200
0300
0000
0000
,
0110
0000
0000
0000
,
1001
0000
0000
0000
,
1001
0000
0000
0000
,
0110
0000
0000
0000
,
1000
1000
0010
0100
,
0010
0000
0010
0000
,
0002
0003
2000
3000
,
0020
0030
0000
0000
,
0001
0001
0100
0001
,
0010
0000
0010
0000
,
2000
3000
0002
0003
,
0020
0030
0000
0000
,
1000
1000
0010
0100
,
0010
0000
0010
0000
,
0002
0003
2000
3000
,
0020
0030
0000
0000
,
0001
0001
0100
0001
,
0010
0000
0010
0000
,
2000
3000
0002
0003
,
0200
0300
0000
0000
,
1001
0000
0000
0000
,
0000
0000
0000
0000
,
1000
0000
0100
0000
,
0001
0000
0100
0000
,
0010
0000
0010
0000
,
0100
0010
0220
0330
,
0000
0000
0000
0000
;

//---------------dance-single - ----------------
#NOTEDATA:;
#CHARTNAME:;
#STEPSTYPE:dance-single;
#DESCRIPTION:;
#CHARTSTYLE:;
#DIFFICULTY:Medium;
#METER:7;
#RADARVALUES:0.321510,0.364434,0.102723,0.121400,0.000000,241.000000,230.000000,11.000000,13.000000,0.000000,0.000000,0.000000,0.000000,0.000000,0.321510,0.364434,0.102723,0.121400,0.000000,241.000000,230.000000,11.000000,13.000000,0.000000,0.000000,0.000000,0.000000,0.000000;
#CREDIT:;
#DISPLAYBPM:130.000000;
#NOTES:
0000
0000
0000
0000
,
0000
0000
0000
0000
,
0000
0000
0000
0000
,
0000
0000
0000
0000
,
0000
0000
0100
0100
,
0010
0000
0100
0010
1000
0010
0100
0000
,
0001
0010
0100
0000
,
1000
0010
0100
0000
0100
0010
1000
0000
,
0001
1000
0110
0000
,
0010
0000
0100
0010
0001
0010
0001
0000
,
1000
0010
1100
0000
,
0001
0010
0001
0000
0100
0010
0001
0000
,
1000
0001
0010
0100
,
0010
0000
0000
0000
0001
0000
0100
0010
,
2000
3020
0230
0300
,
0001
0100
0001
0010
,
1000
0000
0100
0000
0001
0001
0100
0000
,
1000
0100
1000
0100
,
0010
0000
0001
0000
0100
0001
0100
0000
,
2000
3002
2003
3001
,
0010
0000
0010
0000
0100
1000
0001
0000
,
1002
0000
0100
0103
,
1000
0010
1000
0000
0100
0000
0001
0000
,
0010
0000
0001
0010
0001
0000
1000
0000
,
0010
0000
1000
0001
0010
0000
0100
0000
,
1000
0010
1000
0010
2000
0000
3000
0000
,
0001
0010
0001
0000
0001
0000
1000
0000
,
0010
0000
1000
0100
1000
0000
0001
0000
,
0010
0000
0001
1000
0010
0000
0010
0000
,
1000
0001
1000
0001
0020
0000
0030
0000
,
0001
0000
0000
0010
0000
0000
0010
0000
,
0001
0000
0000
0100
0000
0010
1000
0000
,
0100
0000
0000
0100
0000
0000
0010
0000
,
0001
0000
0000
1000
0001
0000
0000
0001
,
1000
0010
1000
0001
0100
0000
0001
0000
,
0010
0000
0001
0010
0001
0000
0100
0000
,
0010
0000
1000
0001
0010
0000
0001
0000
,
1000
0010
1000
0010
0200
0000
0300
0000
,
0001
0010
0001
0000
0101
0000
1000
0000
,
0010
0000
1000
0010
1000
0000
1001
0000
,
0010
0000
0001
1000
0010
0000
0110
0000
,
0001
0010
0001
0010
0200
0000
0300
0000
,
1000
0010
1000
0001
0100
0000
0001
0000
,
0010
0000
0001
0010
0001
0000
0100
0000
,
0010
0000
1000
0001
0010
0000
0001
0000
,
1000
0010
1000
0010
0200
0000
0300
0000
,
0001
0010
0001
0000
0101
0000
1000
0000
,
0010
0000
1000
0010
1000
0000
1001
0000
,
0010
0000
0001
1000
0010
0000
0110
0000
,
0001
0010
0001
0010
0200
0000
0300
0000
,
1001
0000
0000
0000
,
0000
0000
0000
0001
,
1000
0000
0000
0010
0000
0000
0100
0000
,
0001
0000
0000
0010
0000
0000
0100
0000
,
1000
0000
0000
0010
0100
0000
0000
0001
,
0010
0100
1000
0010
0100
0000
0110
0000
,
0000
0000
0000
0000
;

//---------------dance-single - ----------------
#NOTEDATA:;
#CHARTNAME:;
#STEPSTYPE:dance-single;
#DESCRIPTION:;
#CHARTSTYLE:;
#DIFFICULTY:Hard;
#METER:11;
#RADARVALUES:0.464255,0.494588,0.084046,0.102723,0.289492,348.000000,339.000000,9.000000,11.000000,0.000000,0.000000,0.000000,0.000000,0.000000,0.464255,0.494588,0.084046,0.102723,0.289492,348.000000,339.000000,9.000000,11.000000,0.000000,0.000000,0.000000,0.000000,0.000000;
#CREDIT:;
#DISPLAYBPM:130.000000;
#NOTES:
0000
0000
0000
0000
,
0000
0000
0000
0000
,
0000
0000
0000
0000
,
0000
0000
0000
0000
,
0000
0000
0100
0100
,
1000
0000
0000
0010
0100
0000
0010
0000
1000
0000
0100
0000
0010
0000
0000
0000
,
0001
0000
0000
1000
0000
0000
0010
0000
0100
0000
0000
0001
0000
0000
0100
0000
,
0001
0010
0001
0100
0010
1000
0000
1000
,
0001
0000
0000
0100
0000
0000
0010
0000
1000
0000
0100
0000
0001
0000
0100
0000
,
1000
0000
0000
0010
0100
0000
0010
0000
0001
0000
0100
0000
0010
0000
0000
0000
,
1000
0000
0000
0001
0000
0000
0010
0000
0001
0000
0000
1000
0000
0000
0100
0000
,
1000
0010
1000
0100
0010
0001
0100
0001
,
1000
0000
0000
0001
0100
0000
0010
0000
1000
0000
0000
0000
0101
0000
0000
0000
,
0010
0000
0000
0000
0100
0001
0010
0001
,
2000
0100
0002
3003
,
0100
0001
0010
0000
0001
0100
0000
0100
,
0010
0000
0000
1001
0000
0000
0010
0000
0100
0000
0010
0000
0100
0000
0000
0000
,
1000
0010
0100
0001
0000
0001
0100
0000
,
0010
0000
0000
0010
0000
0000
0100
0000
1000
0000
0001
0000
0100
0000
0001
0000
,
2000
0001
3020
0031
,
0100
0000
0000
1000
0001
0000
0010
0000
0100
0000
0000
0000
0100
0000
0000
0000
,
0210
0000
1000
0301
,
1000
0000
0010
0000
0100
0000
0010
0000
1000
0000
0000
0001
0100
0000
1000
0000
,
0100
0000
0000
0001
0010
0000
0100
0000
0010
0000
0000
0001
1000
0000
0010
0000
,
0100
0000
0000
0100
0010
0000
0100
0000
0001
0000
0000
0001
0100
0000
0001
0000
,
0010
0100
0010
0100
0020
0000
0130
0000
,
0001
0000
0010
0000
0100
0000
0010
0000
0001
0000
0000
1000
0100
0000
1000
0000
,
0100
0000
0000
1000
0010
0000
0100
0000
0001
0000
0000
1000
0001
0000
0010
0000
,
0100
0000
0000
0100
0010
0000
0100
0000
1000
0000
0000
0001
0100
0000
1000
0000
,
0100
0001
0100
0001
0200
0000
0310
0000
,
0001
0000
0000
0011
0000
0000
0010
0000
0000
0000
0001
0000
1000
0000
0100
0000
,
1000
0000
0000
1010
0000
0000
0001
0000
0100
0000
0010
0000
1000
0000
0000
0000
,
0100
0000
0000
0110
0000
0000
0100
0000
0010
0000
0000
0000
0010
0000
0000
0000
,
0001
0000
0000
1000
0000
0000
0001
0000
0100
0000
0000
0010
0000
0000
0100
0000
,
1000
0000
0010
0000
0100
0000
0010
0000
1000
0001
0000
0001
0100
0000
1000
0000
,
0100
0001
0000
0001
0010
0000
0100
0000
0010
0000
0000
0001
1000
0000
0010
0000
,
0100
0000
0000
0100
0010
0000
0100
0000
0001
0000
0000
0001
1000
0000
0001
0000
,
0010
0100
0010
0001
0020
0000
0130
0000
,
0001
0000
0010
0000
0100
0000
0010
0000
0001
0100
0000
1000
0100
0000
0001
0000
,
0100
0001
0000
1000
0010
0000
0100
0000
0010
0000
0000
1000
0001
0000
0010
0000
,
0100
0000
0000
0100
0010
0000
0100
0000
1000
0010
0000
1000
0100
0000
1000
0000
,
0010
0100
0010
1000
0020
0000
0130
0000
,
0001
0000
0010
0000
0100
0000
0010
0000
0001
1000
0000
1000
0100
0000
0001
0000
,
0100
1000
0000
1000
0010
0000
0100
0000
0010
0000
0000
1000
0001
0000
0010
0000
,
0100
0000
0000
0100
0010
0000
0100
0000
1000
0000
0000
1000
0001
0000
1000
0000
,
0010
0100
0010
1000
0020
0000
0130
0000
,
1000
0000
0010
0000
0100
0000
0010
0000
1000
0100
0000
0001
0100
0000
1000
0000
,
0100
1000
0000
0001
0010
0000
0100
0000
0010
0000
0000
0001
1000
0000
0010
0000
,
0100
0000
0000
0100
0010
0000
0100
0000
0001
0010
0000
0001
0100
0000
0001
0000
,
0100
1000
0100
0010
0200
0000
0310
0000
,
1001
0000
0000
0000
,
0000
0000
0000
0010
,
1000
0000
0000
0100
0000
0000
0010
0000
0000
0000
0000
0000
0001
0000
0000
0000
,
0100
0000
0000
0010
0000
0000
0100
0000
0000
0000
0000
0000
0001
0000
0000
0000
,
1000
0000
0000
0110
0000
0000
0001
0000
0100
0000
0000
1001
0000
0000
0100
0000
,
0010
0000
0000
0001
0000
0000
1000
0000
0000
0010
0000
0000
0100
0000
0001
0000
1000
0000
0010
0000
0000
0000
0000
0000
,
0000
0000
0000
0000
;

//---------------dance-single - ----------------
#NOTEDATA:;
#CHARTNAME:;
#STEPSTYPE:dance-single;
#DESCRIPTION:;
#CHARTSTYLE:;
#DIFFICULTY:Challenge;
#METER:13;
#RADARVALUES:0.509613,0.546650,0.196108,0.177431,0.392215,382.000000,361.000000,21.000000,19.000000,0.000000,0.000000,0.000000,0.000000,0.000000,0.509613,0.546650,0.196108,0.177431,0.392215,382.000000,361.000000,21.000000,19.000000,0.000000,0.000000,0.000000,0.000000,0.000000;
#CREDIT:;
#DISPLAYBPM:130.000000;
#NOTES:
0000
0000
0000
0000
,
0000
0000
0000
0000
,
0000
0000
0000
0000
,
0000
0000
0000
0000
,
0000
0000
0100
0100
,
1000
0000
0000
0010
0100
0000
0010
0000
1000
0000
0100
0000
0010
0000
0100
0000
,
1000
0000
0000
0001
0100
0000
0010
0000
0100
0000
0000
0001
1000
0000
0100
0000
,
0010
0100
0001
0100
0010
0001
0100
0010
,
0001
0000
0000
0010
0000
0000
1000
0000
0100
0000
0010
0000
0110
0000
0000
0000
,
0001
0000
0000
0010
0100
0000
0010
0000
0001
0000
0100
0000
0010
0000
1000
0000
,
0001
0000
0000
1000
0100
0000
0001
0000
0100
0000
0000
1000
0001
0000
0100
0000
,
0010
0100
1000
0100
0001
1000
0100
0010
,
0001
0000
0000
0110
0000
0000
1000
0000
0010
0000
0100
0000
0101
0000
0000
0000
,
0010
0000
0000
1000
0000
0000
1100
0000
0000
0010
0000
0000
0001
0000
0100
0000
,
0020
0100
2000
3030
,
0100
0000
0000
0010
0000
0000
0101
0000
0000
1000
0000
0000
0010
0000
0100
0000
,
0010
0000
0000
1001
0000
0000
0010
0000
0000
0100
0000
0000
0100
0000
0000
0000
,
1000
0000
0000
1010
0000
0000
0200
0000
0000
0000
0001
0000
0301
0000
0000
0000
,
0010
0000
0000
0110
0000
0000
0002
0000
0000
0000
0100
0000
0103
0000
0000
0000
,
1000
0000
0000
1000
0000
0000
1010
0000
0000
0010
0000
0000
0010
0000
0010
0000
,
0100
0000
0000
0100
0000
0000
0101
0000
0000
0001
0000
0000
0001
0000
0010
0000
,
0210
0000
1000
0301
,
1000
0000
0010
0000
0100
0000
0010
0000
1000
0001
0000
0001
0100
0000
1000
0000
,
0100
0001
0000
0001
0010
0000
0100
0000
0010
0001
0000
0001
1000
0000
0010
0000
,
0100
0000
0000
0100
0010
0000
0100
0000
0001
0000
0000
0001
0100
0000
0001
0000
,
0010
0100
0010
0100
0020
0000
0130
0000
,
0001
0000
0010
0000
0100
0000
0010
0000
0001
1000
0000
1000
0100
0000
1000
0000
,
0100
1000
0000
1000
0010
0000
0100
0000
0001
1000
0000
1000
0001
0000
0010
0000
,
0100
0000
0000
0100
0010
0000
0100
0000
1000
0000
0000
0001
0100
0000
1000
0000
,
0100
0001
0100
0001
0200
0000
0310
0000
,
2000
0000
0000
0010
0000
0000
3200
0000
0000
0000
1000
0000
1300
0000
0000
0000
,
0020
0000
0000
0100
0000
0000
0032
0000
0000
0000
0010
0000
0013
0000
0000
0000
,
0200
0000
0000
0001
0000
0000
0320
0000
0000
0000
0100
0000
0130
0000
0000
0000
,
1010
0000
0000
0100
0000
0000
1010
0000
0100
0000
0000
0011
0000
0000
0100
0000
,
1000
0000
0010
0000
0100
0000
0010
0000
1000
0001
0010
0001
0100
0000
1000
0000
,
0100
0001
0000
0001
0010
0000
0100
0000
1000
0001
0000
0001
1000
0000
0010
0000
,
0100
0000
0000
0100
0010
0000
0100
0000
0001
0100
0000
0001
0100
0000
0001
0000
,
0010
0100
0010
0001
0020
0000
0130
0000
,
0001
0000
0010
0000
0100
0000
0010
0000
0001
1000
0100
1000
0100
0000
0001
0000
,
0100
1000
0000
1000
0010
0000
0001
0000
0010
1000
0000
1000
0001
0000
0010
0000
,
0100
0000
0000
0100
0010
0000
0100
0000
1000
0001
0000
1000
0100
0000
1000
0000
,
0010
0100
0010
1000
0020
0000
0130
0000
,
0001
0000
0010
0000
0100
0000
0010
0000
0001
1000
0010
1000
0100
0000
0001
0000
,
0100
1000
0000
1000
0010
0000
0100
0000
0001
1000
0000
1000
0001
0000
0010
0000
,
0100
0000
0000
0100
0010
0000
0100
0000
1000
0100
0000
1000
0100
0000
1000
0000
,
0010
0100
0010
1000
0020
0000
0130
0000
,
1000
0000
0010
0000
0100
0000
0010
0000
1000
0001
0100
0001
0100
0000
1000
0000
,
0100
0001
0000
0001
0010
0000
1000
0000
0010
0001
0000
0001
1000
0000
0010
0000
,
0100
0000
0000
0100
0010
0000
0100
0000
0001
1000
0000
0001
0100
0000
0001
0000
,
0100
1000
0100
0010
0200
0000
0310
0000
,
1001
0000
0000
0000
,
0000
0000
0000
0010
,
1001
0000
0000
0100
0000
0000
0210
0000
0000
0000
0000
0000
0301
0000
0010
0001
,
0010
0000
0000
1001
0000
0000
0200
0000
0000
0000
0000
0000
0310
0000
1000
0000
,
0001
0000
0000
0110
0000
0000
1000
0000
0001
0000
0000
1001
0000
0000
0100
0000
,
0010
0000
0000
1000
0000
0000
0001
0000
0000
0010
0000
0000
0100
0000
1000
0000
0001
0000
1001
0000
0000
0000
0000
0000
,
0000
0000
0000
0000
;

//---------------dance-double - ----------------
#NOTEDATA:;
#CHARTNAME:;
#STEPSTYPE:dance-double;
#DESCRIPTION:;
#CHARTSTYLE:;
#DIFFICULTY:Easy;
#METER:5;
#RADARVALUES:0.198776,0.234279,0.065369,0.317508,0.000000,149.000000,142.000000,7.000000,34.000000,0.000000,0.000000,0.000000,0.000000,0.000000,0.198776,0.234279,0.065369,0.317508,0.000000,149.000000,142.000000,7.000000,34.000000,0.000000,0.000000,0.000000,0.000000,0.000000;
#CREDIT:;
#DISPLAYBPM:130.000000;
#NOTES:
00000000
00000000
00000000
00000000
,
00000000
00000000
00000000
00000000
,
00000000
00000000
00000000
00000000
,
00000000
00000000
00000000
00000000
,
00000000
00000000
00000001
00000001
,
00001000
00000010
00001000
00000000
,
00000100
00010000
00001000
00000000
,
00100000
00001000
00010000
00000000
,
00001000
01000000
00100000
00000000
,
00010000
00100000
00010000
00000000
,
01000000
00001000
00010000
00000000
,
00000010
00010000
00001000
00000000
,
00000100
00000010
00000100
00000000
,
00000002
00000000
00000013
00000010
,
00000200
00000000
00010300
00000000
,
00020000
00000000
00031000
00001000
,
02000000
00100000
03100000
00000000
,
20000000
00000000
30010000
00010000
,
00200000
00000000
00301000
00010000
,
00001000
00010000
00001000
00000000
,
00000010
00000000
00000001
00000000
,
00001000
00000000
00000000
00000000
,
00000010
00001000
00000010
00001000
,
00000100
00010000
00010000
00000000
,
00002000
00003000
00200000
00300000
,
01000000
01000000
01000000
00000000
,
00100000
00010000
00100000
00010000
,
01000000
00001000
00001000
00000000
,
00020000
00030000
00000020
00000030
,
00001000
00000001
00001000
00000000
,
00002200
00000000
00003300
00000000
,
00022000
00000000
00033000
00000000
,
00220000
00000000
00330000
00000000
,
20020000
30030000
02200000
03300000
,
00100000
00010000
00100000
00010000
,
01000000
00001000
00010000
00000000
,
00020000
00030000
00000020
00001030
,
00000100
00000100
00000100
00000000
,
00000010
00001000
00000010
00001000
,
00000100
00010000
00001000
00000000
,
00002000
00003000
00200000
00310000
,
01000000
01000000
01000000
00000000
,
00100000
00010000
00100000
00010000
,
01000000
00001000
00010000
00000000
,
00020000
00030000
00000020
00001030
,
00000100
00000100
00000100
00000000
,
00000010
00001000
00000010
00001000
,
00000100
00010000
00001000
00000000
,
00002000
00003000
00200000
00310000
,
10000000
00010000
10000000
00010000
,
10010000
00000000
00000000
00000000
,
00000000
00000000
00000000
00000000
,
00200000
00300000
00002000
00003000
,
00020000
00030000
00000020
00000030
,
00020000
00030000
00002000
00003000
,
00010000
00001000
00010000
00011000
,
00000000
00000000
00000000
00000000
;

//---------------dance-double - ----------------
#NOTEDATA:;
#CHARTNAME:;
#STEPSTYPE:dance-double;
#DESCRIPTION:;
#CHARTSTYLE:;
#DIFFICULTY:Medium;
#METER:7;
#RADARVALUES:0.329514,0.390464,0.270815,0.112062,0.009338,247.000000,218.000000,29.000000,12.000000,0.000000,0.000000,0.000000,0.000000,0.000000,0.329514,0.390464,0.270815,0.112062,0.009338,247.000000,218.000000,29.000000,12.000000,0.000000,0.000000,0.000000,0.000000,0.000000;
#CREDIT:;
#DISPLAYBPM:130.000000;
#NOTES:
00000000
00000000
00000000
00000000
,
00000000
00000000
00000000
00000000
,
00000000
00000000
00000000
00000000
,
00000000
00000000
00000000
00000000
,
00000000
00000000
10000000
10000000
,
00010000
00000000
01000000
00000000
00010000
00100000
00001000
00000000
,
00010000
00000010
00001000
00000000
00000100
00000000
00000100
00000000
,
00001000
00000010
00010000
00000100
,
00000010
00001000
00010000
00000000
,
00001000
00000000
00000100
00000000
00001000
00000100
00010000
00000000
,
00001000
00100000
00010000
00000000
00100000
00000000
01000000
00000000
,
00010000
00100000
00001000
00000000
,
00000010
00001000
00010000
00100000
,
00120000
00000000
00001000
00031000
,
00000020
00000000
00000001
00000130
,
00020000
00000000
00100000
00031000
,
00100000
00000000
01000000
00000000
00010000
00001000
00010000
00000000
,
00012000
00000000
00000010
00003010
,
00000200
00000000
00000000
00000000
00010000
00000000
00010300
00001000
,
01000000
00100000
10000000
01000000
,
00010000
00000000
00001000
00000000
00000010
00000100
00001000
00000000
,
00000010
00000000
00000000
00000000
,
00001000
00000000
00000001
00000000
00000100
00000010
00001000
00000000
,
00000100
00010000
00001000
00000000
00100000
00000000
01100000
00000000
,
10000000
10100000
00010000
00011000
,
00100000
00010000
01000000
00100000
10000000
00000000
00000000
00000000
,
00010000
00000000
10000000
00000000
00010000
00100000
00010000
00000000
,
01000000
00001000
00010000
00000000
00000010
00000000
00001100
00000000
,
00000001
00000011
00001000
00011000
,
01000000
00100000
01000000
00010000
00100000
00000000
00001000
00000000
,
00012000
00000000
00000000
00100000
00000000
00000000
00013000
00000000
,
02000000
00000000
00000000
00100000
00000000
00000000
13000000
00000000
,
00020000
00000000
00000000
00100000
00000000
00000000
01030000
00000000
,
00002000
00013000
00000200
00000301
,
00001001
00000000
00000001
00000000
00000100
00000010
00001000
00000000
,
00000100
00010000
00001000
00000000
00110000
00000000
01100000
00000000
,
00010000
10100000
00010000
00011000
,
00100000
00010000
01000000
00100000
10000000
00000000
01000000
00000000
,
00010000
00000000
11000000
00000000
01000000
00100000
00010000
00000000
,
01000000
00001000
00010000
00000000
00000100
00000000
00000110
00000000
,
00000010
00000011
00001000
00011000
,
00000010
00001000
00000100
00000010
00000001
00000000
00000100
00000000
,
00001001
00000000
00000001
00000000
00000100
00000010
00001000
00000000
,
00000100
00010000
00001000
00000000
00110000
00000000
01100000
00000000
,
00010000
10100000
00010000
00011000
,
00100000
00010000
01000000
00100000
10000000
00000000
01000000
00000000
,
00010000
00000000
11000000
00000000
01000000
00100000
00010000
00000000
,
01000000
00001000
00010000
00000000
00000100
00000000
00000110
00000000
,
00000010
00000011
00001000
00011000
,
01000000
00100000
10000000
00010000
00100000
00000000
00001000
00000000
,
00011000
00000000
00000000
00000000
,
00000000
00000000
00000000
00000000
,
00010000
00000000
00000000
00010000
00000000
00000000
00000020
00000000
00000000
00000000
00000000
00000000
00000030
00000000
00010000
00000000
,
00001000
00000000
00000000
00001000
00000000
00000000
00000200
00000000
00000000
00000000
00000000
00000000
00000301
00000000
00000000
00000000
,
00000010
00001000
00010000
00001000
,
00010000
00001000
00010000
00001000
00010000
00000000
00011000
00000000
,
00000000
00000000
00000000
00000000
;

//---------------dance-double - ----------------
#NOTEDATA:;
#CHARTNAME:;
#STEPSTYPE:dance-double;
#DESCRIPTION:;
#CHARTSTYLE:;
#DIFFICULTY:Hard;
#METER:11;
#RADARVALUES:0.445578,0.442526,0.168092,0.270815,0.354862,334.000000,316.000000,18.000000,29.000000,0.000000,0.000000,0.000000,0.000000,0.000000,0.445578,0.442526,0.168092,0.270815,0.354862,334.000000,316.000000,18.000000,29.000000,0.000000,0.000000,0.000000,0.000000,0.000000;
#CREDIT:;
#DISPLAYBPM:130.000000;
#NOTES:
00000000
00000000
00000000
00000000
,
00000000
00000000
00000000
00000000
,
00000000
00000000
00000000
00000000
,
00000000
00000000
00000000
00000000
,
00000000
00000000
10000000
00010000
,
10000000
00000000
01000000
00000000
00100000
00000000
00010000
00000000
01000000
00000000
00000000
00001000
00000000
00000000
00010000
00000000
,
01000000
00000000
00000000
00010000
00000000
00000000
00001000
00000000
00000100
00000000
00000000
00001000
00000000
00000000
00010000
00000000
,
00001000
00010000
00000100
00000010
00000001
00000000
00001000
00000000
,
00000010
00000000
00000000
00001100
00000000
00000000
00001001
00000000
00000000
00000000
00000000
00000000
00000100
00000000
00000000
00000000
,
00000001
00000000
00000100
00000000
00000001
00000000
00001000
00000000
00000100
00000000
00000000
00010000
00000000
00000000
00001000
00000000
,
00000100
00000000
00000000
00001000
00000000
00000000
00010000
00000000
00100000
00000000
00000000
00010000
00000000
00000000
00001000
00000000
,
00010000
00001000
01000000
00100000
10000000
00000000
01000000
00000000
,
00100000
00000000
00000000
00100000
00000000
00000000
00002000
00000000
00020000
00000000
00000000
00000000
00033000
00000000
00000000
00000000
,
00000200
00000000
00000000
00000001
00000000
00000000
00000310
00000000
00000000
00001000
00000000
00000000
00010000
00000000
00100000
00000000
,
00020000
00000000
00000000
00001000
00000000
00000000
00031000
00000000
00000000
01000000
00000000
00000000
10000000
00000000
10000000
00000000
,
00200000
00000000
00000000
00010000
00000000
00000000
00310000
00000000
00000000
00001000
00000000
00000000
00001000
00000000
00000010
00000000
,
00000200
00000000
00000000
00000010
00000000
00000000
00000310
00000000
00000000
00000100
00000000
00000000
00001001
00000000
00000000
00000000
,
00000200
00000000
00000000
00000010
00000000
00000000
00000010
00000000
00000000
00000000
00010000
00000000
00010300
00000000
00001000
00000000
,
02000000
00000000
00000000
00001000
00000000
00000000
00001000
00000000
00000000
00000000
00100000
00000000
03100000
00000000
10000000
00000000
,
10000000
00000000
00000000
01000000
00000000
00000000
00100000
00000000
00000000
00001000
00000000
00000000
00010000
00000000
00000010
00000000
,
00001000
00000000
00000000
00000001
00000000
00000000
00000100
00000000
00000000
00001000
00000000
00000000
00010000
00000000
00001000
00000000
,
00000010
00000000
00000000
00000000
,
00000001
00000000
00000000
00000100
00000010
00000000
00001000
00000000
00000100
00000000
00000000
00000010
00000001
00000000
00000010
00000000
,
00000100
00000000
00000000
00010000
00002000
00000000
00010000
00000000
00013000
00000000
00000000
01000000
20000000
00000000
31000000
00000000
,
00100000
00000000
00000000
00100000
00001000
00000000
00000000
00001000
01000000
00000000
00000000
01000000
00010000
00000000
00100000
00000000
,
00001000
00000010
00001000
00010000
01000000
00000000
00000000
00000000
,
10000000
00000000
00000000
01000000
00100000
00000000
00001000
00000000
01000000
00000000
00000000
00100000
10000000
00000000
00100000
00000000
,
00010000
00000000
00000000
00001000
00020000
00000000
00001000
00000000
00031000
00000000
00000000
00000100
00000002
00000000
00000103
00000000
,
00000010
00000000
00000000
00000010
00010000
00000000
00000000
00010000
00000100
00000000
00000000
00000100
00001000
00000000
00000001
00000000
,
00000010
00001000
00010000
00001000
00000100
00000000
00000011
00000000
,
00001100
00000000
00000000
00000010
00000000
00000000
00020100
00000000
00000000
00000000
00000000
00000000
00030000
00000000
00000000
00000000
,
00100000
00000000
00000000
00110000
00000000
00000000
10200000
00000000
00000000
00000000
00000000
00000000
00000000
00300000
00000000
00000000
,
01000000
00000000
00000000
10100000
00000000
00000000
02010000
00000000
00000000
00000000
00000000
00000000
03000000
00000000
00000000
00000000
,
00001000
00000000
00000000
00001010
00000000
00000000
00000100
00000000
00010000
00000000
00000000
00110000
00000000
00000000
01000000
00000000
,
10000000
00000000
00000000
01000000
00010000
00000000
00010000
00000000
01000000
00000000
00000000
00100000
10000000
00000000
00100000
00000000
,
00100000
00000000
00000000
00001000
00020000
00000000
00001000
00000000
00031000
00000000
00000000
00000100
00000002
00000000
00000103
00000000
,
00000010
00000000
00000000
00000010
00010000
00000000
00000000
00010000
00000100
00000000
00000000
00000100
00001000
00000000
00000100
00000000
,
00010000
00100000
00010000
00001000
00000100
00000000
00001001
00000000
,
00000001
00000000
00000000
00000100
00000010
00000000
00001000
00000000
00000001
00000000
00000000
00000010
00000001
00000000
00000010
00000000
,
00000100
00000000
00000000
00000010
00002000
00000000
00010000
00000000
00013000
00000000
00000000
01000000
20000000
00000000
31000000
00000000
,
00100000
00000000
00000000
00100000
00001000
00000000
00000000
00001000
01000000
00000000
00000000
01000000
00001000
00000000
00100000
00000000
,
00001000
00000010
00001000
00010000
01000000
00000000
10010000
00000000
,
10000000
00000000
00000000
01000000
00010000
00000000
00010000
00000000
01000000
00000000
00000000
00100000
10000000
00000000
00100000
00000000
,
00100000
00000000
00000000
00001000
00020000
00000000
00001000
00000000
00031000
00000000
00000000
00000100
00000002
00000000
00000103
00000000
,
00000010
00000000
00000000
00000010
00010000
00000000
00000000
00010000
00000100
00000000
00000000
00000100
00001000
00000000
00000100
00000000
,
00010000
00100000
00010000
00001000
00000100
00000000
00001001
00000000
,
00000001
00000000
00000000
00000100
00000010
00000000
00001000
00000000
00000001
00000000
00000000
00000010
00000001
00000000
00000010
00000000
,
00000100
00000000
00000000
00000010
00002000
00000000
00010000
00000000
00013000
00000000
00000000
01000000
20000000
00000000
31000000
00000000
,
00100000
00000000
00000000
00100000
00001000
00000000
00000000
00001000
01000000
00000000
00000000
01000000
00001000
00000000
00100000
00000000
,
01000000
00010000
00001000
00010000
01000000
00000000
10100000
00000000
,
01010000
00000000
00000000
00000000
,
00000000
00000000
00000000
00010000
,
00021000
00000000
00000000
00000010
00000000
00000000
00000010
00000000
00000000
00000000
00000000
00000000
00030000
00000000
00001000
00010000
,
00002000
00000000
00000000
01000000
00000000
00000000
01000000
00000000
00000000
00000000
00000000
00000000
00013000
00000000
00001000
00000000
,
00000020
00000000
00000000
00000230
00000000
00000000
00010300
00000000
00002000
00000000
00000000
02003000
00000000
00000000
03100000
00000000
,
00010000
00000000
00000000
00001000
00000000
00000000
00100000
00000000
00000000
00001000
00000000
00000000
00000100
00000000
00000001
00000000
00000010
00000000
00000001
00000000
00000000
00000000
00000000
00000000
,
00000000
00000000
00000000
00000000
;

//---------------dance-double - ----------------
#NOTEDATA:;
#CHARTNAME:;
#STEPSTYPE:dance-double;
#DESCRIPTION:;
#CHARTSTYLE:;
#DIFFICULTY:Challenge;
#METER:13;
#RADARVALUES:0.490936,0.494588,0.074708,0.140077,0.443577,368.000000,360.000000,8.000000,15.000000,0.000000,0.000000,0.000000,0.000000,0.000000,0.490936,0.494588,0.074708,0.140077,0.443577,368.000000,360.000000,8.000000,15.000000,0.000000,0.000000,0.000000,0.000000,0.000000;
#CREDIT:;
#DISPLAYBPM:130.000000;
#NOTES:
00000000
00000000
00000000
00000000
,
00000000
00000000
00000000
00000000
,
00000000
00000000
00000000
00000000
,
00000000
00000000
00000000
00000000
,
00000000
00000000
00000001
00001100
,
00000001
00000000
00000000
00000100
00000010
00000000
00010000
00000000
00001000
00000000
00000100
00000000
00000001
00000000
00000010
00000000
,
00000100
00000000
00000000
00010000
00001000
00000000
00001000
00000000
01000000
00000000
00100000
00000000
00010000
00000000
00000000
00000000
,
00001000
00000000
00000000
00100000
01000000
00000000
00100000
00000000
00001000
00000000
00010000
00000000
00001000
00000000
00000100
00000000
,
00000001
00000000
00000000
00000001
00000000
00000000
00000010
00000000
00001000
00000000
00000000
00000000
00011000
00000000
00000000
00000000
,
10000000
00000000
00000000
01000000
00100000
00000000
00001000
00000000
00010000
00000000
01000000
00000000
10000000
00000000
00010000
00000000
,
01000000
00000000
00000000
00001000
00010000
00000000
00001000
00000000
00000100
00000000
00000010
00000000
00001000
00000000
00000000
00000000
,
00010000
00000000
00000000
00000010
00000100
00000000
00001000
00000000
00010000
00000000
00001000
00000000
00010000
00000000
01000000
00000000
,
00100000
00000000
00000000
00100000
00000000
00000000
00010000
00000000
02000000
00000000
00000000
00000000
03000000
00000000
00000000
00000000
,
00100000
00000000
10000000
00000000
00010000
00000000
01000000
00000000
00002000
00000000
00000000
00010000
00000000
00000000
00013000
00000000
,
00000200
00000000
00000000
00000010
00000000
00000000
00000301
00000000
00000100
00000000
00010000
00000000
00001000
00000000
01000000
00000000
,
00002000
00000000
00000000
00000010
00000000
00000000
00003010
00000000
00001000
00000000
00010000
00000000
00100000
00000000
00010000
00000000
,
00002000
00000000
00000000
00000100
00000000
00000000
00023000
00000000
00000000
00000000
00001000
00000000
00031000
00000000
00000000
00000000
,
00000010
00000000
00001000
00000000
00010000
00000000
00100000
00000000
00000000
00100000
00010000
00000000
00001000
00000000
00000100
00000000
,
00000001
00000000
00000000
00000010
00000000
00000000
00000100
00000000
00010000
00000000
00001000
00000000
00010000
00000000
00000010
00000000
,
00002000
00000000
00023000
00000000
10030000
00010000
00001000
00000100
,
00000001
00000000
00000000
00001000
00000000
00000000
00000100
00000000
00000010
00000000
00000000
00000000
00000100
00000000
00000000
00000000
,
00000000
00000001
00001000
00010000
,
10000000
00000000
00000000
00100000
00010000
00000000
00001000
00000000
00000100
00000000
00000000
00000001
00000010
00000000
00001000
00000000
,
00010000
00000000
00000000
00100000
00010000
00000000
00001000
00000000
00000010
00000000
00000000
00001000
00010000
00000000
01000000
00000000
,
10000000
00000000
00000000
10000000
01000000
00000000
00000000
01000000
00010000
00000000
00000000
00010000
00001000
00000000
00000010
00000000
,
00000001
00000000
00000100
00001000
00000000
00010000
00000000
00100000
00000000
00000000
10000000
00000000
10010000
00000000
00000000
00000000
,
10000000
00000000
00000000
01000000
00010000
00000000
00001000
00000000
00000100
00000000
00000000
00000001
00000010
00000000
00001000
00000000
,
00010000
00000000
00000000
01000000
00010000
00000000
00001000
00000000
00000010
00000000
00000000
00001000
00010000
00000000
01000000
00000000
,
10000000
00000000
00000000
10000000
01000000
00000000
00000000
01000000
00010000
00000000
00000000
00010000
00001000
00000000
00000100
00000000
,
00000001
00000000
00000010
00000100
00000000
00010000
00000000
00001000
00000100
00000000
00000001
00000000
00000010
00000000
00000000
00000000
,
00002000
00000000
00000000
00010000
00000000
00000000
00000010
00000000
00000000
00000000
00013000
00000000
00001000
00000000
00000100
00000000
,
00002000
00000000
00000000
00000100
00000000
00000000
00010000
00000000
00000000
00000000
00013000
00000000
01000000
00000000
00100000
00000000
,
00020000
00000000
00000000
00001000
00000000
00000000
00100000
00000000
00000000
00000000
00130000
00000000
00001000
00000000
00010000
00000000
,
00000010
00000000
00000000
00001000
00000000
00000000
00000100
00000000
00010000
00000000
00000000
00100000
00000000
00000000
00100000
00000000
,
10000000
00000000
00000000
00100000
00010000
00000000
00001000
00000000
00000100
00000001
00000000
00000001
00000010
00000000
00001000
00000000
,
00010000
00000000
00000000
00100000
00010000
00000000
00001000
00000000
00000010
00001000
00000000
00001000
00010000
00000000
01000000
00000000
,
10000000
00000000
00000000
00100000
01000000
00000000
00000000
01000000
00010000
00000000
00000000
00010000
00001000
00000000
00000010
00000000
,
00000001
00000000
00000100
00001000
00000000
00010000
00000000
00100000
00000000
00000000
01000000
00000000
10010000
00000000
00000000
00000000
,
10000000
00000000
00000000
01000000
00010000
00000000
00001000
00000000
00000100
00000010
00000000
00000001
00000010
00000000
00001000
00000000
,
00010000
00000000
00000000
00100000
00010000
00000000
00001000
00000000
00000010
00000100
00000000
00001000
00010000
00000000
01000000
00000000
,
10000000
00000000
00000000
10000000
00100000
00000000
00000000
01000000
00010000
00000000
00000000
00010000
00001000
00000000
00000010
00000000
,
00000001
00000000
00000100
00001000
00000000
00010000
00000000
00100000
01000000
00000000
10000000
00000000
10010000
00000000
00000000
00000000
,
10000000
00000000
00000000
01000000
00010000
00000000
00001000
00000000
00000010
00000001
00000000
00000001
00000100
00000000
00001000
00000000
,
00010000
00000000
00000000
01000000
00010000
00000000
00001000
00000000
00000100
00001000
00000000
00001000
00010000
00000000
00100000
00000000
,
10000000
00000000
00000000
01000000
00100000
00000000
00000000
00100000
00010000
00000000
00000000
00010000
00001000
00000000
00000100
00000000
,
00000001
00000000
00000010
00001000
00000000
00010000
00000000
01000000
00000000
00000000
00100000
00000000
10010000
00000000
00000000
00000000
,
10000000
00000000
00000000
00100000
00010000
00000000
00001000
00000000
00000010
00000100
00000000
00000001
00000100
00000000
00001000
00000000
,
00010000
00000000
00000000
01000000
00010000
00000000
00001000
00000000
00000100
00000010
00000000
00001000
00010000
00000000
00100000
00000000
,
10000000
00000000
00000000
10000000
01000000
00000000
00000000
00100000
00010000
00000000
00000000
00010000
00001000
00000000
00000100
00000000
,
00000001
00000000
00000010
00000100
00000000
00010000
00000000
00001000
00000100
00000000
00000001
00000000
00001000
00000000
00000000
00000000
,
00001001
00000000
00000000
00000000
,
00000000
00000000
00000000
00000000
00000000
00000000
10000000
00010000
,
00200000
00000000
00000000
01000000
00000000
00000000
01000000
00000000
00000000
00000000
00000000
00000000
00300000
00000000
00010000
00001000
,
00000200
00000000
00000000
00000001
00000000
00000000
00000001
00000000
00000000
00000000
00000000
00000000
00000310
00000000
00001000
00000000
,
00012000
00000000
00000000
00000100
00000000
00000000
00003100
00000000
00020000
00000000
00000000
01000000
00000000
00000000
01030000
00000000
,
10000000
00000000
00000000
00100000
00000000
00000000
00010000
00000000
00000000
00100000
00000000
00000000
10000000
00000000
01000000
00000000
00010000
00000000
00001000
00000000
00000000
00000000
00000000
00000000
,
00000000
00000000
00000000
00000000
;

//---------------dance-single - Edit----------------
#NOTEDATA:;
#CHARTNAME:;
#STEPSTYPE:dance-single;
#DESCRIPTION:Edit;
#CHARTSTYLE:;
#DIFFICULTY:Edit;
#METER:15;
#RADARVALUES:0.823119,0.834859,1.055246,0.233462,0.742408,617.000000,504.000000,113.000000,25.000000,0.000000,0.000000,0.000000,0.000000,0.000000,0.823119,0.834859,1.055246,0.233462,0.742408,617.000000,504.000000,113.000000,25.000000,0.000000,0.000000,0.000000,0.000000,0.000000;
#CREDIT:;
#DISPLAYBPM:130.000000;
#NOTES:
// measure 0
0000
0000
0000
0000
,  // measure 1
0000
0000
0000
0000
,  // measure 2
0000
0000
0000
0000
,  // measure 3
0000
0000
0000
0000
,  // measure 4
0001
0010
0100
0000
0010
0100
2000
0000
0010
0000
0000
0000
3010
0000
0000
0000
,  // measure 5
1001
0000
0001
0100
1000
0000
1000
0100
0010
0000
0010
0001
1000
0000
1001
0000
,  // measure 6
0101
0000
0100
0010
0000
0010
1000
0000
1010
0000
0010
1000
0100
0000
0010
0000
,  // measure 7
0011
0000
0001
0010
0100
0000
0010
0100
1000
0000
1100
0000
1010
0000
0010
1000
,  // measure 8
0001
0000
0010
0001
0000
0001
0010
0000
0110
0000
0100
0010
1000
0000
1100
0000
,  // measure 9
0110
0000
0100
1000
0010
0000
0010
0001
0100
0000
0100
0001
1000
0100
0010
0000
,  // measure 10
0011
0000
0001
0010
0000
0010
0100
0000
1100
0000
1010
0000
0100
0001
0010
0000
,  // measure 11
0001
0010
0100
0000
0010
0100
1000
0000
1100
0000
1000
0010
0100
0000
0101
0000
,  // measure 12
0110
0000
0000
1010
0000
0000
1001
0000
1100
0000
0000
0000
0110
0000
0000
0000
,  // measure 13
1010
0000
0010
1000
0001
0000
0101
0000
0100
0000
0010
1000
0001
0000
0101
0000
,  // measure 14
0011
0000
0000
0110
0000
0000
1010
0000
1000
0000
0100
0010
0001
0000
0011
0000
,  // measure 15
1010
0000
0010
1000
0000
1000
0100
0000
0110
0000
0010
0001
1000
0000
1001
0000
,  // measure 16
0101
0000
0000
1100
0000
0000
2020
0000
0000
3030
1010
0000
0101
0000
0000
0000
,  // measure 17
1001
0000
0001
0100
0010
0000
0010
0100
1000
0000
0100
1000
0010
0000
1010
0000
,  // measure 18
1100
0000
0100
0010
0000
0010
0001
0000
0011
0000
0001
0010
0100
0000
1100
0000
,  // measure 19
1010
0000
0010
1000
0001
0000
0101
0000
0100
0000
0010
1000
0001
0000
0101
0000
,  // measure 20
0110
0000
0000
1100
0000
0000
0101
0000
0011
0000
0000
0000
0100
0010
1000
0001
,  // measure 21
0020
0000
0000
0100
0000
0000
0130
0010
0100
0010
0001
0100
,  // measure 22
0010
0000
0001
0010
0100
0000
1100
0000
1000
0000
0010
1000
0100
0000
0100
0010
,  // measure 23
0001
0000
0001
0010
0000
0010
0100
0000
2200
0000
3300
0000
1000
0010
0100
0000
,  // measure 24
0101
0000
0001
0100
0010
0000
0010
0100
1000
0000
1000
0010
0100
0000
0101
0000
,  // measure 25
1100
0000
0001
0100
0000
1000
0100
0000
1000
0100
0000
0001
0100
0000
0101
0000
,  // measure 26
0011
0000
0010
0001
0100
0000
1000
0010
0100
0000
0001
0000
0101
0000
0001
0010
,  // measure 27
0100
0000
1000
0100
0000
0100
0001
0000
0202
0000
0303
0000
0001
0010
0100
0000
,  // measure 28
1100
0000
1000
0010
0100
0000
0010
0100
0001
0000
0100
0001
1000
0000
1000
0001
,  // measure 29
0100
0000
0000
0110
0000
0000
1001
0000
0100
0000
0001
0000
0020
1000
0100
0000
,  // measure 30
0130
0000
0000
0000
0110
0000
0000
0000
0000
0000
0100
0001
1000
0000
1001
0000
,  // measure 31
0101
0000
1100
0000
1010
0000
0110
0000
0101
0000
0000
0000
0001
0010
0100
0000
,  // measure 32
1100
0000
0000
0110
0000
0000
0012
0000
0000
0000
0013
0001
0100
0000
0001
0000
,  // measure 33
1001
0000
0101
0000
0110
0000
1010
0000
1100
0000
0000
1010
0000
0000
0101
0000
,  // measure 34
0011
0000
0001
0010
0100
0000
0010
0100
1000
0100
0010
0001
0100
0000
0010
1000
,  // measure 35
0001
0000
0100
0001
0000
1000
0010
0000
0022
0000
0033
0000
0001
0010
0100
0000
,  // measure 36
1100
0000
1000
0010
0100
0000
0010
0100
0001
0000
0101
0000
0011
0000
1010
0000
,  // measure 37
1100
0000
0100
1000
0000
0001
0100
0000
0001
0010
0000
1000
0010
0000
1000
0000
,  // measure 38
1100
0000
0100
1000
0010
0000
0010
0100
0001
0100
0010
0100
0001
0000
0010
0001
,  // measure 39
1000
0000
1000
0100
0000
0100
0010
0000
2020
0000
3030
0000
0010
1000
0100
0000
,  // measure 40
0110
0000
0010
1000
0001
0000
0100
0001
1000
0000
0010
1000
0001
0000
0001
0010
,  // measure 41
0100
0000
0000
1100
0000
0000
0101
0000
0001
0000
0010
1000
0100
0000
1000
0000
,  // measure 42
1010
0000
0010
1000
0001
0000
0100
0001
1000
0100
0010
0001
0100
0000
0010
1000
,  // measure 43
0001
0000
0010
0001
0000
0100
0010
0000
0220
0000
0330
0000
0010
0100
0001
0000
,  // measure 44
0101
0000
0100
0010
1000
0000
0010
0100
0001
0000
1000
0100
0010
0000
0011
0000
,  // measure 45
0101
0000
1000
0100
0000
0010
0001
0000
1000
0010
0000
0100
0001
0000
1001
0000
,  // measure 46
0101
0000
0001
0010
0100
0000
0010
0100
1000
0100
0010
0100
0001
0000
1000
0100
,  // measure 47
0010
0000
0010
0001
0000
0001
0100
0000
2002
0000
3003
0000
0001
0010
0100
0000
,  // measure 48
1100
0000
1000
0010
0100
0000
0010
0100
0001
0000
0100
0001
0010
0000
0011
0000
,  // measure 49
1001
0000
0100
0001
0000
1000
0200
0000
0000
0000
0300
0000
0110
0000
0000
0000
,  // measure 50
1000
0001
1000
0001
1000
0001
1000
0001
1000
0001
1000
0001
1000
0001
1000
0001
,  // measure 51
1000
0001
1000
0001
1000
0001
1000
0001
1000
0001
1000
0000
0001
1000
0100
0000
,  // measure 52
0110
0000
0000
1010
0000
0000
0202
0000
0303
0000
0001
0010
0100
0000
1000
0000
,  // measure 53
1010
0000
0000
0011
0000
0000
2200
0000
3300
0000
1000
0100
0010
0000
0001
0000
,  // measure 54
0101
0000
0000
0110
0000
0000
1010
0000
1001
0000
0000
1100
0000
0000
0110
0000
,  // measure 55
0010
0000
0000
0001
0000
0000
0010
0000
0000
0000
0000
0000
0001
0000
0000
0010
0000
0000
0100
0000
0000
0010
0000
0000
1000
0000
0000
0000
0100
0000
0000
0000
0010
0000
0000
0000
2002
0000
0000
0000
0000
0000
3003
0000
0000
0000
0000
0000
;
