#VERSION:0.83;
#TITLE:La libertad;
#SUBTITLE:;
#ARTIST:Cheryl Horrocks;
#TITLETRANSLIT:;
#SUBTITLETRANSLIT:;
#ARTISTTRANSLIT:;
#GENRE:;
#ORIGIN:;
#CREDIT:;
#BANNER:La libertad.png;
#BACKGROUND:La libertad-bg.png;
#PREVIEWVID:;
#JACKET:La libertad-jacket.png;
#CDIMAGE:;
#DISCIMAGE:;
#LYRICSPATH:;
#CDTITLE:;
#MUSIC:La libertad.ogg;
#OFFSET:0.000000;
#SAMPLESTART:87.550003;
#SAMPLELENGTH:15.000000;
#SELECTABLE:YES;
#DISPLAYBPM:170.000000;
#BPMS:0.000=168.500,
4.000=170.000;
#STOPS:;
#DELAYS:;
#WARPS:;
#TIMESIGNATURES:0.000=4=4;
#TICKCOUNTS:0.000=4;
#COMBOS:0.000=1;
#SPEEDS:0.000=1.000=0.000=0;
#SCROLLS:0.000=1.000;
#FAKES:;
#LABELS:0.000=Song Start;
#BGCHANGES:;
#KEYSOUNDS:;
#ATTACKS:
;

//---------------dance-single - ----------------
#NOTEDATA:;
#CHARTNAME:;
#STEPSTYPE:dance-single;
#DESCRIPTION:;
#CHARTSTYLE:;
#DIFFICULTY:Beginner;
#METER:3;
#RADARVALUES:0.114497,0.237298,0.027958,0.000000,0.000000,86.000000,83.000000,3.000000,0.000000,0.000000,0.000000,0.000000,0.000000,0.000000,0.114497,0.237298,0.027958,0.000000,0.000000,86.000000,83.000000,3.000000,0.000000,0.000000,0.000000,0.000000,0.000000,0.000000;
#CREDIT:;
#DISPLAYBPM:170.000000;
#NOTES:
0000
0000
0000
0000
,
0000
0000
0000
0000
,
0000
0000
0000
0000
,
0000
0000
0000
0000
,
0000
0000
0000
0000
,
0001
0000
0000
0000
,
1000
0000
0000
0000
,
0010
0000
0000
0000
,
0010
0000
0000
0000
,
0000
0000
0000
1000
,
0000
0000
0000
1000
,
0000
0000
0000
1000
,
0000
0000
0000
0000
,
0000
0000
0000
0001
,
0000
0000
0000
0001
,
0000
0000
0000
0001
,
0000
0000
0000
0000
,
0000
0000
1000
0000
,
0000
0000
1000
0000
,
0000
0000
1000
0000
,
0000
0000
0000
0000
,
0000
0000
0001
0000
,
0000
0000
0001
0000
,
0000
0000
0001
0000
,
0000
0000
0000
0000
,
1000
0000
0000
0000
,
1000
0000
0000
0000
,
1000
0000
0000
0000
,
1001
0000
0000
0000
,
0001
0000
0000
0000
,
0001
0000
0000
0000
,
0001
0000
0000
0000
,
1001
0000
0000
0000
,
0000
0000
0010
0000
,
0000
0000
1000
0000
,
0000
0000
0010
0000
,
0000
0000
0001
0000
,
0000
0000
0010
0000
,
0000
0000
1000
0000
,
0000
0000
0001
0000
,
1000
0000
0001
0000
,
0000
0000
1000
1000
,
0000
0000
1000
1000
,
0000
0000
0001
0001
,
0000
0000
0001
0001
,
0000
0000
1000
1000
,
0000
0000
1000
1000
,
0000
0000
0000
0000
,
0000
0000
0100
0000
,
0000
0000
0100
0000
,
0000
0000
0010
0000
,
0000
0000
0010
0000
,
0000
0000
0000
0000
,
1000
1000
1000
0000
,
0000
0000
0000
0000
,
0000
0000
0000
0000
,
0000
0000
0000
0000
,
0001
0001
0001
0001
,
0001
0000
0001
0000
,
1000
0000
1000
0000
,
0001
0000
0001
0000
,
0000
0000
0000
0000
,
1000
0000
0001
0000
,
1000
0000
0001
0000
,
1000
1000
1000
0000
,
0001
0001
0001
0000
,
1000
0000
0010
0000
,
0001
0000
0010
0000
,
0000
0000
0000
0000
,
1000
0000
1000
0000
,
1000
0000
0000
0000
,
0001
0000
0001
0000
,
0001
0000
0000
1001
,
0000
0000
0000
0000
;

//---------------dance-single - ----------------
#NOTEDATA:;
#CHARTNAME:;
#STEPSTYPE:dance-single;
#DESCRIPTION:;
#CHARTSTYLE:;
#DIFFICULTY:Easy;
#METER:5;
#RADARVALUES:0.183727,0.275857,0.018639,0.018639,0.000000,138.000000,136.000000,2.000000,2.000000,0.000000,0.000000,0.000000,0.000000,0.000000,0.183727,0.275857,0.018639,0.018639,0.000000,138.000000,136.000000,2.000000,2.000000,0.000000,0.000000,0.000000,0.000000,0.000000;
#CREDIT:;
#DISPLAYBPM:170.000000;
#NOTES:
0000
0000
0000
0000
,
0000
0000
0000
0000
,
0000
0000
0000
0000
,
0000
0000
0000
0000
,
0000
0000
0000
0000
,
0001
0000
1000
0000
,
0001
0000
0000
0000
,
0001
1000
0001
0000
,
1000
0000
0000
0000
,
0000
0001
0000
0010
,
0000
0001
0000
0010
,
0000
0001
0000
0010
,
0000
1000
1000
0000
,
0000
1000
0000
0010
,
0000
1000
0000
0010
,
0000
0010
0000
0010
,
0000
1001
0000
0000
,
0000
0100
0000
0000
,
0000
0100
0000
0000
,
0000
0100
0000
0000
,
0000
0010
0000
0100
,
0000
0100
0000
0000
,
0000
0100
0000
0000
,
0000
0100
0000
0000
,
0000
0010
0000
0100
,
0000
1000
0000
1000
,
0000
0001
0000
0001
,
0000
1000
0000
1000
,
1000
1000
0001
0001
,
0000
1000
0000
1000
,
0000
0001
0000
0001
,
0000
1000
0000
1000
,
0001
1000
0001
0000
,
1000
0000
1000
0000
,
0010
0000
0000
0000
,
1000
0000
1000
0000
,
0100
0000
0000
0000
,
0001
0000
0001
0000
,
0010
0000
0000
0000
,
0100
0000
0000
0000
,
0010
0010
0010
0000
,
0000
0000
1000
1000
,
0000
0000
0010
0010
,
0000
0000
0100
0100
,
0000
0000
0001
0001
,
0000
0000
1000
1000
,
0000
0000
0010
0010
,
0010
0000
0010
0000
,
1000
0001
1000
0000
,
1000
0001
1000
0000
,
0001
0000
0100
0000
,
1000
0000
0100
0000
,
0001
0000
1000
0000
,
0010
0100
0010
0000
,
0000
0000
1000
0000
,
0000
0000
0001
0000
,
0000
0000
1000
0000
,
0001
0010
0100
1000
,
1000
0001
0000
0000
,
1000
0001
0000
0000
,
1000
0001
0000
0000
,
0100
0100
0100
0000
,
0001
0000
0010
0000
,
1000
0000
0010
0000
,
0001
0001
0001
0001
,
1000
1000
1000
0000
,
0010
0000
1000
0000
,
0001
0000
0100
0000
,
0000
0000
0000
0000
,
1000
0100
1000
0000
,
1000
0000
0100
0000
,
0001
0100
0001
0100
,
0001
0000
1000
2002
,
0000
0000
0000
0000
,
3003
0000
0000
0000
,
0000
0000
0000
0000
;

//---------------dance-single - ----------------
#NOTEDATA:;
#CHARTNAME:;
#STEPSTYPE:dance-single;
#DESCRIPTION:;
#CHARTSTYLE:;
#DIFFICULTY:Medium;
#METER:9;
#RADARVALUES:0.387425,0.448268,0.177070,0.018639,0.000000,291.000000,272.000000,19.000000,2.000000,0.000000,0.000000,0.000000,0.000000,0.000000,0.387425,0.448268,0.177070,0.018639,0.000000,291.000000,272.000000,19.000000,2.000000,0.000000,0.000000,0.000000,0.000000,0.000000;
#CREDIT:;
#DISPLAYBPM:170.000000;
#NOTES:
0000
0000
0000
0000
,
0000
0000
0000
0000
,
0000
0000
0000
0000
,
0000
0000
0000
0000
,
0000
0000
0000
0000
,
1001
0000
0110
0000
,
0001
0000
1000
0000
,
0100
0000
0010
0000
0001
0100
0001
0000
,
1000
0100
1000
0000
0100
0000
0100
0000
,
0000
0001
0000
1000
0000
0001
0000
0010
,
0000
0001
0000
1000
0000
0001
0000
0100
,
0000
0001
0000
0100
0000
0001
0000
0010
,
0100
1000
0010
0010
,
0000
1000
0000
0001
0000
1000
0000
0010
,
0000
1000
0000
0001
0000
1000
0000
0100
,
0000
1000
0010
0000
0000
0001
0010
0000
,
1000
0110
1001
0000
,
1000
0000
0010
0000
0100
0001
1000
0000
,
0001
0000
0010
0000
0100
1000
0001
0000
,
1000
0000
0010
0000
0100
0001
1000
0000
,
0010
0010
0100
0000
,
1000
0000
0001
0000
0100
0001
1000
0000
,
0001
0000
0010
0000
0100
1000
0010
0000
,
1000
0000
0001
0000
0100
0001
1000
0000
,
0010
1000
0100
0000
,
0001
0000
0100
1000
0000
0000
0001
0000
,
1000
0000
0100
0001
0000
0000
1000
0000
,
0001
0000
0100
1000
0000
0000
0001
0010
,
0001
1000
0100
1100
,
1000
0000
0100
0001
0000
0000
1000
0000
,
0001
0000
0100
1000
0000
0000
0001
0000
,
1000
0000
0100
0001
0000
0000
1000
0100
,
0010
0001
0100
0110
,
1000
0000
1100
0000
,
1100
0000
0010
0010
,
0001
0000
0101
0000
,
0101
0001
1000
1000
,
0010
0000
1100
0000
,
1100
0000
0010
0010
,
0001
0000
0001
0000
1000
0001
1000
0000
,
0010
0100
0010
0000
,
1000
0010
0100
0010
,
1000
0010
0100
0001
,
0010
0000
0100
0000
1000
0100
1000
0000
,
0010
0100
0100
0000
,
0001
0010
0100
0010
,
0001
0010
0100
1000
,
1001
0000
0110
0000
,
0001
0100
0101
0000
,
1000
0100
1100
0000
,
0001
0100
0000
0000
0100
0010
0000
0000
,
1000
0100
0000
0000
0100
0010
0000
0000
,
1000
0001
0100
0100
,
0010
0000
1000
0001
0010
0000
0000
0000
,
0000
1000
0000
1000
0000
1000
0000
0100
,
0000
0001
0000
0100
0000
0001
0000
0100
,
0000
0001
0000
1000
0000
0001
0000
0010
,
0001
0101
0010
1100
,
0010
0000
0100
0000
0001
0000
0010
0100
,
0010
0000
0100
0000
1000
0000
0010
0100
,
0010
0000
1000
0000
0001
0000
0010
0100
,
0010
0010
0010
0000
,
1000
1000
0100
0000
,
0001
0001
0100
0000
,
0001
0100
0001
0000
1000
0100
1000
0000
,
0010
0100
0010
0000
0010
0100
0010
0000
,
0001
1000
0000
0010
0000
0100
0000
0001
,
1000
0001
0000
0010
0000
0010
0000
0100
,
1000
0000
0100
0000
,
0001
0100
0001
0100
0001
0100
0001
0000
,
0010
0000
0100
0000
,
1000
0100
1000
0100
1000
0100
1000
0000
,
0001
0000
0100
0010
0100
0000
2002
0000
,
0000
0000
0000
0000
,
3003
0000
0000
0000
,
0000
0000
0000
0000
;

//---------------dance-single - ----------------
#NOTEDATA:;
#CHARTNAME:;
#STEPSTYPE:dance-single;
#DESCRIPTION:;
#CHARTSTYLE:;
#DIFFICULTY:Hard;
#METER:12;
#RADARVALUES:0.533874,0.655160,0.158431,0.018639,0.256286,401.000000,384.000000,17.000000,2.000000,0.000000,0.000000,0.000000,0.000000,0.000000,0.533874,0.655160,0.158431,0.018639,0.256286,401.000000,384.000000,17.000000,2.000000,0.000000,0.000000,0.000000,0.000000,0.000000;
#CREDIT:;
#DISPLAYBPM:170.000000;
#NOTES:
0000
0000
0000
0000
,
0000
0000
0000
0000
,
0000
0000
0000
0000
,
0000
0000
0000
0000
,
0000
0000
0000
0000
,
1001
0000
0110
0000
,
1010
0000
0101
0000
,
1000
0000
0000
1000
0100
0000
0000
0100
0001
0000
0000
0001
0100
0000
0000
0100
,
1000
0000
0000
1000
0010
0000
0000
0000
1001
0000
0000
0000
1001
0000
0000
0000
,
0000
0100
0001
0000
0010
0001
0100
0010
,
0000
0100
0001
0000
0010
0001
1000
0010
,
0000
0100
0001
0000
0010
0000
0100
0010
,
0100
1000
0101
0011
,
0000
0100
1000
0000
0010
1000
0100
0010
,
0000
0100
1000
0000
0010
1000
0001
0010
,
0000
0100
0010
0000
0010
0001
0000
1000
,
1100
0010
0101
0000
,
1000
0000
0000
1000
0100
0000
0000
0100
0010
0000
0000
0010
0100
0000
0000
0100
,
0001
0000
0000
0001
0100
0000
0000
0100
0010
0000
0000
0010
0100
0000
0000
0100
,
1000
0000
0000
1000
0010
0000
0000
0010
0100
0000
0000
0100
0010
0000
0000
0010
,
1000
0001
1000
1000
,
0001
0000
0000
0001
0100
0000
0000
0100
0010
0000
0000
0010
0100
0000
0000
0100
,
1000
0000
0000
1000
0100
0000
0000
0100
0010
0000
0000
0010
0100
0000
0000
0100
,
0001
0000
0000
0001
0010
0000
0000
0010
0100
0000
0000
0100
0010
0000
0000
0010
,
0001
0000
1000
0000
0001
0100
0001
0000
,
0010
0000
0100
1000
0000
0001
0000
0100
,
0010
0000
0100
0001
0000
1000
0000
0100
,
0010
0000
0100
1000
0000
0001
0000
0010
,
0100
0000
0000
0000
1000
0000
0000
0000
0010
0000
0000
0100
0010
0000
1000
0000
,
0010
0000
0100
0001
0000
1000
0000
0100
,
0010
0000
0100
1000
0000
0001
0000
0100
,
0010
0000
0100
0001
0000
1000
0000
0010
,
0100
0000
0000
0000
1000
0000
0000
0000
0001
0000
0000
0010
0100
0000
1000
0000
,
0001
0000
0000
0100
0010
0000
0000
0100
,
0010
0000
1000
0000
0001
0010
0100
0000
,
1000
0000
0000
0100
0010
0000
0000
0100
,
0010
1000
0001
0010
1000
0010
0001
0000
,
0010
0000
0000
0100
0010
0000
0000
0100
,
0010
0000
0001
0000
1000
0010
0100
0000
,
0010
1000
0001
0010
1000
0010
0001
0100
,
0001
0100
0010
0000
,
1000
0010
0001
0100
,
0010
1000
0100
0001
,
0100
1000
0100
0000
0001
0100
0001
0000
,
1000
0001
0100
0000
,
0001
0010
1000
0100
,
0010
0001
0100
1000
,
0011
0100
1010
0100
,
0001
0000
0000
0001
0010
0000
0000
0010
0100
0000
0000
0100
1000
0000
0010
0000
,
1000
0000
0000
1000
0010
0000
0000
0010
0100
0000
0000
0100
0001
0000
0010
0000
,
0100
1000
0000
0010
0100
0001
0000
0010
,
0100
1000
0000
0010
0100
0001
0000
0010
,
0100
1000
0001
0100
,
0010
0000
0000
0000
1000
0001
1000
0001
1000
0000
0000
0000
0000
0000
0000
0000
,
0000
0100
0000
0010
0000
1000
0000
0001
,
0000
0100
0000
0010
0000
1000
0000
1000
,
0000
0001
0000
0010
0000
0100
0000
0010
,
0001
0000
0000
0001
0100
0000
0000
0100
0010
0000
0000
0010
1000
0000
0100
0000
,
1000
0000
0010
0100
0001
0000
0010
0100
,
1000
0000
0010
0100
0010
0000
0010
0100
,
0001
0000
0010
0100
0001
0000
0010
0100
,
1000
1010
0101
0000
,
1000
0000
0100
0000
0010
0000
0001
0000
1000
0000
0000
1000
0100
0000
0010
0000
,
0001
0000
0100
0000
0010
0000
1000
0000
0001
0000
0000
0001
1000
0000
0100
0000
,
0010
0001
0100
0000
1000
0100
1000
0000
,
0010
1000
0010
0100
0001
1000
0100
0010
,
0001
0010
0000
0000
0010
0100
0000
0000
0100
1000
0000
0000
0001
0000
0100
0000
,
0010
1000
0000
0000
1000
0001
0000
0000
0001
0100
0000
0000
0100
0000
0010
0000
,
1000
0000
0001
1000
0100
0000
0000
0000
,
0001
0000
0000
0100
0010
0000
1000
0000
0100
0000
0001
0000
0100
0000
1000
0000
,
0001
0000
0000
0100
0010
0000
1000
0000
0100
0000
0000
0000
0011
0000
0000
0000
,
1100
0000
0000
0100
0010
0000
0001
0000
0100
0000
1000
0000
0100
0000
0001
0000
,
1000
0000
0000
0000
0010
1000
0100
0010
0001
0000
0000
0000
2200
0000
0000
0000
,
0000
0000
0000
0000
,
3300
0000
0000
0000
,
0000
0000
0000
0000
;

//---------------dance-single - ----------------
#NOTEDATA:;
#CHARTNAME:;
#STEPSTYPE:dance-single;
#DESCRIPTION:;
#CHARTSTYLE:;
#DIFFICULTY:Challenge;
#METER:14;
#RADARVALUES:0.609761,0.724124,0.149112,0.018639,0.410058,458.000000,442.000000,16.000000,2.000000,0.000000,0.000000,0.000000,0.000000,0.000000,0.609761,0.724124,0.149112,0.018639,0.410058,458.000000,442.000000,16.000000,2.000000,0.000000,0.000000,0.000000,0.000000,0.000000;
#CREDIT:;
#DISPLAYBPM:170.000000;
#NOTES:
0000
0000
0000
0000
,
0000
0000
0000
0000
,
0000
0000
0000
0000
,
0000
0000
0000
0000
,
0000
0000
0000
0000
,
1001
0000
0110
0000
,
0011
0000
1100
0000
,
0001
0000
0000
0001
0100
0000
0000
0100
1000
0000
0000
1000
0100
0000
0000
0100
,
0001
0000
0000
0001
0010
0000
0000
0000
1001
0000
0000
0000
1001
0000
0000
0000
,
0010
0000
1000
0100
1000
0000
1000
0100
1000
0000
0001
0000
1000
0000
0100
0000
,
0010
0000
0001
0100
0001
0000
0001
0100
0001
0000
1000
0000
0010
0000
0100
0000
,
0010
0000
1000
0100
1000
0000
1000
0100
1000
0000
0001
0000
1000
0000
0010
0000
,
1000
0001
0100
0100
,
0010
0000
1000
0100
1000
0000
1000
0100
1000
0000
0001
0000
1000
0000
0100
0000
,
0010
0000
0001
0100
0001
0000
0001
0100
0001
0000
1000
0000
0010
0000
0100
0000
,
0001
1000
0000
1000
0001
0010
0100
0000
,
1010
0100
0011
0000
,
0001
0000
0000
0001
0100
0000
0000
0010
1000
0000
0000
1000
0001
0000
0000
0001
,
1000
0000
0000
1000
0100
0000
0000
0010
0001
0000
0000
0001
1000
0000
0000
1000
,
0001
0000
0000
0001
0010
0000
0000
0100
1000
0000
0000
1000
0001
0000
0000
0001
,
0100
0001
1000
1000
,
0001
0000
0000
0001
0100
0000
0000
0100
1000
0000
0000
1000
0001
0000
0000
0001
,
1000
0000
0000
1000
0100
0000
0000
0100
0001
0000
0000
0001
1000
0000
0000
0100
,
0001
0000
0000
0001
0100
0000
0000
0100
1000
0000
0000
1000
0001
0000
0000
0001
,
0100
0000
1000
0000
0001
0100
0001
0000
,
0010
0000
0000
0000
0100
0000
0001
0100
0010
0000
0000
0000
1000
0000
0100
0000
,
0010
0000
0000
0000
0100
0000
1000
0100
0010
0000
0000
0000
0001
0000
0100
0000
,
0001
0000
0000
0000
0100
0000
0001
0100
0010
0000
0000
0000
1000
0000
0100
0000
,
0001
1000
0010
0100
,
0001
0000
0000
0000
0100
0000
0001
0100
0010
0000
0000
0000
1000
0000
0100
0000
,
1000
0000
0000
0000
0100
0000
1000
0100
0010
0000
0000
0000
0001
0000
0100
0000
,
0001
0000
0000
0000
0100
0000
0001
0100
0010
0000
0000
0000
1000
0000
0000
0000
,
0100
0000
0000
0000
1000
0000
0000
0000
0010
0000
1000
0010
0100
0001
0010
0100
,
1000
0000
0000
0000
0000
0000
0001
0100
1000
0000
0000
0000
0000
0000
0001
0100
,
1000
0000
0010
0000
1000
0100
0001
0000
,
1000
0000
0000
0000
0000
0000
0001
0100
1000
0000
0000
0000
0000
0000
0001
0100
,
1000
0100
0010
1000
0010
0100
0001
0000
,
1001
0000
0000
0000
0000
0000
1000
0100
0001
0000
0000
0000
0000
0000
1000
0100
,
0001
0000
0010
0000
0001
0100
1000
0000
,
1000
0100
0010
1000
0010
0100
0001
0010
,
0001
1000
0010
0000
,
1000
0010
0001
0100
,
0010
1000
0100
0001
,
0100
1000
0100
0000
0001
0100
0001
0000
,
1000
0001
0100
1000
,
0001
0010
1000
0100
,
0010
0001
0100
1000
,
0101
0010
1100
0010
,
0001
0000
0000
0001
0010
0000
0000
0010
0100
0000
0000
0100
1000
0100
0010
0000
,
0001
0000
0000
0001
0100
0000
0000
0100
0010
0000
0000
0010
1000
0010
0100
0000
,
0001
1000
0000
0001
0010
1000
0000
0001
,
0100
1000
0000
0001
0010
1000
0000
0001
,
0100
1000
0100
0001
,
0010
0000
0000
0000
1000
0100
0010
0001
0010
0000
0000
0000
0000
0000
0000
0000
,
0000
0100
0000
0010
0000
1000
0000
0001
,
0000
0100
0000
0010
0000
1000
0000
1000
,
0000
0001
0000
0010
0000
0100
0000
0010
,
0001
0000
0000
0001
0100
0000
0000
0100
0010
0000
0000
0010
1000
0000
0100
0000
,
1000
0000
0000
0001
0010
0000
0100
0000
0010
0000
0000
0001
0100
0000
0010
0000
,
1000
0000
0000
0001
0010
0000
1000
0000
0010
0000
0000
0001
0100
0000
0010
0000
,
1000
0000
0000
0001
0010
0000
0100
0000
1000
0000
0000
0001
0100
0000
0010
0000
,
0100
1010
0101
0000
,
1000
0000
0001
0000
0010
0000
0001
0000
1000
0010
0000
1000
0100
0000
0010
0000
,
0001
0000
0100
0000
0010
0000
0100
0000
0001
0010
0000
0001
0100
0000
0010
0000
,
1000
0100
0001
0000
1000
0010
0001
0000
,
0010
1000
0001
0100
0010
1000
0100
0010
,
0001
0000
1000
0010
1000
0000
0001
0010
0001
0000
1000
0000
0010
0000
0100
0000
,
0001
0000
1000
0100
1000
0000
0001
0100
0001
0000
0010
0000
0100
0000
0010
0000
,
0001
0000
1000
0001
0100
0000
0000
0000
,
0001
0000
0000
0010
0100
0000
1000
0000
0010
0100
0001
0000
0010
0000
0100
0000
,
1000
0000
0010
0100
0001
0000
1000
0000
0100
0000
0000
0000
0011
0000
0000
0000
,
1100
0000
0000
0010
0100
0000
0001
0000
0010
0100
1000
0000
0010
0000
0100
0000
,
0001
0000
0000
0000
0100
0010
1000
0001
0010
0000
0000
0000
2200
0000
0000
0000
,
0000
0000
0000
0000
,
3300
0000
0000
0000
,
0000
0000
0000
0000
;

//---------------dance-double - ----------------
#NOTEDATA:;
#CHARTNAME:;
#STEPSTYPE:dance-double;
#DESCRIPTION:;
#CHARTSTYLE:;
#DIFFICULTY:Easy;
#METER:6;
#RADARVALUES:0.242307,0.310339,0.158431,0.065236,0.000000,182.000000,165.000000,17.000000,7.000000,0.000000,0.000000,0.000000,0.000000,0.000000,0.242307,0.310339,0.158431,0.065236,0.000000,182.000000,165.000000,17.000000,7.000000,0.000000,0.000000,0.000000,0.000000,0.000000;
#CREDIT:;
#DISPLAYBPM:170.000000;
#NOTES:
00000000
00000000
00000000
00000000
,
00000000
00000000
00000000
00000000
,
00000000
00000000
00000000
00000000
,
00000000
00000000
00000000
00000000
,
00000000
00000000
00000000
00000000
,
10010000
00000000
01100000
00000000
,
10000000
00000000
01000000
00000000
,
00010000
00100000
00000000
00001000
,
00010000
00000000
00000100
00000000
,
00000000
00000010
00000100
00000010
,
00000000
00000010
00010000
00000010
,
00000000
00000010
00001000
00000010
,
00000000
00001000
00000000
00011000
,
00000000
00100000
01000000
00100000
,
00000000
00100000
00001000
00100000
,
00000000
00001000
00000000
01000000
,
00000000
10010000
00000000
00000000
,
00000000
00100000
00000000
00010000
,
00000000
00000010
00000000
00000001
,
00000000
00000010
00000000
00001000
,
00000000
00010000
00000000
00000000
,
00000000
00100000
00100000
00010000
,
00000000
00000010
00000010
00000001
,
00000000
00000010
00000010
00001000
,
00000000
00010000
00000000
00000000
,
00000000
00000010
00001000
00001000
,
00000000
00000010
00001000
00001000
,
00000000
00000010
00010000
00001000
,
00010000
00001000
00010000
00000000
,
00000000
00100000
00010000
00010000
,
00000000
00100000
00010000
00010000
,
00000000
00100000
00001000
00010000
,
00010000
00100000
01000000
00000000
,
10010000
00000000
00011000
00000000
,
00000010
00000000
00000000
00000000
,
00001001
00000000
00011000
00000000
,
01000000
00000000
00000000
00000000
,
10010000
00000000
00011000
00000000
,
00000010
00000000
00000000
00000000
,
00001000
00001000
00010000
00010000
,
00001000
00001000
00011000
00000000
,
00000000
00000000
00010000
00020000
,
00000000
00030000
00100000
00200000
,
00000000
00300000
00001000
00020000
,
00000000
00030000
00010000
00002000
,
00000000
00003000
00001000
00002000
,
00000000
00003000
00000010
00000010
,
00000010
00000000
00000100
00000000
,
00000011
00000000
00001100
00000000
,
00110000
00000000
11000000
00000000
,
00100000
00000000
01000000
00000000
,
00100000
00000000
00010000
00000000
,
00001000
00010000
00001000
00010000
,
00001000
00000000
00011000
00000000
,
00000000
00000000
00000010
00000000
,
00000000
00000000
00000010
00000000
,
00000000
00000000
00001000
00000000
,
00010000
00000100
00000010
00000001
,
00000100
00000000
00001000
00000000
,
01000000
00000000
00010000
00000000
,
00001000
00000000
00010000
00000000
,
00100000
01000000
01000000
00000000
,
00001000
00010000
00100000
00000000
,
00001000
00010000
01000000
00000000
,
10000000
00010000
10000000
00100000
,
01000000
00100000
01000000
00000000
,
00010000
00010000
00100000
00000000
,
00001000
00001000
00000100
00000000
,
00010000
00000000
00000000
00000000
,
00100000
00001000
00010000
00001000
,
00100000
00001000
00010000
00000000
,
00000010
00010000
00001000
00010000
,
00000010
00001000
00000001
00002002
,
00000000
00000000
00000000
00000000
,
00003003
00000000
00000000
00000000
,
00000000
00000000
00000000
00000000
;

//---------------dance-double - ----------------
#NOTEDATA:;
#CHARTNAME:;
#STEPSTYPE:dance-double;
#DESCRIPTION:;
#CHARTSTYLE:;
#DIFFICULTY:Medium;
#METER:9;
#RADARVALUES:0.403401,0.482750,0.223668,0.093195,0.000000,303.000000,279.000000,24.000000,10.000000,0.000000,0.000000,0.000000,0.000000,0.000000,0.403401,0.482750,0.223668,0.093195,0.000000,303.000000,279.000000,24.000000,10.000000,0.000000,0.000000,0.000000,0.000000,0.000000;
#CREDIT:;
#DISPLAYBPM:170.000000;
#NOTES:
00000000
00000000
00000000
00000000
,
00000000
00000000
00000000
00000000
,
00000000
00000000
00000000
00000000
,
00000000
00000000
00000000
00000000
,
00000000
00000000
00000000
00000000
,
00000011
00000000
00000100
00000000
,
00101000
00000000
01000000
00000000
,
10000000
00000000
00100000
00000000
01000000
00001000
00010000
00000000
,
00001000
00100000
00010000
00000000
10000000
00000000
01000000
00000000
,
00010000
01000000
00100000
01000000
,
00010000
01000000
00001000
01000000
,
00010000
01000000
00100000
10000000
,
01000000
00100000
00010000
00000000
,
00001000
00000100
00000010
00000100
,
00001000
00000100
00010000
00000100
,
00001000
00000010
00001000
00000000
00000001
00000100
00000001
00000000
,
00001100
00010000
00001010
00000000
,
00000001
00000000
00000100
00000000
00001000
00010000
01000000
00000000
,
10000000
00000000
01000000
00000000
00010000
00001000
00000100
00000000
,
00000001
00000000
00000100
00000000
00001000
00010000
01000000
00000000
,
10000000
00010000
00100000
00000000
,
10000000
00000000
00100000
00000000
00010000
00001000
00000010
00000000
,
00000001
00000000
00000010
00000000
00001000
00010000
00100000
00000000
,
10000000
00000000
00100000
00000000
00010000
00001000
00000010
00000000
,
00000001
00000100
00000010
00000000
,
00001000
00000000
00000100
00000000
00010000
00001000
00100000
00000000
,
00010000
00000000
01000000
00000000
00001000
00010000
00000010
00000000
,
00001000
00000000
00000100
00000000
00010000
00001000
01000000
00000000
,
00010000
01000000
01000000
00000000
,
00010000
00000000
01000000
00000000
00001000
00010000
00000010
00000000
,
00001000
00000000
00000100
00000000
00010000
00001000
00100000
00000000
,
00010000
00000000
01000000
00000000
00001000
00010000
00000100
00010000
,
00001000
00010000
00000010
00000000
,
00001000
00000000
00000110
00000000
,
00000110
00000000
00001000
00010000
,
00010000
00000000
01100000
00000000
,
01100000
00000000
00010000
00000010
,
00001001
00000000
00000110
00000000
,
00000110
00000000
00001000
00010000
,
00001000
00000000
00100000
00000000
01000000
10000000
01000000
00000000
,
00100000
00010000
00100000
00000000
,
02000000
13000000
00200000
01300000
,
00002000
00103000
00002000
00013000
,
00000010
00000000
00001000
00000000
00000001
00000100
00000010
00000000
,
00001000
00000001
00001000
00000000
,
00000200
00000301
00000020
00000130
,
00020000
00030010
00020000
00031000
,
00101000
00010000
01001000
00010000
,
00100000
00010000
00011000
00001000
,
00000010
00001000
00011000
00010000
,
01010000
00000000
01100000
00000000
,
10010000
00000000
01100000
00000000
,
00010000
00001000
00000010
00000001
,
00000100
00000000
00000010
00001000
00000100
00000000
00000000
00000000
,
00000000
00010000
00000000
00000010
00000000
00001000
00000000
00000100
,
00000000
00001000
00000000
00100000
00000000
00010000
00000000
00001000
,
00000000
00000100
00000000
00001000
00000000
00010000
00000000
00001000
,
00000100
00001100
00011000
00110000
,
10000000
00000000
00010000
00000000
00100000
00000000
00001000
00010000
,
00000100
00000000
00001000
00000000
00000010
00000000
00010000
00001000
,
00100000
00000000
00010000
00000000
00100000
00000000
00001000
00010000
,
00000010
00001001
00000100
00000000
,
00000010
00001000
00010000
00001000
,
00100000
00010000
01000000
00001000
,
01000000
00000000
00100000
00000000
00010000
00001000
00000100
00000000
,
00000010
00001000
00000100
00000000
00000100
00001000
00000010
00000000
,
00010000
00001000
00100000
00000000
00001000
00010000
00000010
00000000
,
00010000
00001000
01000000
00000000
00010000
10000000
01000000
00000000
,
00100000
00000000
00000000
00000000
,
00010000
01000000
00010000
00100000
00001000
01000000
00001000
00000000
,
00100000
00001000
00010000
00000010
,
00001000
00000100
00001000
00000010
00010000
00000100
00010000
00000000
,
00000010
00000000
00000100
00001000
00010000
00000000
00022000
00000000
,
00000000
00000000
00000000
00000000
,
00033000
00000000
00000000
00000000
,
00000000
00000000
00000000
00000000
;

//---------------dance-double - ----------------
#NOTEDATA:;
#CHARTNAME:;
#STEPSTYPE:dance-double;
#DESCRIPTION:;
#CHARTSTYLE:;
#DIFFICULTY:Hard;
#METER:12;
#RADARVALUES:0.520560,0.586196,0.139792,0.167751,0.293564,391.000000,376.000000,15.000000,18.000000,0.000000,0.000000,0.000000,0.000000,0.000000,0.520560,0.586196,0.139792,0.167751,0.293564,391.000000,376.000000,15.000000,18.000000,0.000000,0.000000,0.000000,0.000000,0.000000;
#CREDIT:;
#DISPLAYBPM:170.000000;
#NOTES:
00000000
00000000
00000000
00000000
,
00000000
00000000
00000000
00000000
,
00000000
00000000
00000000
00000000
,
00000000
00000000
00000000
00000000
,
00000000
00000000
00000000
00000000
,
00000011
00000000
00010100
00000000
,
00101000
00000000
11000000
00000000
,
00010000
00000000
00000000
00010000
01000000
00000000
00000000
01000000
00001000
00000000
00000000
00001000
00100000
00000000
00000000
00100000
,
01000000
00000000
00000000
01000000
10000000
00000000
00000000
00000000
01100000
00000000
00000000
00000000
01010000
00000000
00000000
00000000
,
10000000
00010000
01000000
00000000
00001000
00100000
00010000
00000000
,
10000000
00010000
00100000
00000000
00001000
00100000
00010000
00000000
,
00001000
00010000
01000000
00000000
00001000
00100000
00010000
00000000
,
01000000
00100000
00010000
00001000
00000100
00000001
00000010
00000000
,
00000001
00001000
00000100
00000000
00010000
00000010
00001000
00000000
,
00000001
00001000
00000010
00000000
00010000
00000010
00001000
00000000
,
00000001
00000100
00001000
00000000
00010000
00001000
00000010
00000000
,
00001000
00110000
01010000
00000000
,
00100000
00000000
00000000
00100000
10000000
00000000
00000000
10000000
01000000
00000000
00000000
01000000
00010000
00000000
00000000
00010000
,
00000010
00000000
00000000
00000010
00001000
00000000
00000000
00001000
00000100
00000000
00000000
00000100
00000001
00000000
00000000
00000001
,
00000100
00000000
00000000
00000100
00001000
00000000
00000000
00001000
00000010
00000000
00000000
00000010
00000001
00000000
00000000
00000001
,
00000010
00000100
00010010
00000100
,
00000010
00000000
00000000
00000010
00000001
00000000
00000000
00000001
00000100
00000000
00000000
00000100
00001000
00000000
00000000
00001000
,
00100000
00000000
00000000
00100000
00010000
00000000
00000000
00010000
01000000
00000000
00000000
01000000
10000000
00000000
00000000
10000000
,
01000000
00000000
00000000
01000000
00010000
00000000
00000000
00010000
00100000
00000000
00000000
00100000
10000000
00000000
00000000
10000000
,
00100000
00000000
01000000
00000000
00100000
00001000
01000000
00000000
,
00001000
00000000
00010000
00100000
00020000
00000000
00030100
00000000
,
00010000
00000000
00001000
00000010
00002000
00000000
01003000
00000000
,
00001000
00000000
00010000
00100000
00020000
00000000
00030100
00001000
,
00000010
00001000
00000100
00000100
,
00010000
00000000
00001000
00000010
00002000
00000000
01003000
00000000
,
00001000
00000000
00010000
00100000
00020000
00000000
00030100
00000000
,
00010000
00000000
00001000
00000010
00002000
00000000
01003000
00100000
,
10000000
00000000
01000000
00000000
00010000
00001000
00010000
00000000
,
00100000
00000000
00000000
00001000
00000010
00000000
00000000
00010000
,
00100000
00000000
01000000
00000000
00010000
00100000
01000000
00000000
,
00100000
00000000
00000000
00001000
00000010
00000000
00000000
00001000
,
00010000
00000010
00001000
00000001
00000100
00000010
00000001
00000000
,
00000010
00000000
00000000
00010000
00100000
00000000
00000000
00001000
,
00000010
00000000
00000100
00000000
00001000
00000010
00000100
00000000
,
00001000
00100000
00010000
10000000
01000000
00100000
10000000
00100000
,
00010000
01000000
00100000
00000000
,
00002000
00010000
00003020
00000100
,
00000032
00001000
00000203
00001300
,
00100000
00010000
01000000
00000000
00001000
00100000
00010000
00000000
,
00000010
00000100
00010000
00001000
,
00020000
00001000
00230000
01000000
,
20300000
00010000
32000000
03010000
,
00101000
01000000
10100000
01000000
,
00010000
00000000
00000000
00010000
01000000
00000000
00000000
01000000
00010000
00000000
00000000
00010000
00100000
00000000
00000000
00100000
,
00001000
00000000
00000000
00001000
00000100
00000000
00000000
00000100
00000001
00000000
00000000
00000001
00000010
00000000
00000000
00000010
,
00001000
00010000
00000000
00100000
00010000
00001000
00000000
00000100
,
00001000
00010000
00000000
00100000
00010000
00001000
00000000
00000100
,
00001000
00010000
01000000
10000000
,
00100000
01000000
10010000
00000000
,
00000000
01000000
00000000
00020000
00000000
00001000
00000000
00030010
,
00000000
00000100
00000000
00002000
00000000
00010000
00000000
00103000
,
00000000
00010000
00000000
01000000
00000000
10000000
00000000
01000000
,
10000000
00010000
00001000
00000001
,
00000010
00000000
00000000
00000010
00000100
00000000
00000000
00000100
00010000
00000000
00000000
00010000
00001000
00000000
00000000
00001000
,
01000000
00000000
00000000
01000000
00100000
00000000
00000000
00100000
00010000
00000000
00000000
00010000
00001000
00000000
00000000
00001000
,
00000100
00000000
00000000
00000100
00000010
00000000
00000000
00000010
00010000
00000000
00000000
00010000
00001000
00000000
00000000
00001000
,
00000010
00010100
00001100
00000000
,
00000001
00000100
00000010
00001000
,
00010000
00100000
01000000
10000000
,
00100000
00010000
00001000
00000000
00000010
00001000
00010000
00000000
,
01000000
00000000
00000000
01000000
10000000
00000000
00000000
10000000
00100000
00000000
00000000
00100000
00010000
00000000
00000000
00010000
,
00100000
00000000
00000000
00100000
01000000
00000000
00000000
01000000
00001000
00000000
00000000
00001000
00010000
00000000
00000000
00010000
,
00000100
00000000
00000000
00000100
00000001
00000000
00000000
00000001
00000100
00000000
00000000
00000100
00001000
00000000
00000000
00001000
,
00000010
00000000
00001000
00000001
00000100
00000000
00000000
00000000
,
00000010
00000000
00000000
00001000
00000100
00000000
00000010
00000000
00001000
00000000
00010000
00000000
00000010
00000000
00000100
00000000
,
00001000
00000000
00100000
01000000
10000000
00000000
00000000
00000000
,
00100000
00000000
00000000
00010000
01000000
00000000
00100000
00000000
00010000
00000000
00001000
00000000
00100000
00000000
01000000
00000000
,
00010000
00000000
00000100
00001000
00000010
00000000
00000202
00000000
,
00000000
00000000
00000000
00000000
,
00000303
00000000
00000000
00000000
,
00000000
00000000
00000000
00000000
;

//---------------dance-double - ----------------
#NOTEDATA:;
#CHARTNAME:;
#STEPSTYPE:dance-double;
#DESCRIPTION:;
#CHARTSTYLE:;
#DIFFICULTY:Challenge;
#METER:14;
#RADARVALUES:0.577808,0.689642,0.177070,0.167751,0.414717,434.000000,415.000000,19.000000,18.000000,0.000000,0.000000,0.000000,0.000000,0.000000,0.577808,0.689642,0.177070,0.167751,0.414717,434.000000,415.000000,19.000000,18.000000,0.000000,0.000000,0.000000,0.000000,0.000000;
#CREDIT:;
#DISPLAYBPM:170.000000;
#NOTES:
00000000
00000000
00000000
00000000
,
00000000
00000000
00000000
00000000
,
00000000
00000000
00000000
00000000
,
00000000
00000000
00000000
00000000
,
00000000
00000000
00000000
00000000
,
10100000
00000000
01001000
00000000
,
00010010
00000000
00000101
00000000
,
00001000
00000000
00000000
00001000
00000100
00000000
00000000
00000100
00010000
00000000
00000000
00010000
00000010
00000000
00000000
00000010
,
00000100
00000000
00000000
00000100
00000001
00000000
00000000
00000000
00000110
00000000
00000000
00000000
00001100
00000000
00000000
00000000
,
00000001
00000000
00001000
00000000
00000100
00000000
00000000
00000000
00010000
00000000
00000000
00000010
00000100
00000000
00001000
00000000
,
00010000
00000000
00100000
00000000
01000000
00000000
00000000
00000000
00010000
00000000
00000000
00100000
01000000
00000000
10000000
00000000
,
00010000
00000000
10000000
00000000
01000000
00000000
00000000
00000000
00001000
00000000
00000000
00100000
00001000
00000000
00010000
00000000
,
00000100
00000010
00001000
00010000
01000000
10000000
00100000
00000000
,
10000000
00000000
00010000
00000000
01000000
00000000
00000000
00000000
00001000
00000000
00000000
00100000
01000000
00000000
00010000
00000000
,
00001000
00000000
00000010
00000000
00000100
00000000
00000000
00000000
00001000
00000000
00000000
00000010
00000100
00000000
00000001
00000000
,
00000010
00001000
00010000
00000000
00100000
00010000
00001000
00000000
,
00000010
00010100
00000011
00000000
,
00000001
00000000
00000000
00000001
00000100
00000000
00000000
00000100
00000010
00000000
00000000
00000010
00001000
00000000
00000000
00001000
,
00010000
00000000
00000000
00010000
01000000
00000000
00000000
01000000
00100000
00000000
00000000
00100000
10000000
00000000
00000000
10000000
,
00010000
00000000
00000000
00010000
00100000
00000000
00000000
00100000
01000000
00000000
00000000
01000000
10000000
00000000
00000000
10000000
,
00010000
01000000
00101000
01000000
,
10000000
00000000
00000000
10000000
01000000
00000000
00000000
01000000
00100000
00000000
00000000
00100000
00010000
00000000
00000000
00010000
,
00001000
00000000
00000000
00001000
00000100
00000000
00000000
00000100
00000010
00000000
00000000
00000010
00000001
00000000
00000000
00000001
,
00001000
00000000
00000000
00001000
00000010
00000000
00000000
00000010
00000100
00000000
00000000
00000100
00000001
00000000
00000000
00000001
,
00001000
00000000
00000100
00000000
00000010
00010000
00000100
00000000
,
00010000
00000000
00000000
00000000
00001000
00000000
00010000
00001000
00000200
00000000
00000000
00000000
00000310
00000000
00000000
00000000
,
00001000
00000000
00000000
00000000
00010000
00000000
00001000
00010000
02000000
00000000
00000000
00000000
03100000
00000000
00000000
00000000
,
00010000
00000000
00000000
00000000
00001000
00000000
00010000
00001000
00000200
00000000
00000000
00000000
00000310
00000000
00010000
00000000
,
00001000
00000000
00010000
00000000
00100000
00010000
00001000
00000000
,
00001000
00000000
00000000
00000000
00010000
00000000
00001000
00010000
02000000
00000000
00000000
00000000
03100000
00000000
00000000
00000000
,
00010000
00000000
00000000
00000000
00001000
00000000
00010000
00001000
00000200
00000000
00000000
00000000
00000310
00000000
00000000
00000000
,
00001000
00000000
00000000
00000000
00010000
00000000
00001000
00010000
02000000
00000000
00000000
00000000
13000000
00000000
00000000
00000000
,
00100000
00010000
00001000
00000100
,
00000010
00000000
00000000
00000000
00000000
00000000
00010000
00001000
00000100
00000000
00000000
00000000
00000000
00000000
00001000
00000100
,
00000001
00000000
00000010
00000000
00000100
00010000
00001000
00000000
,
00100000
00000000
00000000
00000000
00000000
00000000
00001000
00010000
01000000
00000000
00000000
00000000
00000000
00000000
00010000
01000000
,
10000000
00100000
00010000
00100000
10000000
01000000
00010000
00001000
,
00000100
00000000
00000000
00000000
00000000
00000000
00010000
00001000
00000100
00000000
00000000
00000000
00000000
00000000
00001000
00000100
,
00000001
00000000
00000010
00000000
00000100
00010000
00001000
00000000
,
00000100
00000010
00001000
00000010
00000001
00000100
00001000
00010000
,
00000010
00010100
00101000
00000000
,
00020000
00001000
02030000
00010000
,
03200000
00010000
00302000
00013000
,
00000010
00001000
00000100
00000000
00010000
00000010
00001000
00000000
,
00100000
01000000
00001000
00010000
,
00002000
00010000
00003200
00001000
,
00000320
00001000
00020030
00031000
,
00010010
00000100
00000011
00000100
,
00001000
00000000
00000000
00001000
00000100
00000000
00000000
00000100
00001000
00000000
00000000
00001000
00000010
00000000
00000000
00000010
,
00010000
00000000
00000000
00010000
01000000
00000000
00000000
01000000
10000000
00000000
00000000
10000000
00100000
00000000
00000000
00100000
,
00010000
00001000
00000000
00000100
00001000
00010000
00000000
01000000
,
00010000
00001000
00000000
00000100
00001000
00010000
00000000
00100000
,
01000000
00001000
00100000
00010000
,
00000010
00000000
00000100
00000010
00001001
00000000
00000000
00000000
,
00000000
00000100
00000000
00002000
00000000
00010000
00000000
00103000
,
00000000
01000000
00000000
00020000
00000000
00001000
00000000
00030010
,
00000000
00001000
00000000
00000100
00000000
00000001
00000000
00000100
,
00000001
00000000
00000000
00000001
00001000
00000000
00000000
00001000
00010000
00000000
00000000
00010000
10000000
00000000
00000000
10000000
,
00100000
00000000
00000000
00100000
01000000
00000000
00000000
01000000
00001000
00000000
00000000
00001000
00010000
00000000
00000000
00010000
,
00000100
00000000
00000000
00000100
00000010
00000000
00000000
00000010
00001000
00000000
00000000
00001000
00010000
00000000
00000000
00010000
,
01000000
00000000
00000000
01000000
00100000
00000000
00000000
00100000
00001000
00000000
00000000
00001000
00010000
00000000
00000000
00010000
,
00100000
11000000
01010000
00000000
,
01000000
00010000
01000000
00001000
00100000
01000000
00010000
00000010
,
00000100
00001000
00000100
00010000
00000010
00000100
00001000
00010000
,
01000000
00010000
00001000
00000100
00000010
00010000
00001000
00000010
,
00000100
00000000
00000000
00000100
00010000
00000000
00000000
00010000
00001000
00000000
00000000
00001000
00000100
00000000
00000000
00000100
,
00000001
00000000
00000000
00000001
00000100
00000000
00000000
00000100
00000001
00000000
00000000
00000001
00000010
00000000
00000000
00000010
,
00001000
00000000
00000000
00001000
00010000
00000000
00000000
00010000
01000000
00000000
00000000
01000000
10000000
00000000
00000000
10000000
,
00100000
00000000
01000000
00100000
10000000
00000000
00000000
00000000
,
00100000
00000000
00000000
00001000
00010000
00000000
01000000
00000000
10000000
00100000
10000000
00000000
00010000
00000000
01000000
00000000
,
00100000
00000000
00010000
00001000
00000100
00000000
00000001
00000000
00000010
00000000
00000000
00000000
00001100
00000000
00000000
00000000
,
00001010
00000000
00000000
00010000
00001000
00000000
00000100
00000000
00000001
00000010
00000001
00000000
00001000
00000000
00000100
00000000
,
00000010
00000000
00000000
00000000
00001000
00010000
01000000
10000000
00100000
00000000
00000000
00000000
02020000
00000000
00000000
00000000
,
00000000
00000000
00000000
00000000
,
03030000
00000000
00000000
00000000
,
00000000
00000000
00000000
00000000
;

//---------------dance-single - Edit----------------
#NOTEDATA:;
#CHARTNAME:;
#STEPSTYPE:dance-single;
#DESCRIPTION:Edit;
#CHARTSTYLE:;
#DIFFICULTY:Edit;
#METER:17;
#RADARVALUES:0.999848,1.137910,0.139792,0.363460,1.206874,751.000000,736.000000,15.000000,39.000000,0.000000,0.000000,0.000000,0.000000,0.000000,0.999848,1.137910,0.139792,0.363460,1.206874,751.000000,736.000000,15.000000,39.000000,0.000000,0.000000,0.000000,0.000000,0.000000;
#CREDIT:;
#DISPLAYBPM:170.000000;
#NOTES:
// measure 0
0000
0000
0000
0000
,  // measure 1
0000
0000
0000
0000
,  // measure 2
0000
0000
0000
0000
,  // measure 3
0000
0000
0000
0000
,  // measure 4
0000
0000
0000
0000
0000
0000
0000
0000
0000
0000
0001
0010
0100
1000
0001
0010
,  // measure 5
0200
0000
0000
0000
1300
0100
0010
0001
2000
0000
0000
0000
3001
0010
0100
1000
,  // measure 6
0020
0000
0000
0000
0130
0001
1000
0100
0002
0000
0000
0000
0013
0100
1000
0001
,  // measure 7
0100
0000
0001
0100
0010
0000
0100
0010
1000
0000
0010
0100
0001
0000
0100
0010
,  // measure 8
1000
0000
0010
0100
0001
0000
0100
0010
1000
0000
0010
0100
0001
0000
0100
1000
,  // measure 9
0010
0000
0010
1000
0100
0000
0100
1000
0010
0000
0010
1000
0100
0000
0100
1000
,  // measure 10
0010
0000
0010
0001
0100
0000
0100
0001
0010
0000
0010
0001
0100
0000
0100
0001
,  // measure 11
0010
0000
0010
1000
0001
0000
0001
0010
1000
0000
0010
1000
0001
0000
1000
0100
,  // measure 12
0001
0000
0100
0001
1000
0000
0100
1000
0001
0000
0001
0100
1000
0000
0100
0010
,  // measure 13
1000
0000
0010
0100
0001
0000
0100
0010
1000
0000
0010
1000
0100
0000
0010
0001
,  // measure 14
0100
0000
1000
0100
0010
0000
0100
0010
0001
0000
1000
0010
0100
0000
0010
0100
,  // measure 15
0002
0000
0000
0000
0000
0000
0013
0100
1000
0000
0000
0000
1100
0000
0000
0000
,  // measure 16
1010
0000
0000
0010
0100
0000
0000
0100
0001
0000
0000
0000
1001
0000
0000
0000
,  // measure 17
1100
0000
0100
1000
0100
0000
0010
0100
0010
0000
0001
0010
0001
0000
0010
0100
,  // measure 18
0010
0000
0100
1000
0100
0000
1000
0100
1000
0000
0100
0010
0100
0000
0010
0001
,  // measure 19
0010
0000
0001
0100
0001
0000
0010
1000
0010
0000
0100
1000
0100
0000
1000
0010
,  // measure 20
1000
0000
0100
0010
0100
0000
0010
0001
0020
0000
0000
0000
0031
0000
0000
0000
,  // measure 21
1001
0000
0001
0100
1000
0000
1000
0100
0001
0000
0001
0100
1000
0000
1000
0100
,  // measure 22
0001
0000
0001
0010
1000
0000
1000
0010
0001
0000
0001
0010
1000
0000
1000
0010
,  // measure 23
0001
0000
0001
0100
0010
0000
0010
1000
0100
0000
0100
1000
0010
0000
0010
1000
,  // measure 24
0100
0000
0100
0001
0010
0000
0010
0001
1000
0000
1000
0100
0010
0000
0010
0001
,  // measure 25
2000
0000
0000
0000
0100
0000
0000
0000
3010
0000
0100
0000
0001
0010
0100
0000
,  // measure 26
0020
0000
0000
0000
1000
0000
0000
0000
0031
0000
0100
0000
0001
0100
0010
0000
,  // measure 27
0002
1000
0203
0001
,  // measure 28
2300
0100
3020
1000
,  // measure 29
0031
0000
0001
0010
0100
0000
0010
0100
1000
0000
1000
0100
0010
0000
0100
0010
,  // measure 30
0001
0000
0001
0010
0100
0000
0010
0100
1000
0000
1000
0010
0100
0000
0010
0100
,  // measure 31
0001
0000
0001
0100
0010
0000
0100
0010
1000
0000
0010
1000
0100
0000
0100
0010
,  // measure 32
0001
0000
0000
0000
0000
0000
0000
0000
0001
0000
0000
0000
0010
0000
0000
0000
0000
0000
0000
0000
0010
0000
0000
0000
0100
0000
0000
0000
0000
0000
0100
0000
0000
0000
0000
0000
1000
0000
0000
0100
0000
0000
0010
0000
0000
0001
0000
0000
,  // measure 33
0200
0000
0001
0000
0301
0010
0100
1000
0020
0000
0001
0000
0031
0100
0010
0100
,  // measure 34
2000
0000
0100
0000
3100
1000
0010
0100
0002
0000
0010
0000
0013
0001
0100
0010
,  // measure 35
2000
0000
0100
0000
3100
0010
1000
0010
0002
0000
0100
0000
0103
0010
0001
1000
,  // measure 36
0020
0000
0100
0000
0130
0010
1000
0010
0200
0000
0010
0000
0310
0001
1000
0100
,  // measure 37
0001
0010
0100
1000
0010
0000
0100
0000
0100
0010
1000
0100
0010
0000
0010
0000
,  // measure 38
0001
0010
0100
1000
0010
0000
0100
0000
1000
0100
0010
0001
1000
0000
0001
0000
,  // measure 39
0100
0010
1000
0000
0010
0100
0001
0000
0100
0010
1000
0000
0010
1000
0100
0010
,  // measure 40
0002
0000
0000
0000
0100
0000
0000
0000
1003
0000
0100
0001
1000
0000
2000
0000
,  // measure 41
0000
0010
0010
0100
0100
0001
0000
3001
,  // measure 42
0010
0000
0010
0100
0000
0100
1000
0000
0000
1100
0000
0000
,  // measure 43
1010
0000
0010
1000
0100
0000
0100
0001
0010
0000
0010
0001
0100
0000
0001
0100
,  // measure 44
0020
1000
0001
0130
,  // measure 45
0200
0000
0001
0010
0302
0000
1003
0000
,  // measure 46
0020
0000
1000
0100
2030
0000
3100
0000
,  // measure 47
1100
0000
0000
0000
1010
0000
0000
0000
0110
0000
0000
0000
0100
0001
1000
0100
,  // measure 48
0010
0000
0000
0001
0000
0000
0010
0000
0000
0001
0000
0000
0010
0000
0000
0001
0000
0000
0010
0000
0000
0001
0000
0000
0010
0000
0000
0001
0000
0000
0010
0000
0000
0001
0000
0000
0010
0000
0000
0000
0100
0000
0000
0000
1000
0000
0000
0000
,  // measure 49
0010
0000
0000
1000
0000
0000
0010
0000
0000
1000
0000
0000
0010
0000
0000
1000
0000
0000
0010
0000
0000
1000
0000
0000
0010
0000
0000
1000
0000
0000
0010
0000
0000
1000
0000
0000
0010
0000
0000
0000
1000
0000
0000
0000
0100
0000
0000
0000
,  // measure 50
0020
0000
0001
0000
0001
0000
1030
0001
0200
0000
0010
0000
0010
0000
0301
0010
,  // measure 51
2000
0000
3100
0010
0002
0000
0013
0100
2000
0000
3100
0010
0002
0000
0013
0100
,  // measure 52
1100
0000
0000
1000
0110
0000
0000
0010
0101
0000
0000
0001
0010
0100
1000
0010
,  // measure 53
0200
0000
0000
0000
0000
0000
0301
0000
0010
0000
0100
0000
2000
0000
0000
0010
0000
0000
3100
0000
0000
1000
0000
0000
,  // measure 54
0000
0100
1000
0100
2000
0100
0000
3100
,  // measure 55
0000
0001
0100
0001
0200
0001
0000
0301
,  // measure 56
0000
0001
0010
0100
1000
0010
0100
0001
,  // measure 57
1001
0000
0000
0001
0010
0000
0000
0010
0100
0000
0000
0100
1000
0000
0000
0000
,  // measure 58
0010
1000
0010
1000
0100
0010
0100
0010
0001
0010
0001
0010
0100
1000
0100
1000
,  // measure 59
0010
0100
0010
0100
0001
0010
0001
0010
0100
1000
0100
1000
0010
0100
0010
0100
,  // measure 60
1000
0100
1000
0100
0010
0001
0010
0001
1000
0100
1000
0100
0010
0001
0010
0001
,  // measure 61
1000
1000
0100
0010
0001
0001
0010
0100
1000
1000
0010
0100
0001
0010
0100
0010
,  // measure 62
1000
0000
0000
0010
0000
0000
0100
0000
0000
0010
0000
0000
1000
0000
0000
0010
0000
0000
0100
0000
0000
0010
0000
0000
1000
0000
0000
0010
0000
0000
0100
0000
0000
0010
0000
0000
1000
0000
0000
0000
0100
0000
0000
0000
0010
0000
0000
0000
,  // measure 63
0001
0000
0000
0010
0000
0000
0100
0000
0000
0010
0000
0000
0001
0000
0000
0010
0000
0000
0100
0000
0000
0010
0000
0000
0001
0000
0000
0010
0000
0000
0100
0000
0000
0010
0000
0000
0001
0000
0000
0000
0010
0000
0000
0000
0100
0000
0000
0000
,  // measure 64
1000
0100
0010
0100
0001
0010
0100
0010
1000
0100
0010
0100
0001
0010
0100
0010
,  // measure 65
1000
1000
0010
0001
0100
0100
0010
1000
0001
0001
0100
0010
1000
1000
0100
0010
,  // measure 66
0001
0010
1000
0100
0001
0010
1000
0100
0001
0010
0100
1000
0010
0100
0001
0010
,  // measure 67
1000
0010
0001
0100
1000
0010
0001
0100
1000
0010
0100
0001
1000
0100
0010
0001
,  // measure 68
0100
0010
1000
0100
0010
0100
0001
1000
0100
0001
0010
1000
0100
0010
0001
1000
,  // measure 69
0010
0000
1000
0000
0010
0000
1000
0000
0010
0000
1000
0000
0010
0000
1000
0001
,  // measure 70
0010
0000
0001
0000
0010
0000
0001
0000
0010
0000
0001
1000
0010
0000
0001
0000
,  // measure 71
0010
0000
0100
0000
0010
0000
0100
0000
0010
0000
0100
0001
0010
0000
0100
0000
,  // measure 72
0010
0000
0000
0000
0000
0000
0001
0010
0100
1000
0100
0010
0001
0000
0000
0000
0000
0000
0202
0000
0000
0000
0000
0000
,  // measure 73
0000
0000
0000
0000
,  // measure 74
0303
0000
0000
0000
;
