#TITLE:La Camisa Negra;
#SUBTITLE:;
#ARTIST:Juanes;
#TITLETRANSLIT:;
#SUBTITLETRANSLIT:;
#ARTISTTRANSLIT:;
#GENRE:;
#CREDIT:;
#BANNER:La Camisa Negra.png;
#BACKGROUND:La Camisa Negra-bg.png;
#LYRICSPATH:;
#CDTITLE:;
#MUSIC:La Camisa Negra.ogg;
#OFFSET:0.000000;
#SAMPLESTART:81.649002;
#SAMPLELENGTH:15.000000;
#SELECTABLE:YES;
#BPMS:0.000000=97.000000
;
#STOPS:
;
#BGCHANGES:0.000=La Camisa Negra.avi=1.000=0=0=0=StretchNoLoop====,
99999=-nosongbg-=1.000=0=0=0 // don't automatically add -songbackground-
;
#KEYSOUNDS:;
#ATTACKS:;

//---------------dance-single - ----------------
#NOTES:
     dance-single:
     :
     Beginner:
     2:
     0.076100,0.117004,0.028537,0.000000,0.000000,56.000000,53.000000,3.000000,0.000000,0.000000,0.000000,0.076100,0.117004,0.028537,0.000000,0.000000,56.000000,53.000000,3.000000,0.000000,0.000000,0.000000:
0000
0000
0000
0000
,
0000
0000
0000
0000
,
0000
0000
0000
0000
,
1000
0000
0000
0000
,
1000
0000
0000
0000
,
0001
0000
0000
0000
,
0001
0000
0000
0000
,
1000
0000
0000
0000
,
0001
0000
0000
0000
,
1000
0000
0000
0000
,
0001
0000
0000
0000
,
0010
0000
0000
0000
,
0010
0000
0000
0000
,
1000
0000
1000
0000
,
1000
0000
0000
0000
,
0001
0000
0001
0000
,
0001
0000
0000
0000
,
1000
0000
1000
0000
,
1000
0000
0000
0000
,
0001
0000
0001
0000
,
0001
0000
0000
0000
,
1001
0000
0000
0000
,
0000
0000
0000
0000
,
1001
0000
0000
0000
,
0000
0000
0000
0000
,
1000
0000
0001
0000
,
1000
0000
0000
0000
,
0001
0000
1000
0000
,
0001
0000
0000
0000
,
1000
0000
0001
0000
,
1000
1000
1000
0000
,
0001
0000
1000
0000
,
0001
0001
0001
0000
,
1000
0000
0001
0000
,
0010
0000
0000
0000
,
0001
0000
0001
0000
,
0100
0000
0000
0000
,
0001
0000
1000
0000
,
0010
0000
0000
0000
,
1000
0000
1000
0000
,
0100
0000
0000
0000
,
1001
0000
0000
0000
;

//---------------dance-single - ----------------
#NOTES:
     dance-single:
     :
     Easy:
     3:
     0.126380,0.175505,0.047562,0.000000,0.000000,93.000000,88.000000,5.000000,0.000000,0.000000,0.000000,0.126380,0.175505,0.047562,0.000000,0.000000,93.000000,88.000000,5.000000,0.000000,0.000000,0.000000:
0000
0000
0000
0000
,
0000
0000
0000
0000
,
0000
0000
0000
0000
,
1000
0000
0001
0000
,
1000
0000
0001
0000
,
0010
0000
0010
0000
,
0010
0000
0000
0000
,
1000
1000
0001
0000
,
1000
0001
0001
0000
,
1000
1000
0001
0000
,
1000
0001
0000
0000
,
0010
0000
0100
0000
,
0010
0000
0100
0000
,
0001
0000
0010
0000
,
1000
0000
0100
0000
,
0001
0000
0100
0000
,
1000
0000
0010
0000
,
0001
0000
0010
0000
,
1000
0000
0100
0000
,
0001
0000
0100
0000
,
1000
0000
0010
0000
,
0001
0001
1000
1000
,
0001
0000
1000
0001
,
1000
0000
0100
0100
,
1000
0000
0001
0001
,
1001
0000
0010
0000
,
0100
0000
0000
0000
,
1001
0000
0100
0000
,
0010
0000
0000
0000
,
1001
0000
0010
0000
,
0100
0000
0000
0000
,
1001
0000
0100
0000
,
0010
0000
0000
0000
,
0010
0010
0001
0000
,
1000
0000
1000
0000
,
0010
0001
0001
0000
,
0001
1000
0001
1000
,
0010
0010
1000
0000
,
0001
0000
0001
0000
,
0010
1000
1000
0000
,
1000
0001
1000
0001
,
1001
0000
0000
0000
;

//---------------dance-single - ----------------
#NOTES:
     dance-single:
     :
     Medium:
     6:
     0.241889,0.254281,0.133175,0.019025,0.000000,178.000000,164.000000,14.000000,2.000000,0.000000,0.000000,0.241889,0.254281,0.133175,0.019025,0.000000,178.000000,164.000000,14.000000,2.000000,0.000000,0.000000:
0000
0000
0000
0000
,
0000
0000
0000
0000
,
0000
0000
0000
0000
,
1000
0001
0000
0001
0000
1000
0000
0100
,
0001
1000
0000
1000
0000
0001
0000
0010
,
0100
0010
0000
0001
0000
1000
0000
0001
,
0000
0100
0000
0010
0000
1000
0000
0100
,
0010
0000
0000
0000
0001
0100
0001
0100
,
0010
0000
0000
0000
1000
0010
1000
0100
,
0010
0000
0000
0000
0001
0100
0001
0100
,
0010
0010
1000
0100
,
1000
1000
0001
0001
,
1000
1000
0001
0001
,
0100
0000
1000
0010
,
0100
0001
0200
0000
0010
0000
0310
0000
,
1000
0100
0010
0001
,
0100
0000
0010
0000
1000
0001
1000
0001
,
0100
0000
0001
1000
,
0100
1000
0002
0000
0010
0000
0013
0000
,
0001
0100
0110
1000
,
0100
0000
1010
0000
0001
1000
0001
1000
,
0001
0010
0100
0010
,
0001
0100
1000
0010
,
0100
0010
1000
0001
,
1000
0000
1000
0000
0010
0100
0010
0100
,
0110
0000
1100
0100
,
0101
0000
1000
0100
,
0110
0000
0101
0001
,
1100
0000
0100
0100
,
0110
0000
1100
0010
,
0101
0000
0010
0100
,
0110
0000
0101
1000
,
1100
0000
0001
0001
,
1000
0010
0000
0100
0000
0001
0000
1000
,
0000
0001
0000
0010
0100
0010
0000
0001
,
0000
0100
0000
0010
1000
0010
0000
0100
,
0000
0001
0000
0001
0000
1000
0000
1000
,
0001
0010
0000
0100
0000
1000
0000
0010
,
0000
1000
0000
0010
0100
0001
0000
1000
,
0000
0100
0000
0010
0001
1000
0000
0100
,
0000
1000
0000
1000
0000
0001
0000
0010
,
0001
1000
0000
0000
0000
0000
0000
0000
;

//---------------dance-single - ----------------
#NOTES:
     dance-single:
     :
     Hard:
     8:
     0.330219,0.371641,0.028537,0.038050,0.042806,243.000000,240.000000,3.000000,4.000000,0.000000,0.000000,0.330219,0.371641,0.028537,0.038050,0.042806,243.000000,240.000000,3.000000,4.000000,0.000000,0.000000:
0000
0000
0000
0000
,
0000
0000
0000
0000
,
0000
0000
0000
0000
,
1000
0100
0000
0100
0000
0100
0010
0001
,
1000
0010
0000
0010
0000
0010
0100
0001
,
1000
0001
0000
1000
0000
0001
0100
0010
,
1000
0100
0000
0001
0000
1000
0000
0010
,
0100
0001
0000
0010
1000
0001
0100
0010
,
1000
0001
0000
0010
1000
0001
0100
0010
,
0100
1000
0000
0010
0001
1000
0100
0010
,
0100
0010
0000
1000
0000
1001
0000
0001
,
0000
0100
0010
0100
0000
0001
0100
0001
,
0000
0100
0010
0100
0000
1000
0100
1000
,
0001
0000
0000
0000
1000
0001
0010
0001
,
0100
0001
0020
0000
1000
1000
0130
0000
,
1000
0010
0100
0000
1000
0010
0001
0000
,
1000
0000
0102
0000
0013
0001
0010
0100
,
1000
0000
0000
0000
0001
1000
0010
1000
,
0100
1000
0020
0000
0001
0001
0130
0000
,
0001
0010
0100
0000
0001
0010
1000
0000
,
0001
0000
2100
0000
3010
1000
0010
0100
,
0001
0000
1000
0001
1000
0000
1000
0010
,
0100
0000
0001
0100
0001
0000
0010
0100
,
0010
0000
1000
0100
0001
0000
0001
0010
,
0100
0000
0010
0001
0100
0000
0010
1000
,
0100
0010
0001
0010
,
0100
1000
0010
0100
0001
0010
0001
0000
,
0100
0001
0010
0000
0001
0000
0010
0000
,
0100
1000
0010
0100
0001
0010
0100
0000
,
0100
0010
1000
0001
,
0100
0001
0010
0001
1000
0010
1000
0000
,
0100
0000
0010
0001
1000
0000
0010
0000
,
0100
0001
0010
0100
1000
0010
0010
0000
,
0100
0000
0001
0000
0000
0000
0010
0000
0100
0001
1000
0000
0010
0000
0100
0000
,
1000
0000
0100
0000
0000
0000
1000
0000
0010
0100
0010
0000
0100
0000
0010
0000
,
0001
0000
0010
0000
0000
0000
1000
0000
0001
0010
0100
0000
0010
0000
1000
0000
,
0010
0001
0000
0010
0000
1000
0000
0100
,
0100
0000
1000
0000
0000
0000
0010
0000
0100
1000
0001
0100
0010
0000
0100
0000
,
0001
0000
0100
0000
0000
0000
0001
0000
0010
0100
0010
0001
0100
0000
0010
0000
,
1000
0000
0010
0000
0000
0000
0001
0000
1000
0010
0100
0001
0010
0000
0001
0000
,
0010
1000
0000
0010
0000
0001
0000
0010
,
1000
0001
0000
0000
0000
0000
0000
0000
;

//---------------dance-double - ----------------
#NOTES:
     dance-double:
     :
     Easy:
     3:
     0.133175,0.175505,0.085612,0.000000,0.000000,98.000000,89.000000,9.000000,0.000000,0.000000,0.000000,0.133175,0.175505,0.085612,0.000000,0.000000,98.000000,89.000000,9.000000,0.000000,0.000000,0.000000:
00000000
00000000
00000000
00000000
,
00000000
00000000
00000000
00000000
,
00000000
00000000
00000000
00000000
,
00000001
00000000
00001000
00000000
,
00000001
00000000
00001000
00000000
,
00000100
00000000
00010000
00000000
,
00100000
00000000
00000000
00000000
,
10000000
01000000
00010000
00000000
,
00001000
00000010
00000001
00000000
,
00000001
00000100
00001000
00000000
,
00010000
00000000
00001000
00000000
,
00100000
00000000
00000000
00000000
,
00100000
00000000
00000000
00000000
,
00001000
00000000
00010000
00000000
,
00000010
00000000
00000100
00000000
,
00000001
00000000
00000010
00000000
,
00001000
00000000
00100000
00000000
,
00001000
00000000
00010000
00000000
,
00000010
00000000
00000100
00000000
,
00000001
00000000
00000010
00000000
,
00001000
00000000
00100000
00000000
,
00010000
00010000
10000000
10000000
,
01000000
00000000
00010000
00001000
,
00000100
00000000
00000010
00010000
,
00000100
00000000
00010000
00010000
,
00011000
00000000
00000100
00000000
,
00001001
00000000
00000010
00000000
,
00011000
00000000
01000000
00000000
,
10010000
00000000
00100000
00000000
,
00011000
00000000
00000100
00000000
,
00001001
00000000
00000010
00000000
,
00011000
00000000
01000000
00000000
,
10010000
00000000
00000000
00000000
,
00100000
00001000
00010000
00000000
,
00000010
00000000
00000010
00000000
,
00010000
00000100
00001000
00000000
,
00000001
00001000
00000100
00010000
,
00000010
00010000
00001000
00000000
,
00100000
00000000
00100000
00000000
,
00001000
01000000
00010000
00000000
,
10000000
00010000
01000000
00001000
,
00011000
00000000
00000000
00000000
;

//---------------dance-double - ----------------
#NOTES:
     dance-double:
     :
     Medium:
     6:
     0.235094,0.234721,0.114150,0.019025,0.000000,173.000000,161.000000,12.000000,2.000000,0.000000,0.000000,0.235094,0.234721,0.114150,0.019025,0.000000,173.000000,161.000000,12.000000,2.000000,0.000000,0.000000:
00000000
00000000
00000000
00000000
,
00000000
00000000
00000000
00000000
,
00000000
00000000
00000000
00000000
,
10000000
01000000
00000000
01000000
00000000
00010000
00000000
00000010
,
00001000
00000100
00000000
00000100
00000000
00000001
00000000
00000001
,
00000100
00001000
00000000
00000010
00000000
00000100
00000000
00000001
,
00000000
00000100
00000000
00001000
00000000
00010000
00000000
00001000
,
00010000
00000000
00000000
00000000
00001000
00100000
00001000
00100000
,
00001000
00000000
00000000
00000000
00010000
00000010
00010000
00000100
,
00010000
00000000
00000000
00000000
00001000
00100000
00001000
00100000
,
00010000
10000000
00100000
00010000
,
00001000
00001000
00010000
00010000
,
00001000
00001000
00010000
00000000
,
00000100
00000000
00000010
00000001
,
00000100
00001000
00020000
00000000
00001000
00000000
00031000
00000000
,
00100000
00001000
01000000
00010000
,
10000000
00000000
01000000
00000000
00010000
00001000
00000100
00000010
,
00000100
00000001
00000010
00000001
,
00000100
00001000
00020000
00000000
00000010
00000000
00031000
00000000
,
00100000
00001000
01000000
00100000
,
10000000
00000000
00100000
00000000
00010000
00001000
00000100
00000010
,
00001000
00000000
00000001
00000000
00001000
00000000
00000010
00010000
,
00001000
01000000
00001000
00100000
,
00001000
00010000
01000000
01000000
,
10000000
00000000
00010000
00000000
01000000
00100000
01000000
00000000
,
01100000
00000000
00101000
00000000
,
00011000
00000000
00000100
00000100
,
00000110
00000000
00010100
00000000
,
00011000
00000000
01000000
00100000
,
01100000
00000000
00011000
00000000
,
00001010
00000000
00000100
00000100
,
00000110
00000000
00001010
00000000
,
00011000
00000000
00000000
00000000
01000000
00100000
01000000
00000000
,
00010000
10000000
00000000
01000000
00000000
00010000
00000000
00001000
,
00000000
00010000
00000000
00100000
00010000
00001000
00000000
00010000
,
00000000
00000100
00000000
00001000
00000010
00000100
00000000
00000001
,
00000000
00001000
00000000
00010000
00000000
00001000
00000000
00000100
,
00000100
00000001
00000000
00000100
00000000
00001000
00000000
00010000
,
00000000
00001000
00000000
00000010
00001000
00010000
00000000
00010000
,
00000000
01000000
00000000
10000000
00100000
01000000
00000000
10000000
,
00000000
01000000
00000000
00001000
00000000
00010000
00000000
01000000
,
00010000
00001000
00000000
00000000
00000000
00000000
00000000
00000000
;

//---------------dance-double - ----------------
#NOTES:
     dance-double:
     :
     Hard:
     8:
     0.334296,0.332521,0.076100,0.085612,0.000000,246.000000,238.000000,8.000000,9.000000,0.000000,0.000000,0.334296,0.332521,0.076100,0.085612,0.000000,246.000000,238.000000,8.000000,9.000000,0.000000,0.000000:
00000000
00000000
00000000
00000000
,
00000000
00000000
00000000
00000000
,
00000000
00000000
00000000
00000000
,
00000000
00001000
00000000
01000000
00000000
10000000
01000000
00010000
,
00000000
00100000
00000000
01000000
00000000
10000000
01000000
00010000
,
00000000
00001000
00000000
00010000
00000000
00001000
00000100
00000001
,
00000010
00000100
00001000
00000100
00010000
00001000
01000000
00000000
,
00000000
00010000
00000000
11000000
00000000
00001000
01000000
00100000
,
00010000
00001000
00000000
00000101
00000000
00010000
00000100
00000010
,
00000000
00001000
00000000
00000101
00000000
00010000
00000100
00000010
,
00001000
00010000
00001000
00100000
00001000
00000100
00000001
00001000
,
00000000
00000100
00000000
01000000
00000000
00001000
00000000
00010000
,
00000000
00000100
00000000
01000000
00000000
00001000
00100000
00010000
,
20000000
00000000
00000000
30100000
01000000
00001000
00000000
00010000
,
00001000
00100000
00000000
01000000
00000000
00010000
00001000
00000010
,
00000001
00000100
00000000
00000010
00000000
00001000
00000000
00000100
,
00010000
00010000
00100000
00010000
00001000
00001000
00000100
00000100
,
00000002
00000000
00000000
00000013
00000100
00010000
00000000
00000100
,
00010000
00000010
00000000
00000100
00000000
00001000
00010000
01000000
,
10000000
01000000
00000000
00100000
00000000
00001000
00000000
01000000
,
00001000
00001000
00000010
00001000
00001000
00010000
01000000
01000000
,
10000000
00020000
00000000
00001000
00000000
01030000
00100000
00010000
,
00001000
00020000
00000000
00000010
00000000
00031000
00000100
00000001
,
00001000
00000020
00000000
00010000
00000000
00000130
00000001
00000100
,
00000010
00001000
00000000
00000100
00000000
00010000
00001000
00010000
,
00011000
00000000
00000100
00001000
00100000
00000000
00001000
00010000
,
02000000
00000000
00100000
00000000
13000000
00010000
00100000
00001000
,
00011000
00000000
01000000
00010000
00001000
00000000
00010000
00001000
,
00000200
00000000
00000010
00000000
00000301
00001000
00000100
00010000
,
00011000
00000000
00000100
00001000
00101000
00000000
00001000
00010000
,
02000000
00000000
00100000
00000000
13000000
00010000
00100000
00100000
,
00011000
00000000
01000000
00010000
00000010
00000000
00010000
00000010
,
00000200
00000000
00000010
00000000
00000301
00001000
00000010
00000000
,
00000000
00000100
00001000
00000010
00001000
00000100
00010000
00001000
,
01000000
00100000
01000000
00001000
00010000
01000000
00100000
00001000
,
00010000
00001000
00000100
00000001
00000010
00000001
00001000
00010000
,
00001000
00000001
00000010
00000100
00010000
00001000
00100000
01000000
,
00000000
10000000
00010000
00100000
00010000
01000000
00001000
00010000
,
00000100
00000010
00001000
00010000
00001000
00000100
00000010
00010000
,
00001000
00010000
01000000
10000000
00100000
01000000
00010000
00001000
,
00010000
10000000
00100000
01000000
00001000
00010000
00000010
00000010
,
00000100
00000001
00000000
00000000
00000000
00000000
00000000
00000000
;

//---------------dance-single - ----------------
#NOTES:
     dance-single:
     :
     Challenge:
     14:
     0.741974,0.667063,0.922711,0.019025,0.775268,546.000000,449.000000,97.000000,2.000000,0.000000,0.000000,0.741974,0.667063,0.922711,0.019025,0.775268,546.000000,449.000000,97.000000,2.000000,0.000000,0.000000:
// measure 0
0000
0000
0000
0000
,  // measure 1
0000
0000
0000
0000
,  // measure 2
0000
0000
0000
0000
,  // measure 3
1000
0000
0000
0000
0000
0000
0000
0000
0000
0000
0000
0000
0000
0000
0000
0000
0000
0000
1000
0000
0000
0000
0000
0000
0001
0000
0000
0000
0000
0000
0000
0000
0000
0000
0000
0000
0000
0000
0000
0000
0000
0000
0001
0000
0000
0000
0000
0000
0100
0000
0000
0000
0000
0000
0000
0000
0000
0000
0000
0000
0000
0000
0000
0000
0000
0000
0100
0000
0000
0000
0000
0000
0010
0000
0000
0000
0000
0000
0000
0000
0000
0000
0000
0000
0000
0000
0000
0000
0000
0000
0010
0000
0000
0000
0000
0000
0100
0000
0000
0000
0000
0000
0000
0000
0000
0000
0000
0000
0000
0000
0000
0000
0000
0000
0100
0000
0000
0000
0000
0000
0010
0000
0000
0000
0000
0000
0000
0000
0000
0000
0000
0000
0000
0000
0000
0000
0100
0000
0000
0000
0000
0000
0000
0000
1000
0000
0000
0000
0000
0000
0000
0000
0000
0000
0000
0000
0000
0000
0000
0000
0000
0000
0000
0000
0000
0000
0000
0000
1100
0000
0000
0000
0000
0000
0000
0000
0000
0000
0000
0000
0000
0000
0000
0000
0000
0000
0000
0000
0000
0000
0000
0000
,  // measure 4
1000
0000
0000
0000
0000
0000
0000
0000
0000
0000
0000
0000
0000
0000
0000
0000
0000
0000
1000
0000
0000
0000
0000
0000
0100
0000
0000
0000
0000
0000
0000
0000
0000
0000
0000
0000
0000
0000
0000
0000
0000
0000
0100
0000
0000
0000
0000
0000
0010
0000
0000
0000
0000
0000
0000
0000
0000
0000
0000
0000
0000
0000
0000
0000
0000
0000
0010
0000
0000
0000
0000
0000
0001
0000
0000
0000
0000
0000
0000
0000
0000
0000
0000
0000
0000
0000
0000
0000
0000
0000
0001
0000
0000
0000
0000
0000
0100
0000
0000
0000
0000
0000
0000
0000
0000
0000
0000
0000
0000
0000
0000
0000
0000
0000
0100
0000
0000
0000
0000
0000
0001
0000
0000
0000
0000
0000
0000
0000
0000
0000
0000
0000
0000
0000
0000
0000
0001
0000
0000
0000
0000
0000
0000
0000
0100
0000
0000
0000
0000
0000
0000
0000
0000
0000
0000
0000
0000
0000
0000
0000
0000
0000
0000
0000
0000
0000
0000
0000
0101
0000
0000
0000
0000
0000
0000
0000
0000
0000
0000
0000
0000
0000
0000
0000
0000
0000
0000
0000
0000
0000
0000
0000
,  // measure 5
0001
0000
0000
0000
0000
0000
0000
0000
0000
0000
0000
0000
0000
0000
0000
0000
0000
0000
0001
0000
0000
0000
0000
0000
0010
0000
0000
0000
0000
0000
0000
0000
0000
0000
0000
0000
0000
0000
0000
0000
0000
0000
0010
0000
0000
0000
0000
0000
0100
0000
0000
0000
0000
0000
0000
0000
0000
0000
0000
0000
0000
0000
0000
0000
0000
0000
0100
0000
0000
0000
0000
0000
1000
0000
0000
0000
0000
0000
0000
0000
0000
0000
0000
0000
0000
0000
0000
0000
0000
0000
1000
0000
0000
0000
0000
0000
0010
0000
0000
0000
0000
0000
0000
0000
0000
0000
0000
0000
0000
0000
0000
0000
0000
0000
0010
0000
0000
0000
0000
0000
1000
0000
0000
0000
0000
0000
0000
0000
0000
0000
0000
0000
0000
0000
0000
0000
1000
0000
0000
0000
0000
0000
0000
0000
0100
0000
0000
0000
0000
0000
0000
0000
0000
0000
0000
0000
0000
0000
0000
0000
0000
0000
0000
0000
0000
0000
0000
0000
0110
0000
0000
0000
0000
0000
0000
0000
0000
0000
0000
0000
0000
0000
0000
0000
0000
0000
0000
0000
0000
0000
0000
0000
,  // measure 6
0010
0000
0000
0000
0000
0000
0000
0000
0000
0000
0000
0000
0100
0000
0000
0000
0000
0000
0000
0000
0000
0000
0000
0000
0010
0000
0000
0000
0000
0000
0000
0000
0000
0000
0000
0000
0100
0000
0000
0000
0000
0000
0000
0000
0000
0000
0000
0000
0001
0000
0000
0000
0000
0000
0000
0000
0010
0000
0000
0000
0000
0000
0000
0000
0100
0000
0000
0000
0000
0000
0000
0000
1000
0000
0000
0000
0000
0000
0000
0000
0000
0000
0000
0000
0000
0000
0000
0000
0000
0000
0000
0000
0000
0000
0000
0000
1001
0000
0000
0000
0000
0000
0000
0000
0000
0000
0000
0000
0000
0000
0000
0000
0000
0000
0000
0000
0000
0000
0000
0000
1000
0000
0000
0000
0000
0000
0000
0000
0000
0000
0000
0000
0000
0000
0000
0000
0000
0000
1000
0000
0000
0000
0000
0000
0100
0000
0000
0000
0000
0000
0000
0000
0000
0000
0000
0000
0000
0000
0000
0000
0000
0000
0000
0000
0000
0000
0000
0000
0110
0000
0000
0000
0000
0000
0000
0000
0000
0000
0000
0000
0000
0000
0000
0000
0000
0000
0000
0000
0000
0000
0000
0000
,  // measure 7
0010
0001
0010
0001
1000
0010
0001
0100
1000
0010
0001
0100
1000
0100
0010
0100
,  // measure 8
0001
0010
0001
0010
0100
1000
0010
0001
0100
1000
0010
0001
1000
0100
0010
0001
,  // measure 9
1000
0100
1000
0100
0010
0001
1000
0010
0001
0100
1000
0010
0001
0100
0010
1000
,  // measure 10
0100
0000
0000
0000
0000
0000
0000
0000
0000
0000
0000
0000
0010
0000
0000
0000
0000
0000
0000
0000
0000
0000
0000
0000
1000
0000
0000
0000
0000
0000
0000
0000
0000
0000
0000
0000
0001
0000
0000
0000
0000
0000
0000
0000
0000
0000
0000
0000
0100
0000
0000
0000
0000
0000
0000
0000
0010
0000
0000
0000
0000
0000
0000
0000
0001
0000
0000
0000
0000
0000
0000
0000
1000
0000
0000
0000
0000
0000
0000
0000
0000
0000
0000
0000
0000
0000
0000
0000
0000
0000
0000
0000
0000
0000
0000
0000
1100
0000
0000
0000
0000
0000
0000
0000
0000
0000
0000
0000
0000
0000
0000
0000
0000
0000
0000
0000
0000
0000
0000
0000
0100
0000
0000
0000
0000
0000
0000
0000
0000
0000
0000
0000
0000
0000
0000
0000
0000
0000
0100
0000
0000
0000
0000
0000
1000
0000
0000
0000
0000
0000
0000
0000
0000
0000
0000
0000
0000
0000
0000
0000
0000
0000
0000
0000
0000
0000
0000
0000
1010
0000
0000
0000
0000
0000
0000
0000
0000
0000
0000
0000
0000
0000
0000
0000
0000
0000
0000
0000
0000
0000
0000
0000
,  // measure 11
0010
0100
0001
0100
0010
0100
0001
0100
0010
0100
0001
0100
0010
0000
0011
0000
,  // measure 12
0010
1000
0100
1000
0010
1000
0100
1000
0010
1000
0100
1000
0010
0000
1010
0000
,  // measure 13
0010
0000
0100
0001
1000
0000
0001
0010
0100
1000
0010
1000
0100
0000
1100
0000
,  // measure 14
1010
0000
0000
0000
1010
0000
0000
0000
0101
0000
0000
0000
0001
0000
0010
0000
0100
0000
0000
0000
0010
0000
0000
0010
1000
0000
0000
0000
1001
0000
0000
0000
,  // measure 15
0011
0000
0011
0000
1100
0000
1000
0010
0100
0010
0100
0010
1000
0001
1000
0001
,  // measure 16
0010
0000
0000
0000
0011
0000
0000
0000
1001
0000
0000
0000
1010
0000
0000
0000
1100
0000
0000
0000
0100
0000
0000
0100
0010
0000
0100
0000
0001
0000
1000
0000
,  // measure 17
0100
0000
0110
0000
0110
0000
0010
0001
1000
0010
0100
0010
1000
0000
1010
0000
,  // measure 18
0101
0000
0000
0000
0101
0000
0000
0000
1100
0000
0000
0000
1000
0000
0100
0000
0010
0000
0000
0000
0010
0000
0000
0010
0001
0000
0000
0000
0011
0000
0000
0000
,  // measure 19
1001
0000
1001
0000
1100
0000
1000
0010
0100
0010
0100
0010
1000
0001
1000
0001
,  // measure 20
0010
0000
0000
0000
0011
0000
0000
0000
1001
0000
0000
0000
1100
0000
0000
0000
1010
0000
0000
0000
0010
0000
0000
0010
0100
0000
0000
0000
0101
0000
0000
0000
,  // measure 21
1001
0000
0000
0000
0000
0000
1100
0000
0000
0000
0000
0000
0100
0000
0000
0000
0100
0000
0010
0000
0000
0000
0010
0000
0100
0000
0000
0000
0100
0000
0010
0000
0000
0000
0010
0000
0100
0000
0000
1000
0000
0000
0100
0000
0000
0010
0000
0000
,  // measure 22
0001
0000
0000
0000
0000
0000
0011
0000
0000
0000
0000
0000
1000
0000
0000
0000
1000
0000
0001
0000
0000
0000
0001
0000
0100
0000
0000
0000
0100
0000
0010
0000
0000
0000
0010
0000
1000
0000
0000
0100
0000
0000
0010
0000
0000
0001
0000
0000
,  // measure 23
0000
0101
0000
0001
0100
0010
1000
0001
0100
0010
1000
0100
0010
0001
1000
0001
,  // measure 24
0000
0000
0000
1001
0000
0000
0000
0000
0000
1000
0000
0000
0100
0000
0000
0010
0000
0000
1000
0000
0000
0001
0000
0000
0100
0000
0000
0010
0000
0000
1000
0000
0000
0100
0000
0000
0010
0000
0001
0000
0100
0000
0010
0000
0000
1000
0000
0000
,  // measure 25
0100
0000
1100
0110
1010
0000
1100
0110
,  // measure 26
0101
0000
0000
0000
0000
0000
0011
0000
0000
0000
0000
0000
1010
0000
0000
1001
0000
0000
0101
0000
0100
0010
0000
0000
,  // measure 27
0011
0000
0101
0110
1010
0000
1010
0110
,  // measure 28
0011
0000
0000
0000
0000
0000
0101
0000
0000
0000
0000
0000
0011
0000
0000
1001
0000
0000
1010
0000
0010
0100
0000
0000
,  // measure 29
0110
0000
0101
1100
1010
0000
0110
1010
,  // measure 30
0011
0000
0000
0000
0000
0000
1010
0000
0000
0000
0000
0000
1100
0000
0000
0110
0000
0000
0011
0000
0010
0001
0000
0000
,  // measure 31
0101
0000
0110
1010
1100
0000
1010
0000
,  // measure 32
0101
0000
1100
0000
0110
0000
0101
0000
0001
0010
0100
1000
0001
0010
0100
1000
,  // measure 33
0010
0000
0000
0010
0100
0000
0000
0100
0010
0000
0000
0000
0110
0000
0000
0000
0100
0000
0001
0000
1000
0000
0100
0000
0010
0000
0000
0000
0011
0000
0000
0000
,  // measure 34
0001
0000
0000
0001
0010
0000
0000
0010
0100
0000
0000
0000
0100
0000
1000
0000
0010
0000
0100
0000
0001
0000
0000
0000
1001
0000
0000
0000
1100
0000
0000
0000
,  // measure 35
1000
0000
0000
1000
0100
0000
0000
0100
0010
0000
0001
0000
1000
0000
0001
0000
0100
0000
0001
0000
0100
0000
0001
0000
1000
0000
0001
0000
1000
0000
0001
0000
,  // measure 36
0010
0000
0011
0000
1001
0000
1010
0000
1001
0000
1000
0100
0000
0100
0010
0000
,  // measure 37
0001
0000
0000
0001
0010
0000
0000
0010
0100
0000
0000
0000
1100
0000
0000
0000
1000
0000
0100
0000
0010
0000
0100
0000
1000
0000
0000
0000
1010
0000
0000
0000
,  // measure 38
0010
0000
0000
0000
0010
0000
0100
0000
0000
0000
0100
0000
0010
0000
0000
0000
0000
0000
0010
0000
0000
0001
0000
0000
0100
0000
0000
0000
0000
0000
0100
0000
0000
0001
0000
0000
1000
0000
0000
0000
0000
0000
1001
0000
0000
0000
0000
0000
,  // measure 39
0001
0000
0000
0000
0001
0000
0010
0000
0000
0000
0010
0000
0100
0000
0000
0000
0000
0000
1100
0000
0000
0000
0000
0000
1000
0000
0000
0010
0000
0000
0100
0000
0000
0001
0000
0000
1000
0000
0000
0100
0000
0000
0010
0000
0000
0001
0000
0000
,  // measure 40
0100
0000
0000
0000
0000
0000
0000
0000
0000
0000
0000
0000
0000
0000
0000
0000
0000
0000
0100
0000
0000
0000
0000
0000
0010
0000
0000
0000
0000
0000
0000
0000
0000
0000
0000
0000
0000
0000
0000
0000
0000
0000
0010
0000
0000
0000
0000
0000
1000
0000
0000
0000
0000
0000
0000
0000
0000
0000
0000
0000
0000
0000
0000
0000
0000
0000
1000
0000
0000
0000
0000
0000
0100
0000
0000
0000
0000
0000
0000
0000
0000
0000
0000
0000
0000
0000
0000
0000
0000
0000
0100
0000
0000
0000
0000
0000
0010
0000
0000
0000
0000
0000
0000
0000
0000
0000
0000
0000
0000
0000
0000
0000
0000
0000
0010
0000
0000
0000
0000
0000
0001
0000
0000
0000
0000
0000
0000
0000
0000
0000
0000
0000
0000
0000
0000
0000
0001
0000
0000
0000
0000
0000
0000
0000
0010
0000
0000
0000
0000
0000
0000
0000
0000
0000
0000
0000
0000
0000
0000
0000
0000
0000
0000
0000
0000
0000
0000
0000
0110
0000
0000
0000
0000
0000
0000
0000
0000
0000
0000
0000
0000
0000
0000
0000
0000
0000
0000
0000
0000
0000
0000
0000
,  // measure 41
1001
2002
3003
0000
0000
0000
0000
0000
;
