#VERSION:0.83;
#TITLE:La Bamba;
#SUBTITLE:;
#ARTIST:LH MUSIC CREATION;
#TITLETRANSLIT:;
#SUBTITLETRANSLIT:;
#ARTISTTRANSLIT:;
#GENRE:;
#ORIGIN:;
#CREDIT:;
#BANNER:La Bamba.png;
#BACKGROUND:La Bamba-bg.png;
#PREVIEWVID:;
#JACKET:La Bamba-jacket.png;
#CDIMAGE:;
#DISCIMAGE:;
#LYRICSPATH:;
#CDTITLE:;
#MUSIC:La Bamba.ogg;
#OFFSET:0.000000;
#SAMPLESTART:24.825001;
#SAMPLELENGTH:15.000000;
#SELECTABLE:YES;
#BPMS:0.000=155.810;
#STOPS:;
#DELAYS:;
#WARPS:;
#TIMESIGNATURES:0.000=4=4;
#TICKCOUNTS:0.000=4;
#COMBOS:0.000=1;
#SPEEDS:0.000=1.000=0.000=0;
#SCROLLS:0.000=1.000;
#FAKES:;
#LABELS:0.000=Song Start;
#BGCHANGES:;
#KEYSOUNDS:;
#ATTACKS:
;

//---------------dance-single - ----------------
#NOTEDATA:;
#CHARTNAME:;
#STEPSTYPE:dance-single;
#DESCRIPTION:;
#CHARTSTYLE:;
#DIFFICULTY:Beginner;
#METER:3;
#RADARVALUES:0.170528,0.210623,0.108518,0.000000,0.000000,121.000000,110.000000,11.000000,0.000000,0.000000,0.000000,0.000000,0.000000,0.000000,0.170528,0.210623,0.108518,0.000000,0.000000,121.000000,110.000000,11.000000,0.000000,0.000000,0.000000,0.000000,0.000000,0.000000;
#CREDIT:;
#NOTES:
0000
0000
0000
0000
,
0000
0000
0000
0000
,
0000
0000
0000
0000
,
0000
0000
0000
0000
,
0000
0000
0000
0000
,
1000
0000
0100
0000
,
0001
0000
0100
0000
,
1000
0000
0100
0000
,
0001
0000
0110
0000
,
1000
0000
0010
0000
,
0001
0000
0010
0000
,
1000
0000
0010
0000
,
0001
0000
0110
0000
,
0100
0000
0010
0000
,
1001
0000
1000
0000
,
0100
0000
0010
0000
,
1001
0000
0001
0001
,
0000
0000
0010
0010
,
0000
0100
0000
0000
,
0100
0000
0010
0000
,
1000
0000
0010
0000
,
1000
0000
0100
0000
,
0010
0000
1000
0000
,
0001
0000
0100
0000
,
0010
0000
0001
0000
,
0100
0000
0010
0010
,
0000
0100
0000
0000
,
0100
0000
0010
0000
,
1000
0000
1000
0000
,
0010
0000
1001
0000
,
0100
0000
0010
0010
,
0000
0000
0010
0000
,
0010
0000
0100
0000
,
0001
0000
0010
0000
,
0100
0000
0100
0000
,
1000
0000
0001
0000
,
0100
0000
1000
0000
,
0110
0000
0110
0000
,
0001
0000
0000
1000
,
0000
0000
0110
0000
,
1000
0000
0000
0001
,
0000
0000
1001
0000
,
0010
0000
0000
0100
,
0000
0000
0100
0000
,
1001
0000
0001
0001
,
0000
0000
0010
0010
,
0000
0100
0000
0000
,
0100
0000
0010
0000
,
1000
0000
0010
0000
,
1000
0000
0100
0000
,
0010
0000
1000
0000
,
0001
0000
0100
0000
,
0010
0000
0001
0000
,
0100
0000
0001
0000
,
0010
0000
1000
0000
,
0100
0000
1000
0000
,
0010
0000
0001
0000
,
0010
0000
0001
0000
,
0100
0000
1000
0000
,
0010
0000
1000
0000
,
0100
0000
0001
0000
,
1001
0000
0000
0000
;

//---------------dance-single - ----------------
#NOTEDATA:;
#CHARTNAME:;
#STEPSTYPE:dance-single;
#DESCRIPTION:;
#CHARTSTYLE:;
#DIFFICULTY:Easy;
#METER:5;
#RADARVALUES:0.266362,0.336405,0.335418,0.019730,0.000000,189.000000,155.000000,34.000000,2.000000,0.000000,0.000000,0.000000,0.000000,0.000000,0.266362,0.336405,0.335418,0.019730,0.000000,189.000000,155.000000,34.000000,2.000000,0.000000,0.000000,0.000000,0.000000,0.000000;
#CREDIT:;
#NOTES:
0000
0000
0000
0000
,
0000
0000
0000
0000
,
0000
0000
0000
0000
,
0000
0000
0000
0000
,
0000
0000
0000
0000
,
1000
0000
0100
0000
,
0001
0000
0100
0000
,
1000
0000
0100
0000
,
0001
0000
0110
0000
,
1000
0000
0010
0000
,
0001
0000
0010
0000
,
1000
0000
0010
0000
,
0001
0000
0110
0000
,
0100
0000
0010
0001
,
1001
0000
1000
0000
,
0100
0000
0010
1000
,
1001
0000
0001
0001
,
0100
0000
0010
1010
,
0001
0100
0010
0000
,
0100
0000
0010
0011
,
1000
0100
0010
0000
,
1000
0000
0100
0110
,
0010
0001
1000
0000
,
0001
0000
0100
0110
,
0010
1000
0001
0000
,
0100
0000
0010
1010
,
0001
0100
0001
0000
,
0100
0000
0010
0011
,
1000
0100
1000
0000
,
0010
0000
1001
0000
,
0100
0000
0010
0010
,
0100
0000
0010
1000
,
1010
0000
0100
0001
,
0101
0000
0010
0001
,
0011
0000
0100
1000
,
1100
0000
0001
0010
,
0011
0000
1000
1001
,
0110
0000
0110
0000
,
0001
1000
0000
1000
,
0110
0000
0110
0000
,
1000
0001
0000
0001
,
1001
0000
1001
0000
,
0010
0100
0000
0100
,
1001
0000
0100
0000
,
1001
0000
0001
0001
,
0100
0000
0010
1010
,
0001
0100
0010
0000
,
0100
0000
0010
0011
,
1000
0100
0010
0000
,
1000
0000
0100
0110
,
0010
0001
1000
0000
,
0001
0000
0100
0110
,
0010
1000
0001
0000
,
0100
0000
0001
1001
,
0010
0100
1000
0000
,
0100
0000
1000
1001
,
0010
0100
0001
0000
,
0010
0000
0001
1001
,
0100
0010
1000
0000
,
0010
0000
1000
1001
,
0100
0010
0001
0000
,
2002
0000
0000
0000
,
3003
0000
0000
0000
;

//---------------dance-single - ----------------
#NOTEDATA:;
#CHARTNAME:;
#STEPSTYPE:dance-single;
#DESCRIPTION:;
#CHARTSTYLE:;
#DIFFICULTY:Medium;
#METER:8;
#RADARVALUES:0.436889,0.428151,0.621510,0.019730,0.019730,310.000000,247.000000,63.000000,2.000000,0.000000,0.000000,0.000000,0.000000,0.000000,0.436889,0.428151,0.621510,0.019730,0.019730,310.000000,247.000000,63.000000,2.000000,0.000000,0.000000,0.000000,0.000000,0.000000;
#CREDIT:;
#NOTES:
0000
0000
0000
0000
,
0000
0000
0000
0000
,
0000
0000
0000
0000
,
0000
0000
0000
0000
,
0000
0000
0000
0000
,
0100
1000
0100
0001
,
0100
1000
0100
0001
,
0010
1000
0010
0001
,
0010
1000
0010
1001
,
0100
1000
0100
0001
,
0100
1000
0100
0001
,
0010
1000
0010
0001
,
0010
0000
1000
0000
0000
0010
0001
0000
,
1001
0000
0100
0000
0010
0000
0001
1001
,
0000
0100
0000
0100
0000
0010
0000
0010
,
0110
0000
0001
0000
0010
0100
0000
0110
,
0000
1000
0100
0000
1000
0000
1000
0000
,
0101
0000
0010
1000
0001
0100
0000
0000
,
0100
1010
0100
1010
,
0011
0000
0100
1000
0001
0010
0000
0000
,
0010
1100
0010
1100
,
1010
0000
0100
0001
1000
0010
0000
0000
,
0010
0101
0010
0101
,
1100
0000
0010
0001
1000
0100
0000
0000
,
0100
0011
0100
0011
,
0110
0000
1000
0100
0010
0001
0000
0000
,
0010
1001
0100
1001
,
0110
0000
1000
0010
0100
0001
0000
0000
,
0100
1001
0010
1001
,
0110
0000
0001
0000
0110
0000
1000
0100
,
0000
0000
0010
0000
0000
0010
0000
0000
0100
0000
0000
0100
0000
0000
1000
0000
,
0100
0000
0011
0000
0100
0000
0001
0100
,
0000
0000
0010
0000
0000
0010
0000
0000
0100
0000
0000
0100
0000
0000
0001
0000
,
0100
0000
1010
0000
0100
0000
1000
0100
,
0000
0000
0010
0000
0011
0000
0001
1000
,
0000
0000
0010
0000
1010
0000
1000
0001
,
0000
0100
0000
0010
0000
1000
0000
0001
,
0100
0101
0100
1100
,
0010
0001
0010
0001
,
0100
1100
0100
0101
,
0010
1000
0010
1000
,
0010
0011
0010
1010
,
0100
0001
0100
0001
,
0110
1000
0110
0001
,
1001
1000
0100
0000
1000
0000
1000
0000
,
0101
0000
0010
1000
0001
0100
0000
0000
,
0100
1010
0100
1010
,
0011
0000
0100
1000
0001
0010
0000
0000
,
0010
1100
0010
1100
,
1010
0000
0100
0001
1000
0010
0000
0000
,
0010
0101
0010
0101
,
1100
0000
0010
0001
1000
0100
0000
0000
,
0100
0011
0100
0011
,
0110
0000
1000
0100
0010
0001
0000
0000
,
0010
0101
0010
1100
,
0110
0000
0001
0100
0010
1000
0000
0000
,
0010
1100
0010
0101
,
0110
0000
1000
0010
0100
0001
0000
0000
,
0100
0011
0100
1010
,
0110
0000
0001
0010
0100
1000
0000
0000
,
0100
1010
0100
0011
,
2002
0000
0000
0000
,
3003
0000
0000
0000
;

//---------------dance-single - ----------------
#NOTEDATA:;
#CHARTNAME:;
#STEPSTYPE:dance-single;
#DESCRIPTION:;
#CHARTSTYLE:;
#DIFFICULTY:Hard;
#METER:11;
#RADARVALUES:0.543998,0.611645,0.572184,0.019730,0.019730,386.000000,328.000000,58.000000,2.000000,0.000000,0.000000,0.000000,0.000000,0.000000,0.543998,0.611645,0.572184,0.019730,0.019730,386.000000,328.000000,58.000000,2.000000,0.000000,0.000000,0.000000,0.000000,0.000000;
#CREDIT:;
#NOTES:
0000
0000
0000
0000
,
0000
0000
0000
0000
,
0000
0000
0000
0000
,
0000
0000
0000
0000
,
0000
0000
0000
0000
,
1000
0000
0001
0010
0000
0010
0001
0001
,
1000
0000
0001
0100
0000
0100
0001
0001
,
0100
0000
0010
1000
0000
1000
0100
0100
,
0010
0000
0100
0001
0000
0001
0100
0100
,
1000
0000
0001
0010
0000
0010
0001
0001
,
1000
0000
0001
0100
0000
0100
0001
0001
,
0100
0000
0010
1000
0000
1000
0100
0100
,
0010
0000
0100
0001
0000
0100
0001
1000
,
0010
0000
0100
0001
0100
0000
1000
0100
,
0000
0100
1000
0001
0010
0001
0010
0100
,
1100
0000
0010
0001
0010
1000
0000
0010
,
0000
0001
0100
0001
0100
0000
0001
1000
,
1100
0000
0010
0001
0100
0010
0000
1010
,
0000
1000
0100
1000
0100
0000
1000
0001
,
0101
0000
0010
1000
0100
0010
0000
0011
,
0000
0100
0000
1000
0010
0100
0000
0001
,
1100
0000
0010
0001
0010
0100
0000
1001
,
0000
1000
0000
0001
0100
0001
0000
1000
,
0101
0000
0010
1000
0010
0100
0000
1001
,
0000
0001
0000
1000
0100
1000
0000
0001
,
1100
0000
0010
0100
0001
1000
0000
1010
,
0000
0100
0000
0001
0100
0010
0000
1000
,
0101
0000
0010
0100
1000
0001
0000
0011
,
0000
0000
0110
0000
1100
0000
0001
0100
,
0001
0000
0110
0000
0101
0000
0010
1010
,
0000
0000
0001
0000
0000
0001
0000
0000
1000
0000
0000
1000
0000
0000
0100
0000
,
0011
0000
0100
0010
0100
1000
0000
1010
,
0000
0000
1000
0000
0000
1000
0000
0000
0001
0000
0000
0001
0000
0000
0100
0000
,
1010
0000
0100
0010
0100
0001
0000
0011
,
0000
0000
0100
0010
0101
0000
0010
1000
,
1010
0000
0100
0010
1100
0000
0010
0001
,
0011
0100
1000
0100
0010
0100
0001
0100
,
1010
0000
0001
0100
0011
1000
0100
1010
,
0000
0101
0000
0010
1000
0001
1000
0000
,
0011
0000
1000
0100
1010
0001
0100
0011
,
0000
1100
0000
0010
0001
1000
0001
0000
,
1100
0000
0001
0010
0101
1000
0010
1100
,
0000
0011
0000
0100
1000
0001
1010
0000
,
0101
0000
0010
1000
0010
0000
0001
0000
,
1001
1000
0100
1000
0100
0000
1000
0001
,
0101
0000
0010
1000
0100
0010
0000
0011
,
0000
0001
0100
0001
0100
0000
0001
1000
,
1100
0000
0010
0001
0100
0010
0000
1010
,
0000
0100
0000
0001
0010
0100
0000
1000
,
0101
0000
0010
1000
0010
0100
0000
1001
,
0000
0001
0000
1000
0100
1000
0000
0001
,
1100
0000
0010
0001
0010
0100
0000
1001
,
0000
1000
0000
0001
0100
0001
1000
0001
,
0110
0000
0010
1000
0100
0010
0000
0011
,
0000
0100
1000
0100
0001
0100
1000
0000
,
0110
0000
0100
1000
0010
0100
0000
0101
,
0000
0010
1000
0010
0001
0010
1000
0000
,
0110
0000
0010
0001
0100
0010
0000
1010
,
0000
0100
0001
0100
1000
0100
0001
0000
,
0110
0000
0100
0001
0010
0100
0000
1100
,
0000
0010
0001
0010
1000
0010
0001
0000
,
2002
0000
0000
0000
,
3003
0000
0000
0000
;

//---------------dance-double - ----------------
#NOTEDATA:;
#CHARTNAME:;
#STEPSTYPE:dance-double;
#DESCRIPTION:;
#CHARTSTYLE:;
#DIFFICULTY:Easy;
#METER:6;
#RADARVALUES:0.264952,0.336405,0.325553,0.019730,0.000000,188.000000,155.000000,33.000000,2.000000,0.000000,0.000000,0.000000,0.000000,0.000000,0.264952,0.336405,0.325553,0.019730,0.000000,188.000000,155.000000,33.000000,2.000000,0.000000,0.000000,0.000000,0.000000,0.000000;
#CREDIT:;
#NOTES:
00000000
00000000
00000000
00000000
,
00000000
00000000
00000000
00000000
,
00000000
00000000
00000000
00000000
,
00000000
00000000
00000000
00000000
,
00000000
00000000
00000000
00000000
,
00010000
00000000
01000000
00000000
,
00010000
00000000
00001000
00000000
,
00010000
00000000
00100000
00000000
,
00010000
00000000
00001000
00000000
,
00001000
00000000
00000100
00000000
,
00001000
00000000
00010000
00000000
,
00001000
00000000
00000010
00000000
,
00001000
00000000
00010000
00000000
,
01000000
00000000
00100000
00001000
,
00011000
00000000
00000100
00000000
,
00000001
00000000
00000010
00001000
,
00011000
00000000
00010000
00010000
,
01000000
00000000
10000000
10010000
,
00100000
10000000
01000000
00000000
,
00010000
00000000
00001000
00011000
,
00000010
00000001
00001000
00000000
,
00000100
00000000
00000001
00001001
,
00000010
00000001
00000100
00000000
,
00001000
00000000
00010000
00011000
,
00100000
10000000
00010000
00000000
,
01000000
00000000
00001000
00011000
,
00000010
00001000
00000010
00000000
,
00000001
00000000
00001000
00000101
,
00001000
00010000
00100000
00000000
,
01000000
00000000
10010000
00000000
,
01000000
00000000
00010000
00010000
,
00001000
00000000
00000010
00000001
,
00000011
00000000
00000100
00001000
,
00001100
00000000
00001000
00010000
,
00011000
00000000
01000000
10000000
,
11000000
00000000
00100000
00010000
,
00110000
00000000
00010000
00011000
,
00010100
00000000
00011000
00000000
,
00001000
01000000
00000000
00001000
,
01001000
00000000
00011000
00000000
,
00010000
00000100
00000000
00010000
,
00010010
00000000
00011000
00000000
,
01001000
00010000
00000000
00001000
,
00011000
00000000
00010000
00000000
,
00011000
00000000
00001000
00001000
,
00000100
00000000
00000001
00001001
,
00000010
00000001
00000100
00000000
,
00001000
00000000
00010000
00011000
,
00100000
10000000
00010000
00000000
,
01000000
00000000
10000000
10010000
,
00100000
10000000
01000000
00000000
,
00010000
00000000
00001000
00011000
,
00000010
00000001
00001000
00000000
,
00000100
00000000
00010000
00011000
,
00100000
00010000
00001000
00000000
,
01000000
00000000
00001000
00011000
,
00000010
00001000
00010000
00000000
,
00000010
00000000
00010000
00011000
,
01000000
00010000
00001000
00000000
,
00100000
00000000
00001000
00011000
,
00000100
00001000
00010000
00000000
,
00022000
00000000
00000000
00000000
,
00033000
00000000
00000000
00000000
;

//---------------dance-double - ----------------
#NOTEDATA:;
#CHARTNAME:;
#STEPSTYPE:dance-double;
#DESCRIPTION:;
#CHARTSTYLE:;
#DIFFICULTY:Medium;
#METER:8;
#RADARVALUES:0.445345,0.458734,0.680702,0.019730,0.019730,316.000000,247.000000,69.000000,2.000000,0.000000,0.000000,0.000000,0.000000,0.000000,0.445345,0.458734,0.680702,0.019730,0.019730,316.000000,247.000000,69.000000,2.000000,0.000000,0.000000,0.000000,0.000000,0.000000;
#CREDIT:;
#NOTES:
00000000
00000000
00000000
00000000
,
00000000
00000000
00000000
00000000
,
00000000
00000000
00000000
00000000
,
00000000
00000000
00000000
00000000
,
00000000
00000000
00000000
00000000
,
01000000
00010000
00001000
00001000
,
00000100
00001000
00010000
00010000
,
01000000
00010000
00001000
00001000
,
00000100
00001000
00010000
00011000
,
00100000
00010000
00001000
00001000
,
00000010
00001000
00010000
00010000
,
00100000
00010000
00001000
00001000
,
00000010
00001000
00011000
00010000
,
01000000
00000000
00100000
00000000
00001000
00000000
00010000
00011000
,
00000000
00000100
00000000
00000100
00000000
00000001
00000000
00001000
,
00000100
00000000
00000010
00000000
00001000
00010000
00000000
00011000
,
00000000
00100000
10000000
00000000
01000000
00000000
01000000
00000000
,
01100000
00000000
00010000
00001000
00010000
00000100
00000000
00000000
,
00000010
00000110
00010000
00011000
,
00101000
00000000
01000000
10000000
00010000
00100000
00000000
00000000
,
00001000
00011000
00010000
00010100
,
00000110
00000000
00001000
00010000
00001000
01000000
00000000
00000000
,
00100000
01100000
00001000
00011000
,
00010010
00000000
00000100
00000001
00001000
00000010
00000000
00000000
,
00010000
00011000
00001000
01001000
,
01100000
00000000
00010000
00001000
00010000
00000010
00000000
00000000
,
00000100
00000110
00010000
00011000
,
01001000
00000000
00100000
10000000
00010000
01000000
00000000
00000000
,
00001000
00011000
00010000
00010010
,
00011000
00000000
01001000
00000000
00011000
00000000
00010000
00000100
,
00000000
00000000
00010000
00000000
00000000
00010000
00000000
00000000
00001000
00000000
00000000
00001000
00000000
00000000
00000100
00000000
,
00000001
00000000
00000101
00000000
00001000
00000000
00010000
00001000
,
00000000
00000000
00010000
00000000
00000000
00010000
00000000
00000000
00001000
00000000
00000000
00001000
00000000
00000000
00000010
00000000
,
00000001
00000000
00000011
00000000
00001000
00000000
00010000
00001000
,
00000000
00000000
01000000
00000000
01010000
00000000
00100000
00010000
,
00000000
00000000
00001000
00000000
00011000
00000000
00000100
00000010
,
00000000
00000001
00000000
00000100
00000000
00001000
00000000
00010000
,
00001000
00011000
00001000
01001000
,
00001000
00011000
00001000
01001000
,
00010000
00011000
00010000
00010100
,
00010000
00011000
00010000
00010100
,
00001000
00011000
00001000
01001000
,
00010000
00011000
00010000
00010100
,
00000110
00000001
00000110
00001000
,
00001001
00000010
00000001
00000000
00000100
00000000
00000100
00000000
,
00000110
00000000
00001000
00010000
00001000
01000000
00000000
00000000
,
00100000
01100000
00001000
00011000
,
00010010
00000000
00000100
00000001
00001000
00000010
00000000
00000000
,
00010000
00011000
00001000
01001000
,
01100000
00000000
00010000
00001000
00010000
00000100
00000000
00000000
,
00000010
00000110
00010000
00011000
,
00101000
00000000
01000000
10000000
00010000
00100000
00000000
00000000
,
00001000
00011000
00010000
00010100
,
00000110
00000000
00001000
00010000
00001000
00100000
00000000
00000000
,
01000000
01100000
00001000
00011000
,
00010100
00000000
00000010
00000001
00001000
00000100
00000000
00000000
,
00000110
00000100
00010100
00001000
,
01001000
00000000
00100000
10000000
00010000
01000000
00000000
00000000
,
01100000
01000000
01001000
00010000
,
00010010
00000000
00000100
00000001
00001000
00000010
00000000
00000000
,
00000110
00000010
00010010
00001000
,
00022000
00000000
00000000
00000000
,
00033000
00000000
00000000
00000000
;

//---------------dance-double - ----------------
#NOTEDATA:;
#CHARTNAME:;
#STEPSTYPE:dance-double;
#DESCRIPTION:;
#CHARTSTYLE:;
#DIFFICULTY:Hard;
#METER:12;
#RADARVALUES:0.542588,0.611645,0.562319,0.019730,0.019730,385.000000,328.000000,57.000000,2.000000,0.000000,0.000000,0.000000,0.000000,0.000000,0.542588,0.611645,0.562319,0.019730,0.019730,385.000000,328.000000,57.000000,2.000000,0.000000,0.000000,0.000000,0.000000,0.000000;
#CREDIT:;
#NOTES:
00000000
00000000
00000000
00000000
,
00000000
00000000
00000000
00000000
,
00000000
00000000
00000000
00000000
,
00000000
00000000
00000000
00000000
,
00000000
00000000
00000000
00000000
,
00100000
00000000
00010000
10000000
00000000
01000000
00010000
00010000
,
00001000
00000000
00000100
00000001
00000000
00000010
00001000
00001000
,
01000000
00000000
00010000
10000000
00000000
00100000
00010000
00010000
,
00001000
00000000
00000010
00000001
00000000
00000100
00001000
00001000
,
00100000
00000000
00010000
10000000
00000000
01000000
00010000
00010000
,
00001000
00000000
00000100
00000001
00000000
00000010
00001000
00001000
,
01000000
00000000
00010000
10000000
00000000
00100000
00010000
00010000
,
00001000
00000000
00000010
00000001
00000100
00001000
00010000
00011000
,
01000000
00000000
10000000
00010000
10000000
00000000
00100000
10000000
,
00000000
01000000
00100000
00010000
00001000
00010000
00000100
00000010
,
00000011
00000000
00000100
00000010
00001000
00010000
00000000
00011000
,
00000000
00100000
01000000
10000000
00010000
00000000
10000000
01000000
,
01100000
00000000
00010000
00001000
00000100
00001000
00000000
00011000
,
00000000
00000010
00000100
00000001
00001000
00000000
00000001
00000100
,
00000110
00000000
00001000
00010000
01000000
00010000
00000000
00011000
,
00000000
01000000
00000000
00100000
00010000
00001000
00000000
00010000
,
00010100
00000000
00000010
00000001
00000010
00000100
00000000
00011000
,
00000000
00000100
00000010
00000000
00000001
00001000
00000000
00000100
,
00000110
00000000
00001000
00010000
00100000
00010000
00000000
00011000
,
00000000
00100000
00000000
01000000
00010000
00001000
00000000
00010000
,
00010010
00000000
00000100
00000001
00000100
00000010
00000000
00011000
,
00000000
01000000
00000000
00100000
00010000
00001000
00000000
00010000
,
00010010
00000000
00000100
00000001
00001000
00000010
00000000
00011000
,
00000000
00000000
01001000
00000000
01010000
00000000
00100000
10000000
,
01000000
00000000
01100000
00000000
00101000
00000000
00010000
00011000
,
00000000
00000000
00001000
00000000
00000000
00001000
00000000
00000000
00000100
00000000
00000000
00000100
00000000
00000000
00000010
00000000
,
00001010
00000000
00000100
00001000
00010000
00001000
00000000
00011000
,
00000000
00000000
00010000
00000000
00000000
00010000
00000000
00000000
01000000
00000000
00000000
01000000
00000000
00000000
00100000
00000000
,
00110000
00000000
01000000
00010000
00001000
00010000
00000000
00011000
,
00000000
00000000
00000100
00000010
00001100
00000000
00000010
00010000
,
00011000
00000000
01000000
00100000
01010000
00000000
00100000
00001000
,
00011000
00010000
01000000
00010000
00001000
00000100
00001000
00010000
,
00011000
00000000
00000100
00000010
00001010
00010000
00001000
01001000
,
00000000
00110000
00000000
00001000
00010000
00000100
00010000
00000000
,
00011000
00000000
01000000
00100000
00110000
00001000
00010000
00010100
,
00000000
00001010
00000000
00010000
00001000
01000000
00001000
00000000
,
00011000
00000000
00000010
00000100
00001100
00010000
00001000
00101000
,
00000000
01010000
00000000
00001000
00010000
00000010
00010000
00000000
,
00011000
00000000
00000100
00000010
00001000
00000000
00010000
00000000
,
00011000
00100000
01000000
10000000
00010000
00000000
10000000
01000000
,
01100000
00000000
00010000
00001000
00000100
00001000
00000000
00011000
,
00000000
00000010
00000100
00000001
00001000
00000000
00000001
00000100
,
00000110
00000000
00001000
00010000
01000000
00010000
00000000
00011000
,
00000000
01000000
00000000
00100000
00010000
00001000
00000000
00010000
,
00010100
00000000
00000010
00000001
00000010
00000100
00000000
00011000
,
00000000
00000100
00000010
00000000
00000001
00001000
00000000
00000100
,
00000110
00000000
00001000
00010000
00100000
00010000
00000000
00011000
,
00000000
00100000
00000000
01000000
00010000
00001000
00000000
00010000
,
00010010
00000000
00000100
00000001
00000100
00000010
00000000
00011000
,
00000000
01000000
00000000
00100000
00010000
00001000
01000000
00001000
,
00010000
00000000
00000100
00000010
00001000
00010000
00000000
00011000
,
00000000
00000100
00000000
00000010
00001000
00010000
00000100
00010000
,
00001000
00000000
01000000
00100000
00010000
00001000
00000000
00011000
,
00010000
00000000
00000010
00000100
00001000
00010000
00000000
00011000
,
00000000
00000010
00000000
00000100
00001000
00010000
00000010
00010000
,
00001000
00000000
00100000
01000000
00010000
00001000
00000000
00011000
,
00022000
00000000
00000000
00000000
,
00033000
00000000
00000000
00000000
;

//---------------dance-single - ----------------
#NOTEDATA:;
#CHARTNAME:;
#STEPSTYPE:dance-single;
#DESCRIPTION:;
#CHARTSTYLE:;
#DIFFICULTY:Challenge;
#METER:17;
#RADARVALUES:1.116182,1.091157,0.138113,0.355149,1.667226,792.000000,778.000000,14.000000,36.000000,0.000000,0.000000,0.000000,0.000000,0.000000,1.116182,1.091157,0.138113,0.355149,1.667226,792.000000,778.000000,14.000000,36.000000,0.000000,0.000000,0.000000,0.000000,0.000000;
#CREDIT:;
#NOTES:
// measure 0
0000
0000
0000
0000
,  // measure 1
0000
0000
0000
0000
,  // measure 2
0000
0000
0000
0000
,  // measure 3
0000
0000
0000
0000
,  // measure 4
0000
0000
0000
0000
,  // measure 5
1000
0010
0000
0010
1000
0000
0001
0010
0000
0010
0001
0000
0100
0001
1000
0000
,  // measure 6
0001
0100
0000
0100
0001
0000
1000
0100
0000
0100
1000
0000
0001
1000
0100
0000
,  // measure 7
0010
0001
0000
0001
0100
0000
0010
1000
0000
1000
0100
0000
0010
0100
0010
0000
,  // measure 8
0100
1000
0000
1000
0100
0000
0100
0001
0000
0001
0100
0000
0001
1000
0001
0000
,  // measure 9
1000
0100
0010
0001
1000
0010
0100
0001
1000
0100
0010
0001
0010
0100
1000
0000
,  // measure 10
0001
0100
0010
1000
0001
0010
0100
1000
0100
0010
0001
1000
0010
0100
0001
0000
,  // measure 11
0010
0001
0100
0010
1000
0001
0100
0010
1000
0001
0010
0100
1000
0001
0100
0000
,  // measure 12
0010
0001
1000
0010
0001
0100
0001
0010
1000
0000
0100
0000
0010
0000
0001
0000
,  // measure 13
0101
0000
1010
0000
1000
0001
0100
0010
,  // measure 14
0000
0010
1000
0001
0100
0010
1000
0100
,  // measure 15
0010
0000
0000
0000
0001
0000
0000
0000
0010
0000
0000
0000
0001
0000
0000
0000
0100
0000
0000
0000
0010
0000
0000
0000
1000
0000
0000
0001
0000
0000
0100
0000
0000
0010
0000
0000
1000
0000
0000
0001
0000
0000
0100
0000
0000
0010
0000
0000
,  // measure 16
2000
0000
0000
0000
0000
0000
0100
0000
0000
0000
0000
0000
0010
0000
0000
0000
0000
0000
3100
0000
0000
0000
0000
0000
1000
0000
0000
0000
0000
0000
0001
0000
0000
0000
0000
0000
0100
0000
0010
0000
0100
0000
0010
0000
0000
0100
0000
0000
,  // measure 17
0001
0010
0100
0000
0010
0100
0001
0000
0010
1000
0100
0001
0010
0001
1000
0010
,  // measure 18
0200
0000
0001
0000
1000
0000
0010
0000
0301
1000
0010
0100
0001
1000
0100
0010
,  // measure 19
0001
0100
0010
0000
1000
0010
0100
0000
1000
0100
0010
0001
0100
0010
2000
0000
,  // measure 20
0000
0000
3010
0000
1000
0100
0010
0001
0100
0000
0001
0100
0000
1000
0100
0010
,  // measure 21
0002
0000
0010
0000
1003
0000
0001
0000
1000
0010
0100
0001
1000
0100
0010
0001
,  // measure 22
0200
0000
0010
0000
1000
0000
0301
0000
0010
0001
0000
0100
0001
1000
0100
0010
,  // measure 23
0001
0010
1000
0001
0100
0010
1000
0100
,  // measure 24
0000
0000
1100
0000
0000
0000
1000
0100
1000
0000
0001
0100
0010
1000
0100
0000
,  // measure 25
0010
0001
0100
0000
0010
1000
0100
0000
0001
0100
0010
1000
0100
0000
0010
0000
,  // measure 26
0001
0100
0010
0000
1000
0010
0100
0000
1000
0010
0100
0001
0010
0000
0100
0000
,  // measure 27
0001
0010
1000
0000
1000
0100
0010
0000
0001
0100
0010
1000
0001
0000
0010
0000
,  // measure 28
1000
0010
0100
0000
1010
0000
0001
0100
,  // measure 29
0010
0000
1010
0000
1001
0000
0001
1000
,  // measure 30
0100
0000
0000
0000
0000
0000
0000
0000
0010
0000
0000
0000
0000
0000
0000
0000
0100
0000
0000
0000
0000
0000
0000
0000
0010
0000
0000
0000
0000
0000
0000
0000
0001
0000
0000
0000
0000
0000
0000
0000
1000
0000
0000
0000
0000
0001
0000
0000
,  // measure 31
1000
0001
1000
0000
0001
1000
0001
0000
1000
0100
0010
0001
0100
0000
0010
0000
,  // measure 32
0001
0100
0001
0000
0010
1000
0010
0000
0001
0100
0010
1000
0100
0000
0010
0000
,  // measure 33
1000
0010
1000
0000
0010
0100
0010
0000
1000
0010
0100
0010
0001
0000
1000
0000
,  // measure 34
0010
0000
0101
0000
1100
0000
0010
1000
,  // measure 35
0100
0000
1010
0000
0101
0000
0001
0010
,  // measure 36
1000
0000
0000
0000
0000
0000
0001
0000
1000
0000
0001
0000
1000
0000
0000
0100
0000
0000
0010
0000
0000
0001
0000
0000
0100
0000
0000
0000
0000
0000
1000
0000
0100
0000
1000
0000
0100
0000
0000
0000
0000
0000
0010
0000
0000
0000
0000
0000
,  // measure 37
0001
0010
0001
0010
0001
0010
0001
0010
0100
1000
0100
1000
0100
1000
0100
1000
,  // measure 38
0001
0000
0010
0000
0001
0000
0010
0000
0000
0001
0000
0000
0100
0000
1000
0000
0100
0000
1000
0000
0000
0100
0000
0000
0010
0000
0000
0001
0000
0000
1000
0000
0000
0000
0000
0000
1001
0000
0000
0000
0000
0000
0001
0000
0000
0000
0000
0000
,  // measure 39
1000
0100
1000
0100
1000
0100
1000
0100
0010
0001
0010
0001
0010
0001
0010
0001
,  // measure 40
1000
0000
0100
0000
1000
0000
0100
0000
0000
1000
0000
0000
0010
0000
0001
0000
0010
0000
0001
0000
0000
0010
0000
0000
0001
0000
0000
0100
0000
0000
0010
0000
0000
0000
0000
0000
0110
0000
0000
0000
0000
0000
0100
0000
0000
0000
0000
0000
,  // measure 41
0010
1000
0010
0100
0010
1000
0010
0100
0001
0010
0100
0010
0001
0010
0100
0010
,  // measure 42
0001
0000
0010
0000
0001
0000
0010
0000
0000
0100
0000
0000
1000
0000
0001
0000
1000
0000
0001
0000
0000
1000
0000
0000
0100
0000
0000
0000
0000
0000
0000
0000
0000
0000
0000
0000
1001
0000
0000
0000
0000
0000
0000
0000
0000
0000
0000
0000
,  // measure 43
0110
0000
0000
1000
0000
0000
0001
0000
0000
0100
0000
0000
0010
0000
0001
0000
0100
0000
0010
0000
1000
0000
0001
0000
,  // measure 44
0100
0010
1000
0001
0010
0001
0100
0010
1000
0100
0010
0001
1000
0001
0100
0010
,  // measure 45
1000
0100
0010
0001
1000
0010
0100
0001
1000
0100
0010
0001
1000
0010
0100
0001
,  // measure 46
1000
0100
0010
0001
0010
1000
0001
0100
0010
1000
0001
0010
1000
0100
0010
0001
,  // measure 47
1000
0010
0001
0100
0010
1000
0001
0010
0001
0100
0010
1000
0001
0010
1000
0010
,  // measure 48
0100
0001
1000
0010
0100
0001
0010
1000
0001
0100
0010
1000
0001
0100
0010
1000
,  // measure 49
0100
0001
1000
0010
0001
0100
0010
0100
1000
0010
0001
0100
0010
0001
1000
0010
,  // measure 50
0100
0001
1000
0010
0100
0001
0010
0001
0100
0010
1000
0001
0010
0100
0001
1000
,  // measure 51
0100
0010
0001
1000
0010
0100
0001
0010
0001
0100
0010
1000
0001
0010
0100
1000
,  // measure 52
0001
0100
0010
1000
0001
0010
0100
1000
0001
0100
0010
1000
0001
0010
1000
0100
,  // measure 53
0020
0031
1000
0010
0200
0301
1000
0100
0020
0031
0100
0010
2000
3001
0010
0100
,  // measure 54
2000
3010
0100
0001
0020
0031
0100
0010
0200
1300
0010
0100
0002
0013
0100
1000
,  // measure 55
0002
0013
0100
1000
0200
0310
1000
0001
0020
0031
0100
0010
2000
3010
0100
0001
,  // measure 56
2000
3100
0010
0001
0200
0310
1000
0001
0020
0031
0100
0010
0002
1003
0010
0100
,  // measure 57
0002
0013
1000
0100
0020
0031
0100
0010
2000
3001
0100
0010
0200
0310
1000
0001
,  // measure 58
0200
0310
1000
0001
0020
0031
0100
0010
2000
3001
0010
0100
0002
0013
0100
1000
,  // measure 59
0002
0103
0010
1000
0200
0310
1000
0001
0020
0031
0100
0010
2000
3010
0001
0100
,  // measure 60
0020
0000
0000
1030
0000
0000
0100
0000
0000
0010
0000
0000
0002
0000
0000
0103
0000
0000
0010
0000
0000
1000
0000
0000
0001
0000
0000
0000
0010
0000
0000
0000
0100
0000
0000
0000
1000
0000
0000
0000
0100
0000
0000
0000
0010
0000
0000
0000
,  // measure 61
0001
0010
0001
0010
1000
0010
1000
0010
0001
0010
1000
0010
1000
0010
0001
0010
,  // measure 62
1000
0100
1000
0100
0001
0100
0001
0100
1000
0100
0001
0100
0001
0100
1000
0100
,  // measure 63
0001
0010
0100
0010
0001
0100
0010
0100
0001
0010
0100
0010
0001
0100
0010
0100
,  // measure 64
1000
0010
0100
0010
1000
0100
0010
0100
1000
0010
0100
0010
1000
0100
0010
0001
,  // measure 65
0200
0300
0000
0000
0000
0000
0000
0000
0000
0000
0000
0000
0000
0000
0000
0000
;
