#VERSION:0.83;
#TITLE:LOVE AT FIRSTSIGHT(TwinMasterplan Mix);
#SUBTITLE:;
#ARTIST:KYLIE MINOGUE;
#TITLETRANSLIT:;
#SUBTITLETRANSLIT:;
#ARTISTTRANSLIT:;
#GENRE:;
#ORIGIN:;
#CREDIT:;
#BANNER:LOVE AT FIRSTSIGHT(TwinMasterplan Mix).png;
#BACKGROUND:LOVE AT FIRSTSIGHT(TwinMasterplan Mix)-bg.png;
#PREVIEWVID:;
#JACKET:LOVE AT FIRSTSIGHT(TwinMasterplan Mix)-jacket.png;
#CDIMAGE:;
#DISCIMAGE:;
#LYRICSPATH:;
#CDTITLE:;
#MUSIC:LOVE AT FIRSTSIGHT(TwinMasterplan Mix).ogg;
#OFFSET:0.000000;
#SAMPLESTART:31.379999;
#SAMPLELENGTH:15.000000;
#SELECTABLE:YES;
#BPMS:0.000=130.000;
#STOPS:;
#DELAYS:;
#WARPS:;
#TIMESIGNATURES:0.000=4=4;
#TICKCOUNTS:0.000=4;
#COMBOS:0.000=1;
#SPEEDS:0.000=1.000=0.000=0;
#SCROLLS:0.000=1.000;
#FAKES:;
#LABELS:0.000=Song Start;
#BGCHANGES:;
#KEYSOUNDS:;
#ATTACKS:
;

//---------------dance-single - ----------------
#NOTEDATA:;
#CHARTNAME:;
#STEPSTYPE:dance-single;
#DESCRIPTION:;
#CHARTSTYLE:;
#DIFFICULTY:Beginner;
#METER:3;
#RADARVALUES:0.138078,0.214177,0.043934,0.000000,0.000000,88.000000,84.000000,4.000000,0.000000,0.000000,0.000000,0.000000,0.000000,0.000000,0.138078,0.214177,0.043934,0.000000,0.000000,88.000000,84.000000,4.000000,0.000000,0.000000,0.000000,0.000000,0.000000,0.000000;
#CREDIT:;
#NOTES:
0000
0000
0000
0000
,
0000
0000
0000
0000
,
0000
0000
0000
0000
,
0010
0000
0010
0000
,
0100
0000
0010
0000
,
0100
0000
0010
0000
,
0100
0000
0100
0000
,
0100
0000
0100
0000
,
0010
0000
0100
0000
,
1000
0000
0100
0000
,
0010
0000
0010
0000
,
1000
0000
0010
0000
,
0100
0000
0100
0000
,
1000
0000
0010
0000
,
0100
0000
0100
0000
,
0010
0000
0100
0000
,
0100
0000
0000
0000
,
0010
0000
0010
0000
,
0000
1000
0000
0100
,
0000
0000
0010
0000
,
0000
1000
0000
0100
,
0000
0000
0010
0000
,
0000
1000
0000
0100
,
0000
0000
0100
0000
,
0010
0000
0100
0000
,
0000
1000
0000
0001
,
0000
1000
0000
0100
,
0000
1000
0000
0001
,
0000
1000
0000
0100
,
0000
1000
0000
0001
,
0000
1000
0000
0100
,
0000
1000
0000
0001
,
0000
1000
0000
0100
,
0000
0000
0010
0000
,
0000
1000
0000
0100
,
0000
0000
0010
0000
,
0000
1000
0000
0100
,
0000
0000
0010
0000
,
0000
1000
0000
0100
,
0000
0000
0100
0000
,
0010
0000
0100
0000
,
0000
1000
0000
0001
,
0000
1000
0000
0100
,
0000
1000
0000
0001
,
0000
1000
0000
0100
,
0000
0010
0000
1001
,
0000
0100
0000
1001
,
0000
0010
0000
1001
,
0000
0100
0000
1001
,
0000
0000
0000
0000
;

//---------------dance-single - ----------------
#NOTEDATA:;
#CHARTNAME:;
#STEPSTYPE:dance-single;
#DESCRIPTION:;
#CHARTSTYLE:;
#DIFFICULTY:Easy;
#METER:4;
#RADARVALUES:0.166321,0.214177,0.043934,0.000000,0.000000,106.000000,102.000000,4.000000,0.000000,0.000000,0.000000,0.000000,0.000000,0.000000,0.166321,0.214177,0.043934,0.000000,0.000000,106.000000,102.000000,4.000000,0.000000,0.000000,0.000000,0.000000,0.000000,0.000000;
#CREDIT:;
#NOTES:
0000
0000
0000
0000
,
0000
0000
0000
0000
,
0000
0000
0000
0000
,
0010
0000
0010
0000
,
0100
0010
0010
0000
,
0100
0000
0010
0000
,
0100
0010
0100
0000
,
0100
0000
0100
0000
,
0010
0000
0100
0000
,
1000
0001
0100
0000
,
0010
0000
0010
0000
,
1000
0001
0010
0000
,
0100
0000
0100
0000
,
1000
0001
0010
0000
,
0100
0000
0100
0000
,
0010
0000
0100
0000
,
0100
0000
0000
0000
,
0010
0000
0010
0001
,
0000
1000
0000
0100
,
0010
0000
0010
0001
,
0000
1000
0000
0100
,
0010
0000
0010
0001
,
0000
1000
0000
0100
,
0010
0000
0100
0000
,
0010
0000
0100
0000
,
0000
1000
0000
0001
,
0000
1000
0000
0100
,
0000
1000
0000
0001
,
0000
1000
0000
0100
,
0000
1000
0000
0001
,
0000
1000
0000
0100
,
0000
1000
0000
0001
,
0000
1000
0000
0100
,
0010
0000
0010
0001
,
0000
1000
0000
0100
,
0010
0000
0010
0001
,
0000
1000
0000
0100
,
0010
0000
0010
0001
,
0000
1000
0000
0100
,
0010
0000
0100
0000
,
0010
0000
0100
0000
,
0000
1000
0000
0001
,
0000
1000
0000
0100
,
0000
1000
0000
0001
,
0000
1000
0000
0100
,
0000
0010
0000
1001
,
0000
0100
0000
1001
,
0000
0010
0000
1001
,
0000
0100
0000
1001
,
0000
0000
0000
0000
;

//---------------dance-single - ----------------
#NOTEDATA:;
#CHARTNAME:;
#STEPSTYPE:dance-single;
#DESCRIPTION:;
#CHARTSTYLE:;
#DIFFICULTY:Medium;
#METER:6;
#RADARVALUES:0.302830,0.374811,0.296553,0.000000,0.000000,193.000000,166.000000,27.000000,0.000000,0.000000,0.000000,0.000000,0.000000,0.000000,0.302830,0.374811,0.296553,0.000000,0.000000,193.000000,166.000000,27.000000,0.000000,0.000000,0.000000,0.000000,0.000000,0.000000;
#CREDIT:;
#NOTES:
0000
0000
0000
0000
,
0000
0000
0000
0000
,
0000
0000
0000
0000
,
0010
0000
0010
0100
,
0010
0000
0100
0001
0000
0000
1000
0000
,
0100
0000
0100
0010
,
0100
0000
0010
0001
0000
0000
0000
0000
,
0100
0000
0100
0010
,
1000
0100
0010
0000
,
0001
0100
0010
0100
,
0001
0000
0010
0100
0000
0000
0000
0000
,
1000
0100
0010
0100
,
1000
0000
0010
0100
0000
0000
0000
0000
,
0001
0100
0010
0100
,
0001
0000
0010
0100
0000
0000
0000
0000
,
0010
0000
0001
0000
,
1000
0000
0000
0110
0000
0000
0000
0000
,
1001
0000
0000
0110
0000
0000
1001
0000
,
0100
0000
0000
0000
0010
0100
0010
0000
,
1001
0000
0000
0110
0000
0000
1001
0000
,
0100
0000
0000
0000
0010
0100
0010
0000
,
1001
0000
0000
0110
0000
0000
1001
0000
,
0100
0000
0000
0000
0010
0100
0010
0000
,
1000
0001
1000
0001
,
1000
0001
1000
0001
,
1000
1000
0001
0001
,
1000
0001
1000
0001
,
1000
1000
0001
0001
,
1000
0001
1000
0001
,
1000
1000
0001
0001
,
1000
0001
1000
0001
,
1000
1000
0001
0001
,
1000
0001
1000
0001
,
1001
0000
0000
0110
0000
0000
1001
0000
,
0100
0000
0000
0000
0010
0100
0010
0000
,
1001
0000
0000
0110
0000
0000
1001
0000
,
0100
0000
0000
0000
0010
0100
0010
0000
,
1001
0000
0000
0110
0000
0000
1001
0000
,
0100
0000
0000
0000
0010
0100
0010
0000
,
1000
0001
0010
0100
,
0001
1000
0100
0010
,
1000
1000
0001
0001
,
0010
0100
0010
0100
,
1000
1000
0001
0001
,
0010
0100
0010
0100
,
0010
1001
0100
1001
,
0010
1001
0100
1001
,
0010
1001
0100
1001
,
0010
1001
0100
1001
,
0000
0000
0000
0000
;

//---------------dance-single - ----------------
#NOTEDATA:;
#CHARTNAME:;
#STEPSTYPE:dance-single;
#DESCRIPTION:;
#CHARTSTYLE:;
#DIFFICULTY:Hard;
#METER:11;
#RADARVALUES:0.400112,0.588988,0.065901,0.000000,0.384421,255.000000,249.000000,6.000000,0.000000,0.000000,0.000000,0.000000,0.000000,0.000000,0.400112,0.588988,0.065901,0.000000,0.384421,255.000000,249.000000,6.000000,0.000000,0.000000,0.000000,0.000000,0.000000,0.000000;
#CREDIT:;
#NOTES:
0000
0000
0000
0000
,
0000
0000
0000
0000
,
0000
0000
0000
0000
,
0000
0000
0000
0000
0000
0010
1000
0100
,
0010
0000
0001
0100
0000
0000
1000
0000
,
0000
0000
0000
0000
0010
0100
0010
0000
,
1000
0000
0001
0100
0000
0000
0000
0000
,
0000
0000
1000
0000
0001
0010
0100
0000
,
1000
0000
0000
0100
0000
0000
0000
0000
,
0100
0010
0100
0000
0010
0100
0010
0000
,
0001
0000
0100
0010
0000
0000
0000
0000
,
0010
0100
0010
0000
0100
0010
0100
0000
,
0001
0000
0010
0100
0000
0000
0000
0000
,
0100
0010
0001
0000
0100
0010
1000
0000
,
0100
0000
0100
0010
0000
0000
0010
0100
,
0010
0001
0100
0010
,
1001
0000
0000
0110
0000
0000
0000
0000
,
0010
0000
0000
0100
0000
0000
0010
0000
1000
0000
0000
0001
0000
0000
0100
0000
,
0001
0000
0000
1000
0000
0000
0100
0000
0000
0000
0000
0000
0000
0000
0000
0000
,
0010
0000
0000
0100
0000
0000
0010
0000
0001
0000
0000
1000
0000
0000
0100
0000
,
1000
0000
0000
0001
0000
0000
0100
0000
0000
0000
0000
0000
0000
0000
0000
0000
,
0010
0000
0000
1000
0000
0000
0001
0000
0100
0000
0000
0010
0000
0000
0100
0000
,
0001
0000
0000
1000
0000
0000
0100
0000
0000
0000
0000
0000
0000
0000
0000
0000
,
0010
0001
0100
0010
0100
0010
0100
0001
,
0010
0100
0010
0100
0010
0001
0100
0010
,
1000
0000
0000
0000
0001
0010
0000
0100
0000
0000
0000
0000
0001
0100
0000
0010
,
0000
0000
0000
0000
1000
0100
0000
0010
0000
0000
0000
0000
0001
0100
0001
0100
,
0000
0000
0000
0000
1000
0010
0000
0100
0000
0000
0000
0000
1000
0100
0000
0010
,
0000
0000
0000
0000
0001
0100
0000
0010
0000
0000
0000
0000
1000
0100
1000
0100
,
0000
0000
0000
0000
0001
0010
0000
0100
0000
0000
0000
0000
0001
0100
0000
0010
,
0000
0000
0000
0000
1000
0100
0000
0010
0000
0000
0000
0000
0001
0100
0001
0100
,
0000
0000
0000
0000
1000
0010
0000
0100
0000
0000
0000
0000
1000
0100
0000
0010
,
0000
0000
0000
0000
0001
0100
0000
0010
0000
0000
1000
0000
0000
0000
0000
0000
,
0100
0000
0000
0010
0000
0000
0100
0000
1000
0000
0000
0001
0000
0000
0010
0000
,
0001
0000
0000
1000
0000
0000
0010
0000
0000
0000
0000
0000
0000
0000
0000
0000
,
0100
0000
0000
0010
0000
0000
0100
0000
0001
0000
0000
1000
0000
0000
0010
0000
,
1000
0000
0000
0001
0000
0000
0010
0000
0000
0000
0000
0000
0000
0000
0000
0000
,
0100
0000
0000
1000
0000
0000
0001
0000
0010
0000
0000
0100
0000
0000
0010
0000
,
0001
0000
0000
1000
0000
0000
0010
0000
0000
0000
0000
0000
0000
0000
0000
0000
,
0010
1000
0100
0010
0100
0010
0100
1000
,
0010
0100
0010
0100
0010
1000
0100
0010
,
0001
0000
0000
0000
1000
0010
0000
0100
0000
0000
0000
0000
1000
0100
0000
0010
,
0000
0000
0000
0000
0001
0100
0000
0010
0000
0000
0000
0000
1000
0100
1000
0100
,
0000
0000
0000
0000
0001
0010
0000
0100
0000
0000
0000
0000
0001
0100
0000
0010
,
0000
0000
0000
0000
1000
0100
0000
0010
0000
0000
0000
0000
0000
0000
0000
0000
,
0001
0000
1000
0000
0001
0000
0100
0010
0100
0010
0100
0000
1001
0000
0000
0000
,
1000
0000
0001
0000
1000
0000
0010
0100
0010
0100
0010
0000
1001
0000
0000
0000
,
0001
0000
1000
0000
0001
0000
0100
0010
0100
0010
0100
0000
1001
0000
0000
0000
,
1000
0000
0001
0000
1000
0000
0010
0100
0010
0100
0010
0000
1001
0000
0000
0000
,
0000
0000
0000
0000
;

//---------------dance-double - ----------------
#NOTEDATA:;
#CHARTNAME:;
#STEPSTYPE:dance-double;
#DESCRIPTION:;
#CHARTSTYLE:;
#DIFFICULTY:Easy;
#METER:4;
#RADARVALUES:0.183581,0.187405,0.021967,0.000000,0.000000,117.000000,115.000000,2.000000,0.000000,0.000000,0.000000,0.000000,0.000000,0.000000,0.183581,0.187405,0.021967,0.000000,0.000000,117.000000,115.000000,2.000000,0.000000,0.000000,0.000000,0.000000,0.000000,0.000000;
#CREDIT:;
#NOTES:
00000000
00000000
00000000
00000000
,
00000000
00000000
00000000
00000000
,
00000000
00000000
00000000
00000000
,
00000010
00000100
00000010
00000000
,
00001000
00000000
00010000
00000000
,
00100000
01000000
00100000
00000000
,
10000000
00000000
00010000
00000000
,
00100000
01000000
00010000
00000000
,
00001000
00000000
00000100
00000000
,
00000010
00000000
00000010
00001000
,
00000001
00000000
00000100
00000000
,
00000010
00000000
00000010
00001000
,
00000100
00000000
00010000
00000000
,
00001000
00000000
00001000
00100000
,
01000000
00000000
10000000
00000000
,
00010000
00000000
10000000
00000000
,
00100000
01000000
00100000
00000000
,
10000000
01000000
00010000
00000000
,
00001000
00000000
00001000
00000100
,
00000001
00000100
00001000
00000000
,
00010000
00000000
00010000
01000000
,
10000000
00100000
00010000
00000000
,
00001000
00000000
00001000
00000010
,
00000001
00000000
00000000
00000000
,
00001000
00000000
00000001
00000000
,
00000100
00000000
00000100
00000000
,
00000010
00000000
00000100
00000100
,
00001000
00000000
00001000
00000000
,
00010000
00000000
00001000
00001000
,
00100000
00000000
00100000
00000000
,
00010000
00000000
00100000
00100000
,
01000000
00000000
01000000
00000000
,
10000000
00000000
01000000
01000000
,
10000000
00100000
00010000
00000000
,
00001000
00000000
00001000
00000010
,
00000001
00000010
00001000
00000000
,
00010000
00000000
00010000
00100000
,
10000000
01000000
00010000
00000000
,
00001000
00000000
00001000
00000100
,
00000001
00000000
00000000
00000000
,
00001000
00000000
00000001
00000000
,
00000100
00000000
00000100
00000000
,
00000010
00000000
00000100
00000100
,
00001000
00000000
00001000
00000000
,
00010000
00000000
00001000
00001000
,
00000000
00100000
00000000
00010000
,
00000000
10000000
00000000
10010000
,
00000000
01000000
00000000
00001000
,
00000000
00010000
00000000
00011000
,
00000000
00000000
00000000
00000000
;

//---------------dance-double - ----------------
#NOTEDATA:;
#CHARTNAME:;
#STEPSTYPE:dance-double;
#DESCRIPTION:;
#CHARTSTYLE:;
#DIFFICULTY:Medium;
#METER:6;
#RADARVALUES:0.271448,0.267722,0.098851,0.000000,0.000000,173.000000,164.000000,9.000000,0.000000,0.000000,0.000000,0.000000,0.000000,0.000000,0.271448,0.267722,0.098851,0.000000,0.000000,173.000000,164.000000,9.000000,0.000000,0.000000,0.000000,0.000000,0.000000,0.000000;
#CREDIT:;
#NOTES:
00000000
00000000
00000000
00000000
,
00000000
00000000
00000000
00000000
,
00000000
00000000
00000000
00000000
,
00001000
00000000
00000000
00000000
00000001
00000100
00001000
00000000
,
00010000
00000000
01000000
00000000
,
10000000
00000000
00000000
00000000
00010000
01000000
00001000
00000000
,
00010000
00000000
00000100
00000000
,
00001000
00000000
00000000
00000000
00000001
00000010
00000100
00000000
,
00001000
00000000
00000001
00000000
,
00000100
00000000
00000100
00000000
00001000
00010000
00001000
00000000
,
00000010
00000000
00000001
00000000
,
00000100
00000000
00000100
00000000
00001000
00010000
00001000
00000000
,
00100000
00000000
00010000
00000000
,
01000000
00000000
01000000
00000000
00001000
00010000
00001000
00000000
,
00000100
00000000
00000001
00000000
,
00001000
00000000
00000010
00000000
,
00000100
00000000
00000000
00001001
00000000
00000000
00000000
00000000
,
00000100
00010000
00001000
00100000
,
00001000
00000000
00010000
00000000
00000100
00001000
00000100
00000000
,
00010000
00001000
00100000
00010000
,
00001000
00000000
00010000
00000000
00000100
00001000
00000100
00000000
,
00010000
01000000
00001000
00000100
,
00010000
00000000
00100000
00000000
10000000
01000000
00100000
00000000
,
00010000
10000000
00010000
10000000
,
00010000
10000000
00010000
10000000
,
01000000
00000000
00010000
00001000
00010000
00000000
01000000
00000000
,
00010000
00000000
00001000
00000000
,
00000100
00000000
00001000
00010000
00001000
00000000
00000100
00000000
,
00001000
00000000
00010000
00000000
,
01000000
00000000
00010000
00001000
00010000
00000000
01000000
00000000
,
00010000
00000000
00001000
00000000
,
00000100
00000000
00001000
00010000
00001000
00000000
00000100
00000000
,
00001000
00000000
00010000
01000000
,
10000000
00010000
01000000
00001000
,
00010000
00000000
01000000
00000000
10000000
00100000
01000000
00000000
,
00010000
10000000
01000000
00010000
,
00001000
00000000
00000100
00000000
00001000
00010000
01000000
00000000
,
10000000
00010000
01000000
00001000
,
00010000
00000000
00000010
00000000
00001000
00000100
00000010
00000000
,
00000001
00001000
00000001
00001000
,
00000001
00001000
00000001
00001000
,
00000100
00000000
00010000
00001000
00010000
00000000
01000000
00000000
,
00010000
00000000
00001000
00000000
,
01000000
00000000
00001000
00010000
00001000
00000000
00000100
00000000
,
00001000
00000000
00010000
00000000
,
00000000
00011000
00000000
00110000
,
00000000
01001000
00000000
00010010
,
00000000
00001001
00000000
00010100
,
00000000
00101000
00000000
10010000
,
00000000
00000000
00000000
00000000
;

//---------------dance-double - ----------------
#NOTEDATA:;
#CHARTNAME:;
#STEPSTYPE:dance-double;
#DESCRIPTION:;
#CHARTSTYLE:;
#DIFFICULTY:Hard;
#METER:8;
#RADARVALUES:0.343625,0.428355,0.153768,0.000000,0.120818,219.000000,205.000000,14.000000,0.000000,0.000000,0.000000,0.000000,0.000000,0.000000,0.343625,0.428355,0.153768,0.000000,0.120818,219.000000,205.000000,14.000000,0.000000,0.000000,0.000000,0.000000,0.000000,0.000000;
#CREDIT:;
#NOTES:
00000000
00000000
00000000
00000000
,
00000000
00000000
00000000
00000000
,
00000000
00000000
00000000
00000000
,
00000001
00001000
00000100
00000000
00000001
00000000
00001000
00000100
,
00010000
00000000
00001000
00100000
00000000
00000000
01000000
00000000
,
10000000
00010000
01000000
00000000
10000000
00000000
00010000
01000000
,
10000000
00000000
00010000
00100000
00000000
00000000
01000000
00000000
,
00010000
00001000
00000100
00000000
00000001
00000000
00000010
00000100
,
00001000
00000000
00000001
00000100
00000000
00000000
00001000
00000000
,
00000001
00000000
00000110
00000000
00001000
00000000
00000001
00000100
,
00001000
00000000
00010000
01000000
00000000
00000000
00000000
00000000
,
10000000
00000000
10010000
00000000
01000000
00000000
00100000
10000000
,
01000000
00000000
00010000
00001000
00000000
00000000
00000000
00000000
,
00000100
00000000
00001001
00000000
00000010
00000000
00000100
00010000
,
00001000
00000000
01000000
00010000
00000000
00000000
00100000
01000000
,
10000000
00010000
01000000
00000000
,
00100000
00000000
00000000
10010000
00000000
00000000
00000000
00000000
,
10000000
00000000
00010000
01000000
00000000
10000000
01000000
00000000
,
00000000
00000000
00100000
00000000
00010000
10000000
01000000
00000000
,
00010000
00000000
00001000
00000100
00000000
00010000
01000000
00000000
,
00000000
00000000
10000000
00000000
00100000
01000000
00010000
00000000
,
10000000
00000000
01000000
00010000
00000000
00001000
00000100
00000000
,
00000000
00000000
00000001
00000000
00000010
00000100
00001000
00000000
,
00000001
00000000
00000100
00001000
00010000
00000000
00001000
00010000
,
01000000
00000000
00010000
01000000
10000000
00000000
01000000
10000000
,
00100000
00000000
00000000
00000000
01000000
00000000
00000000
00010000
00000000
00000000
00000000
00000000
10000000
00000000
00000000
01000000
,
00000000
00000000
00000000
00000000
00010000
00000000
00000000
00001000
00000000
00000000
00000000
00000000
00000100
00000000
00000000
00000001
,
00000000
00000000
00000000
00000000
00000010
00000000
00000000
00001000
00000000
00000000
00000000
00000000
00010000
00000000
00000000
00100000
,
00000000
00000000
00000000
00000000
10000000
00000000
00000000
01000000
00000000
00000000
00000000
00000000
00100000
00000000
00000000
00010000
,
00000000
00000000
00000000
00000000
01000000
00000000
00000000
00001000
00000000
00000000
00000000
00000000
00010000
00000000
00000000
00000010
,
00000000
00000000
00000000
00000000
00001000
00000000
00000000
00000001
00000000
00000000
00000000
00000000
00000010
00000000
00000000
00000100
,
00000000
00000000
00000000
00000000
00001000
00000000
00000000
00000010
00000000
00000000
00000000
00000000
00000100
00000000
00000000
00001000
,
00000000
00000000
00000000
00000000
00010000
00000000
00000000
01000000
00000000
00000000
10000000
00000000
00000000
00000000
00000000
00000000
,
00010000
00000000
01000000
00100000
00000000
10000000
01000000
00000000
,
00000000
00000000
00010000
00000000
00001000
00000100
00001000
00000000
,
00010000
00000000
01000000
10000000
00000000
00100000
01000000
00000000
,
00000000
00010000
00011000
00001010
,
00000001
00000000
00000010
00000100
00000000
00001000
00000001
00000000
,
00000000
00000000
00000100
00000000
00001000
00010000
00001000
00000000
,
00100000
00000000
00010000
01000000
00100000
00000000
01000000
00100000
,
10000000
00000000
10000000
01000000
00010000
00000000
01000000
00010000
,
00001000
00000000
00000000
00000000
00001000
00000000
00000000
00000100
00000000
00000000
00000000
00000000
00010000
00000000
00000000
01000000
,
00000000
00000000
00000000
00000000
00001000
00000000
00000000
00000100
00000000
00000000
00000000
00000000
00010000
00000000
00000000
00100000
,
00000000
00000000
00000000
00000000
00001000
00000000
00000000
00000100
00000000
00000000
00000000
00000000
00010000
00000000
00000000
01000000
,
00000000
00000000
00000000
00000000
00001000
00000000
00000000
00000010
00000000
00000000
00000000
00000000
00000000
00000000
00000000
00000000
,
00000100
00000000
00001001
00000000
00000100
00001000
00011000
00000000
,
00100000
00000000
10010000
00000000
01000000
00010000
00011000
00000000
,
00000010
00000000
00001001
00000000
00000100
00001000
00011000
00000000
,
00100000
00000000
10010000
00000000
01000000
00010000
00011000
00000000
,
00000000
00000000
00000000
00000000
;

//---------------dance-single - ----------------
#NOTEDATA:;
#CHARTNAME:;
#STEPSTYPE:dance-single;
#DESCRIPTION:;
#CHARTSTYLE:;
#DIFFICULTY:Challenge;
#METER:14;
#RADARVALUES:0.693527,0.886880,0.527206,0.186719,0.532698,442.000000,394.000000,48.000000,17.000000,0.000000,0.000000,0.000000,0.000000,0.000000,0.693527,0.886880,0.527206,0.186719,0.532698,442.000000,394.000000,48.000000,17.000000,0.000000,0.000000,0.000000,0.000000,0.000000;
#CREDIT:;
#NOTES:
// measure 0
0000
0000
0000
0000
,  // measure 1
0000
0000
0000
0000
,  // measure 2
0000
0000
0000
0000
,  // measure 3
1100
0100
0010
0000
0010
0001
0100
0000
,  // measure 4
1000
0100
0001
0100
1000
0010
0001
0000
,  // measure 5
0011
0010
0100
0000
0100
1000
0001
0000
,  // measure 6
0200
0000
0310
1000
0001
0000
0101
0000
,  // measure 7
1010
0000
1000
0100
0010
0001
0100
0010
,  // measure 8
2000
0000
0000
0000
0100
0000
0000
0000
3002
0000
0000
0000
1003
0000
0000
0001
,  // measure 9
0100
0000
0000
0100
1000
0000
0010
0000
1010
0000
0000
0000
1100
0000
0000
0000
,  // measure 10
0200
0000
0310
0001
0000
0001
0100
0010
,  // measure 11
1000
0000
0000
1000
0010
0000
0001
0000
0101
0000
0000
0000
1010
0000
0000
0000
,  // measure 12
0020
0000
0031
0100
0000
0100
0010
1000
,  // measure 13
0001
0000
0000
0001
0100
0000
1000
0000
1010
0000
0000
0000
1001
0000
0000
0000
,  // measure 14
0002
0000
1003
0001
0000
0100
0010
0100
,  // measure 15
0002
0203
0320
2030
,  // measure 16
0002
3003
0000
0220
0000
0030
0310
0000
,  // measure 17
0010
0000
0001
0100
0001
0000
0010
0000
0100
0000
1000
0100
1000
0000
0010
0000
,  // measure 18
0001
0000
0100
0001
0100
0000
0010
0000
2000
0000
0000
3100
1000
0000
0000
0000
,  // measure 19
1000
0000
0001
1000
0001
0000
0100
0000
0010
0000
1000
0010
1000
0000
0100
0000
,  // measure 20
0010
0000
0001
0010
0001
0000
0100
0000
0020
0000
0000
0130
0010
0000
0000
0000
,  // measure 21
1000
0000
0001
0100
0001
0000
0010
0000
1000
0000
0100
1000
0100
0000
0010
0000
,  // measure 22
0001
0000
1000
0001
1000
0000
0010
0000
0100
0010
0100
0000
0110
0000
0000
0000
,  // measure 23
1000
0100
0010
0100
1000
0100
0010
0100
1000
0100
0010
0100
1000
0100
0010
0100
,  // measure 24
1000
0001
0100
0001
1000
0001
0100
0001
1000
0001
0100
0001
1000
0001
0100
0001
,  // measure 25
1000
0000
0100
0000
1100
0000
0000
1010
0000
0000
0101
0000
0001
0100
0001
0000
,  // measure 26
0101
0000
0000
1010
0000
0000
1100
0000
1000
0000
0100
0010
0001
0010
0100
0000
,  // measure 27
1000
0000
0001
0000
1001
0000
0000
1010
0000
0000
1100
0000
1000
0001
1000
0000
,  // measure 28
1001
0000
0000
0110
0000
0000
1001
0000
1000
0000
0100
0001
0010
0001
0100
0000
,  // measure 29
0010
0000
1000
0000
1100
0000
0000
1010
0000
0000
0101
0000
0001
1000
0001
0000
,  // measure 30
1001
0000
0000
0110
0000
0000
1010
0000
1000
0000
0010
1000
0100
1000
0010
0000
,  // measure 31
0001
0000
0000
0000
0101
0000
0000
0110
0000
0000
1100
0000
1000
0100
1000
0000
,  // measure 32
1100
0000
0000
0110
0000
0000
0010
0000
0001
0000
0000
0100
0010
0000
1000
0000
,  // measure 33
0001
0000
1000
0100
1000
0000
0010
0000
0001
0000
0100
0010
0100
0000
1000
0000
,  // measure 34
0001
0000
0010
1000
0010
0000
0100
0000
0002
0000
0000
1003
0001
0000
0011
0000
,  // measure 35
1000
0000
0100
1000
0100
0000
0010
0000
0001
0000
0100
0001
0100
0000
0010
0000
,  // measure 36
1000
0000
0001
0010
0001
0000
0010
0000
0200
0000
0000
1300
0100
0000
1100
0000
,  // measure 37
1000
0000
0100
1000
0100
0000
0010
0000
0001
0000
1000
0001
1000
0000
0100
0000
,  // measure 38
0010
0000
0001
0100
0001
0000
0100
0000
0010
0000
1000
0000
1001
0000
0000
0000
,  // measure 39
1000
0010
0100
0010
0001
1000
0010
0100
0010
0001
0010
0100
1000
0001
0010
0100
,  // measure 40
1000
0001
0100
1000
0100
0001
1000
0100
0001
0100
1000
0010
0100
0001
1000
0010
,  // measure 41
0100
0000
0010
0000
0001
0000
0000
1001
0000
0000
1100
0000
1000
0001
0100
0000
,  // measure 42
0101
0000
0000
0110
0000
0000
1010
0000
1000
0000
0100
1000
0100
1000
0010
0000
,  // measure 43
0001
0000
1000
0000
0001
0000
0000
1001
0000
0000
1010
0000
1000
0001
1000
0000
,  // measure 44
0101
0000
0000
0110
0000
0000
1010
0000
1000
0000
0001
1000
0001
0000
0100
0000
,  // measure 45
0010
0000
1000
0100
1000
0000
0001
0000
0001
0000
0100
0010
0100
0000
0010
0000
,  // measure 46
0010
0000
0001
0010
0001
0000
0100
0000
0100
0000
1000
0100
1000
0000
0001
0000
,  // measure 47
0001
0000
0010
0001
0010
0000
0100
0000
0100
0000
1000
0100
1000
0000
0010
0000
,  // measure 48
0010
0000
0001
0010
0001
0000
0100
0001
0100
0000
1000
0100
0010
0000
0001
0010
;
