#VERSION:0.83;
#TITLE:LONG TRAIN RUNNIN';
#SUBTITLE:;
#ARTIST:X-TREME;
#TITLETRANSLIT:;
#SUBTITLETRANSLIT:;
#ARTISTTRANSLIT:;
#GENRE:;
#ORIGIN:;
#CREDIT:;
#BANNER:LONG TRAIN RUNNIN'.png;
#BACKGROUND:LONG TRAIN RUNNIN'-bg.png;
#PREVIEWVID:;
#JACKET:LONG TRAIN RUNNIN'-jacket.png;
#CDIMAGE:;
#DISCIMAGE:;
#LYRICSPATH:;
#CDTITLE:;
#MUSIC:LONG TRAIN RUNNIN'.ogg;
#OFFSET:0.000000;
#SAMPLESTART:15.620000;
#SAMPLELENGTH:15.000000;
#SELECTABLE:YES;
#DISPLAYBPM:34.000000:138.000000;
#BPMS:0.000=138.200,
4.000=138.000,
136.000=69.000,
138.000=34.500,
140.000=138.000;
#STOPS:139.500=1.739;
#DELAYS:;
#WARPS:;
#TIMESIGNATURES:0.000=4=4;
#TICKCOUNTS:0.000=4;
#COMBOS:0.000=1;
#SPEEDS:0.000=1.000=0.000=0;
#SCROLLS:0.000=1.000;
#FAKES:;
#LABELS:0.000=Song Start;
#BGCHANGES:;
#KEYSOUNDS:;
#ATTACKS:
;

//---------------dance-single - ----------------
#NOTEDATA:;
#CHARTNAME:;
#STEPSTYPE:dance-single;
#DESCRIPTION:;
#CHARTSTYLE:;
#DIFFICULTY:Beginner;
#METER:4;
#RADARVALUES:0.162633,0.257296,0.160990,0.000000,0.000000,99.000000,85.000000,14.000000,0.000000,0.000000,0.000000,0.000000,0.000000,0.000000,0.162633,0.257296,0.160990,0.000000,0.000000,99.000000,85.000000,14.000000,0.000000,0.000000,0.000000,0.000000,0.000000,0.000000;
#CREDIT:;
#DISPLAYBPM:34.000000:138.000000;
#NOTES:
0000
0000
0000
0000
,
0000
0000
0000
0000
,
0000
0000
0000
0000
,
0000
0000
0000
0000
,
0000
0000
0000
0000
,
0010
0000
0100
0100
,
0000
0001
0000
0100
,
0000
1000
0000
0100
,
0000
0001
0000
0100
,
0000
1000
0000
0010
,
0000
0001
0000
0001
,
0000
1000
0000
0001
,
0000
0100
0000
0110
,
0000
0010
0000
1000
,
0000
0010
0000
0001
,
0000
0100
0000
1000
,
0000
0100
0000
0001
,
0000
1001
0000
1001
,
0000
1001
0000
1001
,
0000
0000
0100
0000
,
0010
0000
0010
0000
,
1000
0000
1000
1000
,
0000
0100
0000
0001
,
0000
0100
0000
1000
,
0000
0100
0000
0001
,
0000
1000
0000
0010
,
0000
0001
0000
0001
,
0000
1000
0000
0001
,
0000
0100
0000
0110
,
0000
1001
0000
1001
,
0000
1001
0000
1001
,
0000
0100
0000
0001
,
0001
0000
1000
1000
,
0000
0000
0000
0000
,
0100
0100
0100
0000
,
0100
0100
0100
0100
,
0100
0100
0100
0100
,
0000
1000
0000
0001
,
0000
1000
0000
0110
,
0000
0001
0000
1000
,
0000
0001
0000
0110
,
0000
1000
0000
0001
,
0000
1000
0000
0110
,
0000
0001
0000
1000
,
0000
0001
0000
0110
;

//---------------dance-single - ----------------
#NOTEDATA:;
#CHARTNAME:;
#STEPSTYPE:dance-single;
#DESCRIPTION:;
#CHARTSTYLE:;
#DIFFICULTY:Easy;
#METER:6;
#RADARVALUES:0.279268,0.360215,0.206987,0.022999,0.000000,170.000000,152.000000,18.000000,2.000000,0.000000,0.000000,0.000000,0.000000,0.000000,0.279268,0.360215,0.206987,0.022999,0.000000,170.000000,152.000000,18.000000,2.000000,0.000000,0.000000,0.000000,0.000000,0.000000;
#CREDIT:;
#DISPLAYBPM:34.000000:138.000000;
#NOTES:
0000
0000
0000
0000
,
0000
0000
0000
0000
,
0000
0000
0000
0000
,
0000
0000
0000
0000
,
0000
0000
0000
0000
,
0010
1000
0100
0100
,
0010
0001
0100
0100
,
0010
1000
0100
0100
,
0010
0001
0100
0100
,
0010
1000
0010
1010
,
0100
0001
0100
0101
,
1000
1000
0001
0001
,
0100
0100
0010
0110
,
1000
0010
1000
1000
,
0001
0010
0001
0001
,
1000
0100
1000
1000
,
0001
0100
0001
0001
,
1000
1001
1000
1001
,
0001
1001
0001
1001
,
0100
0000
0100
0000
,
0010
0000
0010
0000
,
1000
0100
1000
1000
,
0001
0100
0001
0001
,
1000
0100
1000
1000
,
0001
0100
0001
0001
,
0010
1000
0010
1010
,
0100
0001
0100
0101
,
1000
1000
0001
0001
,
0100
0100
0010
0110
,
1000
1001
1000
1001
,
0001
1001
0001
1001
,
1000
0100
0001
0001
,
0001
0100
1000
1000
,
0020
0000
0000
0000
,
0100
0000
0100
0000
0200
0000
0000
0330
,
0100
0100
0100
0100
,
0100
0100
0100
0100
,
1000
1000
0001
0001
,
1000
1000
0100
0110
,
0001
0001
1000
1000
,
0001
0001
0100
0110
,
1000
1000
0001
0001
,
1000
1000
0010
0110
,
0001
0001
1000
1000
,
0001
0001
0010
0110
;

//---------------dance-single - ----------------
#NOTEDATA:;
#CHARTNAME:;
#STEPSTYPE:dance-single;
#DESCRIPTION:;
#CHARTSTYLE:;
#DIFFICULTY:Medium;
#METER:9;
#RADARVALUES:0.348264,0.437404,0.114993,0.022999,0.000000,212.000000,202.000000,10.000000,2.000000,0.000000,0.000000,0.000000,0.000000,0.000000,0.348264,0.437404,0.114993,0.022999,0.000000,212.000000,202.000000,10.000000,2.000000,0.000000,0.000000,0.000000,0.000000,0.000000;
#CREDIT:;
#DISPLAYBPM:34.000000:138.000000;
#NOTES:
0000
0000
0000
0000
,
0000
0000
0000
0000
,
0000
0000
0000
0000
,
0000
0000
0000
0000
,
0000
0000
0000
0000
,
0010
1000
0010
0000
0001
0000
0001
0000
,
0010
0001
0010
0000
1000
0000
1000
0000
,
0010
1000
0010
0000
0001
0000
0001
0000
,
0010
0001
0010
0000
1000
0000
1000
0000
,
0010
1000
0010
0000
0100
0000
1000
0100
,
0010
0001
0010
0000
0100
0000
0001
0100
,
0010
1000
0001
0000
0010
0001
1000
0000
,
0100
0100
0010
1001
,
0100
0000
0100
0000
0010
0000
0010
1000
,
0100
0000
0100
0000
0010
0000
0010
0001
,
1000
0000
1000
0010
0001
0000
0001
0000
,
1000
0000
1000
0100
0001
0000
0001
0000
,
0100
1000
0100
0000
0010
0001
0010
0000
,
0100
1000
0100
0000
0010
0001
0010
0000
,
1000
1000
1000
0010
,
0001
0001
0001
0010
,
1000
1010
0100
0100
,
0001
0011
0100
0100
,
1000
1010
0100
0100
,
0001
0011
0100
0100
,
0010
1000
0010
0000
0100
0000
1000
0100
,
0010
0001
0010
0000
0100
0000
0001
0100
,
0010
1000
0001
0000
0010
0001
1000
0000
,
0100
0100
0010
1001
,
0100
1000
0100
0000
0010
0001
0010
0000
,
0100
1000
0100
0000
0010
0001
0010
0000
,
0100
1000
0100
0010
0001
0100
0001
0010
,
0100
1000
0100
0010
0001
0100
0001
0010
,
0200
0000
0000
0000
,
0001
0000
0010
0000
2000
0000
0000
3300
,
0010
0010
0010
0010
,
0010
0010
0010
0010
,
0100
0010
0000
0100
1000
0000
0100
0001
,
0000
0100
0010
0000
0001
0000
1001
0000
,
0100
0010
0000
0100
0001
0000
0100
1000
,
0000
0100
0010
0000
1000
0000
1001
0000
,
0100
0010
0000
0100
1000
0000
0100
0001
,
0000
0100
0010
1000
0001
0000
1001
0000
,
0100
0010
0000
0100
0001
0000
0100
1000
,
0000
0100
0010
0001
1000
0000
1001
0000
;

//---------------dance-single - ----------------
#NOTEDATA:;
#CHARTNAME:;
#STEPSTYPE:dance-single;
#DESCRIPTION:;
#CHARTSTYLE:;
#DIFFICULTY:Hard;
#METER:12;
#RADARVALUES:0.427116,0.566052,0.252984,0.034498,0.195488,260.000000,238.000000,22.000000,3.000000,0.000000,0.000000,0.000000,0.000000,0.000000,0.427116,0.566052,0.252984,0.034498,0.195488,260.000000,238.000000,22.000000,3.000000,0.000000,0.000000,0.000000,0.000000,0.000000;
#CREDIT:;
#DISPLAYBPM:34.000000:138.000000;
#NOTES:
0000
0000
0000
0000
,
0000
0000
0000
0000
,
0000
0000
0000
0000
,
0000
0000
0000
0000
,
0000
0000
0000
0000
,
0010
1000
0010
0000
0001
0000
0001
0000
,
0010
0001
0010
0000
1000
0000
1000
0000
,
0010
1000
0010
0000
0001
0000
0001
0000
,
0010
0001
0010
0000
1000
0000
1000
0000
,
0010
0000
0100
0000
0010
0000
1000
0000
0000
0000
0000
0001
0010
0000
0001
0000
,
0010
0000
0100
0000
0010
0000
0001
0000
0000
0000
0000
1000
0010
0000
1000
0000
,
0010
0000
0100
0001
0000
0100
0000
0010
1000
0000
0100
1000
0000
0100
0000
0010
,
0001
0000
0100
0000
0010
1000
0000
0001
0000
0000
0000
0000
0010
0000
0100
0000
,
1000
0000
0001
0000
0100
0010
0000
0010
1000
0000
1000
0001
0000
0000
0000
0000
,
0001
0000
1000
0000
0100
0010
0000
0010
0001
0000
0001
1000
0000
0000
0000
0000
,
0010
0100
0001
0000
0010
0100
1100
0000
,
0010
0100
1000
0000
0010
0100
0101
0000
,
1010
1000
1001
0000
1100
1000
1001
0000
,
0101
0001
1001
0000
0011
0001
1001
0000
,
0200
0010
0000
0010
,
0000
0010
0000
0310
,
1000
0000
0000
0000
0100
0000
0000
0000
1000
0000
0000
0001
0100
0000
0010
0000
,
1000
0000
0000
0000
0001
0000
0000
0000
1000
0000
0000
0001
1000
0000
0010
0000
,
1000
0000
0000
0000
0010
0000
0000
0000
1000
0000
0000
0001
0010
0000
0100
0000
,
1000
0000
0000
0000
0001
0000
0000
0000
1000
0000
0000
0001
1000
0000
0100
0000
,
0010
0000
0001
0000
0010
0000
0100
0000
0000
0000
0000
0100
0010
0000
0001
0000
,
0100
0000
0010
0000
0100
0000
0001
0000
1000
0000
0000
1000
0001
0000
0010
0000
,
0100
0000
0010
0000
0100
1000
0000
0000
0001
0000
1000
0000
0001
0000
0000
0000
,
0100
0000
0010
0000
0100
0001
0000
1000
0000
0000
0001
0000
0000
1000
0010
0000
,
1010
1000
1001
0000
1100
1000
1001
0000
,
0101
0001
1001
0000
0011
0001
1001
0000
,
0010
0000
1000
0000
0001
0100
0000
0100
0001
0000
1000
0100
0000
0010
0000
0000
,
0100
0000
0001
0000
1000
0010
0000
0010
1000
0000
0001
0010
0000
0100
0000
0000
,
0020
0000
0000
0000
,
1000
0000
0100
0000
0002
0000
0000
0033
,
0100
0100
0100
0100
,
0100
0100
0100
0100
,
0100
0010
0000
0100
1000
0000
0100
0001
,
0000
0100
0010
0000
1000
0001
1001
0000
,
0100
0010
0000
0100
0001
0000
0100
1000
,
0000
0100
0010
0000
0001
1000
1001
0000
,
0100
0010
0000
0100
1000
0000
0100
0001
,
0000
0100
0010
0100
0001
1000
1001
0000
,
0100
0010
0000
0100
0001
0000
0100
1000
,
0000
0100
0010
0100
1000
0001
1001
0000
;

//---------------dance-double - ----------------
#NOTEDATA:;
#CHARTNAME:;
#STEPSTYPE:dance-double;
#DESCRIPTION:;
#CHARTSTYLE:;
#DIFFICULTY:Easy;
#METER:5;
#RADARVALUES:0.279268,0.360215,0.206987,0.022999,0.000000,170.000000,152.000000,18.000000,2.000000,0.000000,0.000000,0.000000,0.000000,0.000000,0.279268,0.360215,0.206987,0.022999,0.000000,170.000000,152.000000,18.000000,2.000000,0.000000,0.000000,0.000000,0.000000,0.000000;
#CREDIT:;
#DISPLAYBPM:34.000000:138.000000;
#NOTES:
00000000
00000000
00000000
00000000
,
00000000
00000000
00000000
00000000
,
00000000
00000000
00000000
00000000
,
00000000
00000000
00000000
00000000
,
00000000
00000000
00000000
00000000
,
10000000
01000000
00010000
00010000
,
00001000
00000010
00000001
00000001
,
00000001
00000100
00001000
00001000
,
00010000
00100000
10000000
10000000
,
10000000
01000000
00010000
01100000
,
00010000
00001000
00000010
00000110
,
00000001
00000001
00001000
00001000
,
00000100
00000100
00010000
00011000
,
01000000
10000000
00010000
00010000
,
01000000
00001000
00010000
00010000
,
00000100
00000010
00000001
00000001
,
00000100
00000010
00010000
00010000
,
00001000
00011000
01000000
01100000
,
00001000
00011000
00000100
00000110
,
00000001
00000000
00000001
00000000
,
00001000
00000000
00001000
00000000
,
00000001
00000100
00001000
00001000
,
00010000
00100000
10000000
10000000
,
10000000
01000000
00010000
00010000
,
00001000
00000010
00000001
00000001
,
00000001
00000100
00001000
00000110
,
00001000
00010000
00100000
01100000
,
10000000
10000000
00010000
00010000
,
01000000
01000000
00001000
00011000
,
00010000
00011000
00000100
00000110
,
00010000
00011000
01000000
01100000
,
10000000
01000000
00010000
00010000
,
00001000
00000100
00000001
00000001
,
00000020
00000000
00000000
00000000
,
00000100
00000000
00000100
00000000
00000200
00000000
00000000
00000330
,
00000001
00000001
00000001
00000001
,
00000100
00000100
00000100
00000100
,
00001000
00001000
00010000
00010000
,
00100000
00100000
01000000
01100000
,
10000000
10000000
01000000
01000000
,
00010000
00010000
00001000
00011000
,
00000010
00000010
00000001
00000001
,
00000100
00000100
00001000
00011000
,
00100000
00100000
10000000
10000000
,
01000000
01000000
00010000
00011000
;

//---------------dance-double - ----------------
#NOTEDATA:;
#CHARTNAME:;
#STEPSTYPE:dance-double;
#DESCRIPTION:;
#CHARTSTYLE:;
#DIFFICULTY:Medium;
#METER:8;
#RADARVALUES:0.338407,0.360215,0.114993,0.022999,0.000000,206.000000,196.000000,10.000000,2.000000,0.000000,0.000000,0.000000,0.000000,0.000000,0.338407,0.360215,0.114993,0.022999,0.000000,206.000000,196.000000,10.000000,2.000000,0.000000,0.000000,0.000000,0.000000,0.000000;
#CREDIT:;
#DISPLAYBPM:34.000000:138.000000;
#NOTES:
00000000
00000000
00000000
00000000
,
00000000
00000000
00000000
00000000
,
00000000
00000000
00000000
00000000
,
00000000
00000000
00000000
00000000
,
00000000
00000000
00000000
00000000
,
00100000
10000000
00100000
00000000
01000000
00000000
01000000
00000000
,
00010000
01000000
00010000
00000000
00001000
00000000
00001000
00000000
,
00000010
00000001
00000010
00000000
00000100
00000000
00000100
00000000
,
00001000
00000100
00001000
00000000
00010000
00000000
00010000
00000000
,
00100000
10000000
00100000
00000000
01000000
00000000
00100000
10000000
,
01000000
00010000
01000000
00000000
00010000
00000000
00001000
00010000
,
00000010
00000100
00000001
00000000
00000010
00000100
00010000
00000000
,
00001000
00001000
00010000
00011000
,
01000000
00000000
01000000
00000000
00100000
00000000
00100000
00010000
,
00001000
00000000
00001000
00000000
00000100
00000000
00000100
00000001
,
00000010
00000000
00000010
00001000
00010000
00000000
00010000
00000000
,
00001000
00000000
00001000
00000100
00000001
00000000
00000001
00000000
,
00000100
00001000
00000100
00000000
00001000
00010000
00001000
00000000
,
00010000
00100000
00010000
00000000
00100000
10000000
00100000
00000000
,
10000000
10000000
10000000
01000000
,
00010000
00010000
00010000
00001000
,
00000010
00000001
00000100
00000101
,
00000100
00001000
00010000
00011000
,
00010000
01000000
10000000
11000000
,
10000000
00100000
01000000
10010000
,
01000000
10000000
01000000
00000000
00100000
00000000
01000000
10000000
,
00100000
00010000
00100000
00000000
00010000
00000000
00001000
00010000
,
00000100
00000010
00000001
00000000
00000100
00000010
00010000
00000000
,
00001000
00001000
00010000
00011000
,
00010000
01000000
00010000
00000000
00001000
00000010
00001000
00000000
,
00010000
01000000
00010000
00000000
00001000
00000010
00001000
00000000
,
00010000
01000000
00010000
00000000
00001000
00000100
00001000
00000000
,
00010000
00100000
00010000
00000000
00001000
00000010
00001000
00000000
,
00020000
00000000
00000000
00000000
,
00001000
00000000
00000010
00000000
00000200
00000000
00000000
00030300
,
00000010
00000010
00000010
00000010
,
00000001
00000001
00000001
00000001
,
00000100
00001000
00000000
00001000
00010000
00000000
00010000
00100000
,
00000000
00100000
10000000
00000000
00010000
00000000
10010000
00000000
,
01000000
00010000
00000000
00010000
00001000
00000000
00001000
00000010
,
00000000
00000010
00000001
00000000
00001000
00000000
00001001
00000000
,
00000010
00001000
00000000
00001000
00010000
00000000
00010000
01000000
,
00000000
01000000
10000000
00000000
00010000
00000000
10010000
00000000
,
00100000
00010000
00000000
00010000
00001000
00000000
00001000
00000100
,
00000000
00000100
00000001
00000000
00001000
00000000
00001001
00000000
;

//---------------dance-double - ----------------
#NOTEDATA:;
#CHARTNAME:;
#STEPSTYPE:dance-double;
#DESCRIPTION:;
#CHARTSTYLE:;
#DIFFICULTY:Hard;
#METER:11;
#RADARVALUES:0.405760,0.488863,0.103493,0.034498,0.195488,247.000000,238.000000,9.000000,3.000000,0.000000,0.000000,0.000000,0.000000,0.000000,0.405760,0.488863,0.103493,0.034498,0.195488,247.000000,238.000000,9.000000,3.000000,0.000000,0.000000,0.000000,0.000000,0.000000;
#CREDIT:;
#DISPLAYBPM:34.000000:138.000000;
#NOTES:
00000000
00000000
00000000
00000000
,
00000000
00000000
00000000
00000000
,
00000000
00000000
00000000
00000000
,
00000000
00000000
00000000
00000000
,
00000000
00000000
00000000
00000000
,
00100000
10000000
00100000
00000000
10000000
00000000
10000000
00000000
,
01000000
00010000
01000000
00000000
00010000
00000000
00010000
00000000
,
00001000
00000010
00001000
00000000
00000010
00000000
00000010
00000000
,
00000001
00000100
00000001
00000000
00000100
00000000
00000100
00000000
,
00001000
00000000
00010000
00000000
00001000
00000000
01000000
00000000
00000000
00000000
00000000
01000000
00100000
00000000
10000000
00000000
,
01000000
00000000
00010000
00000000
00001000
00000000
00000010
00000000
00000000
00000000
00000000
00000100
00000010
00000000
00000001
00000000
,
00000100
00000000
00000010
00001000
00000000
00000100
00000000
00010000
00001000
00000000
00100000
01000000
00000000
10000000
00000000
00010000
,
10000000
00000000
01000000
00000000
00100000
01000000
00000000
00010000
00000000
00000000
00000000
00000000
00001000
00000000
00010000
00000000
,
00000010
00000000
00000100
00000000
00000001
00000100
00000000
00000100
00000001
00000000
00000001
00001000
00000000
00000000
00000000
00000000
,
00000001
00000000
00000100
00000000
00001000
00010000
00000000
00010000
00001000
00000000
00001000
01000000
00000000
00000000
00000000
00000000
,
00100000
10000000
00100000
00000000
10000000
01000000
10000000
00000000
,
01000000
00010000
01000000
00000000
00010000
00001000
00011000
00000000
,
00000010
00000001
00000011
00000000
00000001
00000100
00000101
00000000
,
00000100
00001000
00001100
00000000
00001000
00010000
00011000
00000000
,
02000000
00100000
00000000
10000000
,
00000000
00100000
00000000
13000000
,
10000000
00000000
00000000
00000000
01000000
00000000
00000000
00000000
00010000
00000000
00000000
01000000
00100000
00000000
00001000
00000000
,
00010000
00000000
00000000
00000000
00001000
00000000
00000000
00000000
00000100
00000000
00000000
00000001
00001000
00000000
00000100
00000000
,
00010000
00000000
00000000
00000000
00001000
00000000
00000000
00000000
01000000
00000000
00000000
00010000
10000000
00000000
01000000
00000000
,
10000000
00000000
00000000
00000000
01000000
00000000
00000000
00000000
00010000
00000000
00000000
00001000
00010000
00000000
00000100
00000000
,
00000010
00000000
00000001
00000000
00000100
00000000
00000001
00000000
00000000
00000000
00000000
00000001
00000010
00000000
00000100
00000000
,
00010000
00000000
00001000
00000000
00010000
00000000
00100000
00000000
10000000
00000000
00000000
00010000
10000000
00000000
01000000
00000000
,
00100000
00000000
00010000
00000000
10000000
01000000
00000000
00000000
00100000
00000000
00001000
00000000
00010000
00000000
00000000
00000000
,
00000100
00000000
00000010
00000000
00000001
00001000
00000000
00000001
00000000
00000000
00000100
00000000
00000000
00000010
00010000
00000000
,
00001000
00010000
00001000
00000000
00010000
00100000
00010000
00000000
,
00100000
10000000
00100000
00000000
10000000
01000000
10000000
00000000
,
01000000
00000000
00100000
00000000
00001000
00010000
00000000
00010000
00001000
00000000
00010000
00000100
00000000
00000010
00000000
00000000
,
00000001
00000000
00001000
00000000
00000010
00000100
00000000
00000100
00000010
00000000
00010000
00001000
00000000
01000000
00000000
00000000
,
00200000
00000000
00000000
00000000
,
10000000
00000000
01000000
00000000
20000000
00000000
00000000
30300000
,
01000000
01000000
01000000
01000000
,
00010000
00010000
00010000
00010000
,
00001000
00000010
00000000
00000010
00000001
00000000
00000001
00000100
,
00000000
00000100
00001000
00000000
00010000
00001000
00011000
00000000
,
00010000
00100000
00000000
00100000
10000000
00000000
10000000
01000000
,
00000000
01000000
00010000
00000000
00001000
00010000
00011000
00000000
,
00001000
00000100
00000000
00000100
00000001
00000000
00000001
00000010
,
00000000
00000010
00001000
00010000
00001000
00010000
00011000
00000000
,
00010000
01000000
00000000
01000000
10000000
00000000
10000000
00100000
,
00000000
00100000
00010000
00001000
00010000
00001000
00011000
00000000
;

//---------------dance-single - ----------------
#NOTEDATA:;
#CHARTNAME:;
#STEPSTYPE:dance-single;
#DESCRIPTION:;
#CHARTSTYLE:;
#DIFFICULTY:Challenge;
#METER:13;
#RADARVALUES:0.666958,0.797619,0.275983,0.114993,0.827948,406.000000,382.000000,24.000000,10.000000,0.000000,0.000000,0.000000,0.000000,0.000000,0.666958,0.797619,0.275983,0.114993,0.827948,406.000000,382.000000,24.000000,10.000000,0.000000,0.000000,0.000000,0.000000,0.000000;
#CREDIT:;
#DISPLAYBPM:34.000000:138.000000;
#NOTES:
// measure 0
0000
0000
0000
0000
,  // measure 1
0000
0000
0000
0000
,  // measure 2
0000
0000
0000
0000
,  // measure 3
0000
0000
0000
0000
,  // measure 4
0000
0000
0000
0000
,  // measure 5
0010
0000
0001
0010
1000
0010
0100
0000
1000
0000
0100
0001
0010
0001
1000
0000
,  // measure 6
0100
0000
0001
0010
0000
0100
0010
0000
1000
0000
0010
0100
0010
1000
0010
0000
,  // measure 7
1000
0000
0010
0001
0000
0010
0100
0000
1000
0000
0010
1000
0001
0100
0010
0000
,  // measure 8
0100
0000
0010
0100
0000
1000
0100
0000
0010
0000
1000
0001
0100
0001
0010
0000
,  // measure 9
0100
0000
0010
1000
0000
1000
0001
0000
0010
0001
0000
0001
0100
0000
0010
0000
,  // measure 10
1000
0000
0010
0100
0000
0010
0100
0000
1000
0000
0001
1000
0000
0001
1000
0010
,  // measure 11
0001
0000
0100
0001
0000
0100
0010
0000
0100
1000
0000
0100
1000
0000
0010
0000
,  // measure 12
1000
0000
0010
0100
0000
0010
0100
0001
0100
0000
0010
0000
0100
0010
0100
0000
,  // measure 13
0120
0000
1000
0000
0100
0000
1030
0100
,  // measure 14
0210
0000
0000
0000
0301
0000
0000
0000
0010
0000
0001
0010
0000
0010
0000
1000
,  // measure 15
0010
0001
0000
0001
0100
0010
1000
0100
0010
0000
0001
0000
0100
0000
0010
0000
,  // measure 16
1000
0000
0100
0000
0010
0000
0001
0000
0010
0000
1000
0000
0010
0001
0100
0001
,  // measure 17
0010
0100
0010
0100
0010
0100
0010
0100
0010
0100
0010
0100
0010
0100
0010
0000
,  // measure 18
1000
0001
1000
0001
1000
0001
1000
0000
0001
1000
0001
1000
0001
1000
0001
0000
,  // measure 19
0010
0000
0001
0010
0000
0100
0000
0010
0000
1000
0000
0100
0001
0010
0000
1000
,  // measure 20
0010
0000
0001
2000
0000
0000
0000
0000
0000
0000
0000
0000
3001
1000
0001
1000
,  // measure 21
0001
0000
0000
0001
0010
0000
0000
0010
0001
0000
0000
0001
0100
0000
0010
0000
,  // measure 22
1000
0000
0000
1000
0100
0000
0000
0100
0010
0000
0000
0010
1000
0000
0010
0000
,  // measure 23
0100
0000
0000
0100
0001
0000
0000
0001
0100
0000
0000
0100
0010
0000
1000
0000
,  // measure 24
0001
0000
0000
0001
1000
0000
0000
1000
0010
0000
0000
0010
0001
0000
0010
0000
,  // measure 25
0100
0000
0010
1000
0000
0010
0000
0100
0001
0000
1000
0001
0000
1000
0001
1000
,  // measure 26
0001
0000
0010
0100
0000
1000
0000
0010
0000
0100
0001
0000
0010
0000
0100
0000
,  // measure 27
1000
0000
0010
0100
0000
0001
0000
0010
0000
1000
0010
0001
0100
0010
1000
0000
,  // measure 28
0100
0000
0100
0000
0010
1000
0000
1010
0000
0001
0000
1000
0001
1000
0001
0000
,  // measure 29
1002
0000
0010
0000
1000
0000
0103
0010
,  // measure 30
2001
3100
0210
0301
,  // measure 31
0001
0000
0010
0001
0000
0100
0000
0010
1000
0000
0100
0010
0000
0001
0000
0100
,  // measure 32
0010
0000
1000
0010
0000
0001
0000
0100
0010
0000
0001
0100
0000
0010
0000
0001
,  // measure 33
0100
0001
0100
0001
0100
0001
0100
0001
0100
0001
0100
0001
0100
0001
0100
0001
,  // measure 34
0200
0000
0000
0000
0000
0000
0000
0000
0000
0000
0000
0000
0320
0000
0000
0000
0000
0000
0000
0000
0000
0000
0000
0000
2030
0000
0000
0000
0000
0000
3000
0000
0001
1000
0001
1000
0001
0200
0000
0000
0000
0000
0000
0000
0001
0000
0000
0000
,  // measure 35
0301
0001
0001
0001
,  // measure 36
0010
0010
0010
0010
,  // measure 37
1000
0010
0000
0000
0000
0000
1000
0010
0000
0000
0000
0000
0001
0000
0000
0000
0000
0000
0100
0001
0000
0000
0000
0000
0100
0001
0000
0000
0000
0000
0010
0000
0000
0000
0000
0000
1000
0001
0000
0000
0000
0000
1000
0001
0000
0000
0000
0000
,  // measure 38
0100
0000
0000
0000
0000
0000
0010
0100
0000
0000
0000
0000
0010
0100
0000
0000
0000
0000
0001
0000
0000
0000
0000
0000
0100
0010
0000
0000
0000
0000
1000
0001
0000
0000
0000
0000
0100
0000
0000
0000
0000
0000
0000
0000
0000
0000
0000
0000
,  // measure 39
0010
0001
0000
0000
0000
0000
0010
0001
0000
0000
0000
0000
0100
0000
0000
0000
0000
0000
1000
0010
0000
0000
0000
0000
1000
0010
0000
0000
0000
0000
0001
0000
0000
0000
0000
0000
1000
0100
0000
0000
0000
0000
1000
0100
0000
0000
0000
0000
,  // measure 40
0010
0000
0000
0000
0000
0000
0100
0001
0000
0000
0000
0000
0100
0001
0000
0000
0000
0000
0010
0000
0000
0000
0000
0000
0001
1000
0000
0000
0000
0000
0001
0100
0000
0000
0000
0000
0001
0000
0000
0000
0000
0000
0000
0000
0000
0000
0000
0000
,  // measure 41
1010
1000
1100
1000
1001
0011
0001
0101
,  // measure 42
1100
0100
0110
0010
0011
0101
0100
0000
,  // measure 43
1001
0001
0011
0001
0101
0110
0010
0110
,  // measure 44
1010
0010
0011
0001
0101
0100
0110
0000
;
