#VERSION:0.83;
#TITLE:LIVIN' LA VIDA LOCA;
#SUBTITLE:;
#ARTIST:C.J.CREW featuring GIORGIO;
#TITLETRANSLIT:;
#SUBTITLETRANSLIT:;
#ARTISTTRANSLIT:;
#GENRE:;
#ORIGIN:;
#CREDIT:;
#BANNER:LIVIN' LA VIDA LOCA.png;
#BACKGROUND:LIVIN' LA VIDA LOCA-bg.png;
#PREVIEWVID:;
#JACKET:LIVIN' LA VIDA LOCA-jacket.png;
#CDIMAGE:;
#DISCIMAGE:;
#LYRICSPATH:;
#CDTITLE:;
#MUSIC:LIVIN' LA VIDA LOCA.ogg;
#OFFSET:0.000000;
#SAMPLESTART:47.099998;
#SAMPLELENGTH:15.000000;
#SELECTABLE:YES;
#BPMS:0.000=200.000;
#STOPS:;
#DELAYS:;
#WARPS:;
#TIMESIGNATURES:0.000=4=4;
#TICKCOUNTS:0.000=4;
#COMBOS:0.000=1;
#SPEEDS:0.000=1.000=0.000=0;
#SCROLLS:0.000=1.000;
#FAKES:;
#LABELS:0.000=Song Start;
#BGCHANGES:;
#KEYSOUNDS:;
#ATTACKS:
;

//---------------dance-single - ----------------
#NOTEDATA:;
#CHARTNAME:;
#STEPSTYPE:dance-single;
#DESCRIPTION:;
#CHARTSTYLE:;
#DIFFICULTY:Easy;
#METER:6;
#RADARVALUES:0.319188,0.403713,0.105892,0.000000,0.000000,211.000000,201.000000,10.000000,0.000000,0.000000,0.000000,0.000000,0.000000,0.000000,0.319188,0.403713,0.105892,0.000000,0.000000,211.000000,201.000000,10.000000,0.000000,0.000000,0.000000,0.000000,0.000000,0.000000;
#CREDIT:;
#NOTES:
0000
0000
0000
0000
,
0000
0000
0000
0000
,
0000
0000
0000
0000
,
0000
0000
0000
0000
,
0000
0000
0000
0000
,
0000
0000
1000
0000
,
1000
0000
0001
0000
,
0001
0000
0100
0000
,
0100
0000
0010
0000
,
0010
0000
1000
0100
,
0010
0001
1000
0010
,
0100
0000
0001
1000
,
0100
0010
0001
1000
,
0000
0000
0010
0100
,
0001
1000
0100
0010
,
0001
0000
1000
0010
,
0100
0001
0010
0100
,
0000
0000
1000
0000
,
1000
0000
0010
0000
,
0010
0000
0100
0000
,
0100
0000
0001
0000
,
0001
0000
1000
0100
,
0010
0001
0100
0010
,
1000
0000
0001
0100
,
0010
1000
0001
0100
,
0000
0000
1000
0100
,
0010
0001
0100
0010
,
1000
0000
0001
0010
,
0100
1000
0001
0100
,
0000
1001
0000
1001
,
0000
0110
0000
0110
,
0000
1001
0000
0110
,
0000
1001
0000
0000
,
0000
0010
0000
0100
,
0000
1000
0001
0100
,
0000
0010
1000
0100
,
0000
1001
0000
0000
,
0000
0100
0010
1000
,
0001
0010
0000
1001
,
0000
0100
0010
0001
,
1000
0010
0100
0100
,
0000
0001
1000
0100
,
0010
0001
0100
0000
,
0000
0010
1000
0100
,
0010
0001
1000
1000
,
0000
0010
0100
0001
,
0010
0100
1000
0000
,
0000
0001
0100
1000
,
0100
0001
0100
0010
,
0000
1000
0100
0010
,
0001
1000
0010
0000
,
0000
0100
0001
0010
,
0100
1000
0001
0001
,
0000
0100
0010
1000
,
0100
0010
0001
0000
,
0000
0100
0010
1000
,
0001
0010
0100
0000
,
0000
1000
0001
0100
,
0010
1000
0100
0000
,
0000
0010
0000
0001
,
0000
0000
1000
0100
,
0000
0010
0001
0010
,
0001
0000
0100
0010
,
0000
1000
0100
0010
,
0000
0000
0001
1000
,
0000
0010
0100
0010
,
0100
0000
0001
0010
,
0000
0100
1000
0001
,
0000
0000
0100
0010
,
0000
1000
0001
1000
,
0001
0000
0010
0100
,
0000
1000
0010
0100
,
0000
0000
0001
1000
,
0000
0100
0010
0100
,
0010
0000
0001
0100
,
0000
0010
1000
0100
,
0000
1001
0000
0000
;

//---------------dance-single - ----------------
#NOTEDATA:;
#CHARTNAME:;
#STEPSTYPE:dance-single;
#DESCRIPTION:;
#CHARTSTYLE:;
#DIFFICULTY:Medium;
#METER:11;
#RADARVALUES:0.473488,0.524826,0.328265,0.000000,0.000000,313.000000,282.000000,31.000000,0.000000,0.000000,0.000000,0.000000,0.000000,0.000000,0.473488,0.524826,0.328265,0.000000,0.000000,313.000000,282.000000,31.000000,0.000000,0.000000,0.000000,0.000000,0.000000,0.000000;
#CREDIT:;
#NOTES:
0000
0000
0000
0000
,
0000
0000
0000
0000
,
0000
0000
0000
0000
,
0000
0000
0000
0000
,
0000
0000
0000
0000
,
0000
1100
0001
0001
,
0001
0101
1000
1000
,
1000
1010
0100
0100
,
0100
0101
0010
0010
,
0010
0000
0100
0000
1000
0001
1000
0000
,
0100
0010
0001
0100
,
0010
0000
1000
0000
0001
0100
0001
0000
,
1000
0100
0010
0001
,
0000
0000
0100
0000
0010
1000
0010
0000
,
0100
0001
0010
0100
,
1000
0000
0001
0000
0100
0010
0100
0000
,
0001
1000
0100
0010
,
0000
1001
0100
0100
,
0100
0110
1000
1000
,
1000
1100
0010
0010
,
0010
0011
1000
1000
,
1000
0000
0010
0000
0100
0001
0100
0000
,
0010
1000
0100
0010
,
0001
0000
1000
0000
0010
0100
0010
0000
,
1000
0001
0100
0010
,
0000
0000
1000
0000
0100
0010
0100
0000
,
1000
0001
0100
0010
,
1000
0000
0001
0000
0010
0100
0010
0000
,
0001
1000
0010
0100
,
0000
0000
0001
0000
0010
0100
0000
1000
,
0000
0000
0001
0000
0100
0010
0000
1000
,
0000
0000
0001
0000
0010
0100
0000
1000
,
0001
0000
0100
0100
,
0100
0000
0010
0000
1000
0100
0000
0010
,
0000
0000
0001
0000
0100
0010
0000
1000
,
0000
0001
0100
0010
,
1000
0100
0000
0000
,
0000
0000
1001
0000
0010
0100
0010
0000
,
1000
1100
0000
0001
,
0001
0000
0101
0000
0000
1010
0000
0000
,
1100
0000
0000
0011
0000
0000
1001
0000
,
0000
0000
0010
0000
0100
0000
0001
0010
,
0001
0000
1000
0000
0100
0000
0010
0001
,
0010
0000
0101
0000
0000
1010
0000
0000
,
1100
0000
0000
0011
0000
0000
1001
0000
,
0000
0000
0010
0000
0100
0000
0001
0010
,
0001
1000
0100
0010
,
0000
0000
1001
0000
0000
0101
0000
0000
,
0110
0000
0000
1010
0000
0000
1001
0000
,
0000
0000
0010
0000
0100
0000
1000
0010
,
1000
0000
0001
0000
0100
0000
0010
1000
,
0010
0000
1100
0000
0000
0011
0000
0000
,
0101
0000
0000
1001
0000
0000
1100
0000
,
0000
0000
0010
0000
0001
0000
0100
0010
,
0100
0001
1000
0100
,
0000
0000
0010
0000
0001
0000
1000
0010
,
1000
0001
0100
0010
,
0000
0000
1000
0000
0100
0000
0010
0001
,
0010
0100
1000
0001
,
0100
0010
0000
1000
,
0000
0000
0001
0000
0100
0010
0100
0000
,
0001
1000
0100
0010
,
0001
0000
1000
0000
0100
0010
0100
0000
,
1000
0001
0100
0010
,
0000
0000
1000
0000
0001
0010
0001
0000
,
1000
0100
0010
0001
,
0100
0000
0010
0000
1000
0100
1000
0000
,
0010
0100
0001
1000
,
0000
0000
0010
0000
0100
0001
0100
0000
,
0010
1000
0100
0010
,
0001
0000
0100
0000
0010
1000
0010
0000
,
0100
0001
0010
0100
,
0000
0000
1000
0000
0001
0100
0001
0000
,
1000
0100
0010
0001
,
1000
0000
0010
0000
0100
0001
0100
0000
,
0010
1000
0001
0010
,
0100
1001
0000
0000
;

//---------------dance-single - ----------------
#NOTEDATA:;
#CHARTNAME:;
#STEPSTYPE:dance-single;
#DESCRIPTION:;
#CHARTSTYLE:;
#DIFFICULTY:Hard;
#METER:14;
#RADARVALUES:0.636864,0.726683,0.127070,0.000000,0.031768,421.000000,409.000000,12.000000,0.000000,0.000000,0.000000,0.000000,0.000000,0.000000,0.636864,0.726683,0.127070,0.000000,0.031768,421.000000,409.000000,12.000000,0.000000,0.000000,0.000000,0.000000,0.000000,0.000000;
#CREDIT:;
#NOTES:
0000
0000
0000
0000
,
0000
0000
0000
0000
,
0000
0000
0000
0000
,
0000
0000
0000
0000
,
0000
0000
0000
0000
,
0000
0000
1001
0000
0100
0010
0100
0000
,
0000
0000
1000
0001
0000
0100
0000
0010
,
0000
0000
1001
0000
0010
0100
0010
0000
,
0000
0000
1000
0001
0000
0100
0000
0000
,
0000
0000
1000
0100
0010
0001
0100
0010
,
1000
0000
0001
0010
0100
1000
0001
0100
,
0010
0000
1000
0100
0010
0001
0100
0010
,
1000
0000
0001
0100
0000
1001
0000
0000
,
0000
0000
0010
0100
1000
0001
0100
0010
,
1000
0000
0100
0010
0001
1000
0010
0100
,
0001
0000
1000
0100
0010
0001
0100
0010
,
1000
0000
0001
0100
0000
1001
0000
0000
,
0000
0000
0000
0000
0100
0000
0000
0001
0000
0000
0100
0000
1000
0000
0000
0010
,
0000
0000
1000
0000
0100
0000
0000
0001
0000
0000
0100
0000
1000
0000
0010
0000
,
1000
0000
0100
0000
0001
0000
0000
0100
0000
0000
1000
0000
0010
0000
0000
1000
,
0000
0000
0100
0000
0001
0000
0000
0100
0000
0000
1000
0000
0100
0000
0001
0000
,
0100
1000
0010
0000
1000
0000
0001
0100
,
0001
0000
0010
0100
1000
0001
0100
0010
,
1000
0000
0001
0000
0010
0000
0100
1000
,
0001
0000
0100
0010
1000
0100
0010
0001
,
1000
0000
0010
0000
0100
0000
0001
0010
,
0100
0000
1000
0010
0100
0001
0010
0100
,
1000
0000
0001
0100
0000
0010
0000
1000
,
0000
0001
0000
0010
0100
1000
0001
0100
,
0010
0000
1000
0100
0001
0100
1000
0100
,
0010
0000
0001
0100
1000
0100
0001
0100
,
0010
0000
1000
0100
0010
0000
0001
0100
,
0010
1001
0000
0000
,
0000
0000
0010
0100
1000
0010
0100
0001
,
0010
0000
0100
1000
0010
0100
0001
0010
,
0100
0000
1000
0010
0100
0000
0001
0010
,
0100
1001
0000
0000
,
0000
0000
1000
0100
0001
0000
1000
0100
,
0001
1001
0000
0000
,
0000
0000
0010
0010
0000
0100
0100
0000
,
1000
1000
0000
0010
0010
0000
0101
0000
,
0000
0000
1000
0000
0100
0000
0010
0001
,
0100
0000
0010
0000
1000
0000
0100
0010
,
0001
0000
1000
1000
0000
0010
0010
0000
,
0100
0100
0000
0001
0001
0000
1100
0000
,
0000
0000
0010
0000
0001
0000
0100
0010
,
1000
0000
0001
0000
0010
0000
0100
1000
,
0001
0000
0100
0100
0000
0010
0010
0000
,
1000
1000
0000
0100
0100
0000
0011
0000
,
0000
0000
0100
0000
0010
0000
1000
0100
,
0010
0000
0001
0000
0100
0000
0010
1000
,
0100
0000
0010
0010
0000
0001
0001
0000
,
1000
1000
0000
0010
0010
0000
0101
0000
,
0000
0000
1000
0000
0100
0000
0010
0001
,
1000
0000
0010
0000
0100
0000
0001
1000
,
0100
0000
0010
0000
0001
0000
0100
0010
,
1000
0000
0100
0000
0010
0000
0001
1000
,
0010
0000
0100
0000
0001
0000
0010
0100
,
1000
0000
0001
0000
0100
0000
0010
1000
,
0001
0100
0100
0100
,
0100
0000
1000
0100
0001
0100
1000
0100
,
0001
0100
1000
0100
0001
0100
1000
0100
,
0001
0000
1000
0010
0001
0010
1000
0010
,
0001
0010
1000
0010
0001
0010
1000
0010
,
0001
0000
1000
0100
0001
0100
1000
0010
,
1000
0100
0001
0100
1000
0010
1000
0100
,
0001
0000
0100
1000
0010
1000
0100
0001
,
0100
1000
0010
1000
0100
0001
0100
1000
,
0010
0000
1000
0100
0001
0100
1000
0010
,
1000
0100
0001
0100
1000
0010
1000
0100
,
0001
0100
1000
0010
0100
0001
1000
0100
,
0010
0001
0100
1000
0100
0001
0010
0100
,
1000
0000
0100
0001
0100
1000
0010
1000
,
0100
0001
0100
1000
0010
0100
0001
0010
,
0100
1000
0001
0100
1000
0100
0001
0010
,
0100
1000
0001
0100
0010
1000
0001
0010
,
0100
1000
1001
0000
0000
0000
0000
0000
;

//---------------dance-double - ----------------
#NOTEDATA:;
#CHARTNAME:;
#STEPSTYPE:dance-double;
#DESCRIPTION:;
#CHARTSTYLE:;
#DIFFICULTY:Easy;
#METER:4;
#RADARVALUES:0.287421,0.363341,0.021178,0.000000,0.000000,190.000000,188.000000,2.000000,0.000000,0.000000,0.000000,0.000000,0.000000,0.000000,0.287421,0.363341,0.021178,0.000000,0.000000,190.000000,188.000000,2.000000,0.000000,0.000000,0.000000,0.000000,0.000000,0.000000;
#CREDIT:;
#NOTES:
00000000
00000000
00000000
00000000
,
00000000
00000000
00000000
00000000
,
00000000
00000000
00000000
00000000
,
00000000
00000000
00000000
00000000
,
00000000
00000000
00000000
00000000
,
00000000
10000000
01000000
01000000
,
00000000
00100000
00001000
00010000
,
00000010
00000100
00000001
00000001
,
00000000
00001000
00000100
00010000
,
00000000
00000000
00001000
00000000
,
01000000
00000000
00100000
00000000
,
10000000
00000000
01000000
00000000
,
00100000
00000000
00010000
00000000
,
01000000
00000000
10000000
00000000
,
01000000
00000000
00100000
00000000
,
00001000
00000000
00000100
00000000
,
00000001
00000000
00000010
00000000
,
00000100
00010000
00001000
00001000
,
00000000
00100000
00010000
00010000
,
00000000
10000000
01000000
01000000
,
00000000
00010000
01000000
01000000
,
00000000
00000000
00001000
00000000
,
00010000
00000000
00000010
00000000
,
00001000
00000000
00010000
00000000
,
00001000
00000000
00100000
00000000
,
00010000
00000000
10000000
00000000
,
00100000
00000000
01000000
00000000
,
00001000
00000000
00000010
00000000
,
00000001
00000000
00000100
00000000
,
00000010
00000000
00010000
00010000
,
00010000
00000000
00001000
00001000
,
00001000
00000000
00100000
00100000
,
00100000
00010000
00000000
00000000
,
00000000
00000000
10000000
10000000
,
10000000
00000000
00100000
00100000
,
00100000
00000000
01000000
01000000
,
01000000
00001000
00000000
00000000
,
00000000
00010000
00000010
00001000
,
00000100
00010000
00000000
00011000
,
00000000
00100000
00010000
00100000
,
10000000
00100000
00001000
00001000
,
00000000
00010000
00000000
00000010
,
00000000
00001000
00010000
00001000
,
00000000
00000010
00001000
00000010
,
00000001
00000010
00010000
00010000
,
00000000
00001000
00000000
00100000
,
00000000
00010000
00001000
00010000
,
00000000
00100000
01000000
00001000
,
00010000
00100000
01000000
00001000
,
00000000
00010000
00000000
00000010
,
00000000
00000100
00000001
00000010
,
00000000
00000100
00010000
00000010
,
00000100
00010000
00000100
00000010
,
00000000
00010000
00000000
00001000
,
00000000
00100000
00010000
10000000
,
00000000
00100000
00000000
01000000
,
00000000
00001000
00010000
00000010
,
00000000
00001000
00000000
00000001
,
00000000
00000010
00000100
00010000
,
00000000
00001000
00000000
00010000
,
00000000
00000000
00000010
00000000
,
00000010
00000000
00001000
00000001
,
00000010
00000000
00000100
00000000
,
00000100
00010000
00001000
00100000
,
00000000
00000000
00010000
00000000
,
00010000
00000000
10000000
00100000
,
01000000
00000000
00001000
00000000
,
00001000
00010000
00000010
00000100
,
00000000
00000001
00000001
00001000
,
00001000
00000000
00000100
00000100
,
00000000
00010000
00010000
00001000
,
00001000
00000000
00100000
00100000
,
00000000
00010000
10000000
00100000
,
01000000
00000000
00001000
00010000
,
00000000
00000010
00000100
00000001
,
00001000
00000000
00000100
00010000
,
00000000
00011000
00000000
00000000
;

//---------------dance-double - ----------------
#NOTEDATA:;
#CHARTNAME:;
#STEPSTYPE:dance-double;
#DESCRIPTION:;
#CHARTSTYLE:;
#DIFFICULTY:Medium;
#METER:7;
#RADARVALUES:0.425080,0.484455,0.010589,0.000000,0.000000,281.000000,280.000000,1.000000,0.000000,0.000000,0.000000,0.000000,0.000000,0.000000,0.425080,0.484455,0.010589,0.000000,0.000000,281.000000,280.000000,1.000000,0.000000,0.000000,0.000000,0.000000,0.000000,0.000000;
#CREDIT:;
#NOTES:
00000000
00000000
00000000
00000000
,
00000000
00000000
00000000
00000000
,
00000000
00000000
00000000
00000000
,
00000000
00000000
00000000
00000000
,
00000000
00000000
00000000
00000000
,
00000000
00000000
10000000
00000000
00010000
01000000
00001000
00000000
,
00010000
00000000
00000010
00000000
00001000
00000001
00000100
00000000
,
00000010
00000000
00001000
00000000
00000100
00010000
00001000
00000000
,
00100000
00010000
10000000
01000000
,
00000000
00000000
00100000
00000000
00010000
00010000
00000000
01000000
,
01000000
00000000
00001000
00000000
00010000
00010000
00000000
00000010
,
00000010
00000000
00001000
00000000
00000100
00000100
00000000
00000010
,
00000010
00000001
00000100
00000010
,
00000000
00000000
00010000
00000000
00001000
00001000
00000000
00100000
,
00100000
00000000
00010000
00000000
01000000
01000000
00000000
00100000
,
00100000
00000000
10000000
00000000
01000000
01000000
00000000
00100000
,
00100000
00010000
01000000
00001000
,
00000000
00000000
00010000
00000000
00000010
00001000
00000010
00000000
,
00000100
00000001
00000100
00000000
00000010
00001000
00000010
00000000
,
00010000
00000000
00001000
00000000
00100000
00010000
00100000
00000000
,
01000000
10000000
01000000
00000000
00100000
00010000
00100000
00000000
,
00001000
00000000
00010000
00000000
00000010
00001000
00000000
00000001
,
00000010
00000000
00000100
00000000
00010000
00001000
00000000
00100000
,
00010000
00000000
10000000
00000000
01000000
00100000
00000000
00010000
,
01000000
00001000
00010000
00000010
,
00000000
00000000
00001000
00000000
00000001
00000010
00000000
00000100
,
00001000
00000000
00000010
00000000
00010000
00001000
00000000
00100000
,
00010000
00000000
10000000
00000000
01000000
00100000
00000000
00010000
,
01000000
00001000
00010000
00001000
,
00010000
00000000
00000010
00000000
00001000
00000000
00000001
00000100
,
00000001
00000000
00000010
00000000
00000100
00000000
00010000
00001000
,
00010000
00000010
00000001
00010000
,
00001000
00100000
00000000
00000000
,
00000000
00000000
01000000
00000000
10000000
00000000
00010000
01000000
,
00010000
00000000
00100000
00000000
00001000
00000000
00010000
00000010
,
00010000
00000100
00000001
00000100
,
00001000
00000010
00000000
00000000
,
00000000
00010000
00000000
00001000
,
00000000
00000000
00100000
00000000
00010000
10000000
00010000
00000000
,
00100000
00000000
10000000
00000000
00000000
01000000
00000000
00000000
,
00001000
00000000
00000000
00000010
00000000
00000000
00000001
00000000
,
00000000
00001000
00000100
00000010
,
00000000
00000001
00000100
00000010
,
00000000
00000000
00000001
00000000
00000000
00000010
00000000
00000000
,
00010000
00000000
00000000
01000000
00000000
00000000
00100000
00000000
,
00000000
10000000
01000000
00100000
,
00000000
00010000
01000000
00100000
,
00000000
00000000
10000000
00000000
00000000
01000000
00000000
00000000
,
00100000
00000000
00000000
00001000
00000000
00000000
00000100
00000000
,
00000000
00000001
00000010
00000100
,
00000000
00001000
00000010
00000100
,
00000000
00000000
00000001
00000000
00000000
00001000
00000000
00000000
,
01000000
00000000
00000000
10000000
00000000
00000000
00010000
00000000
,
00000000
01000000
00001000
00010000
,
00000000
00000010
00001000
00000001
,
00000000
00000010
00000100
00010000
,
00000000
00001000
00100000
00010000
,
00000000
10000000
00100000
01000000
,
00000000
00010000
00100000
01000000
,
00000000
10000000
00000000
00010000
,
00000000
00000000
01000000
00000000
00001000
00010000
00000010
00000000
,
00001000
00000001
00000010
00000100
,
00001000
00000000
00000010
00000000
00010000
00001000
01000000
00000000
,
00010000
10000000
01000000
00100000
,
00000000
00000000
00010000
00000000
01000000
00001000
00010000
00000000
,
00000010
00001000
00000001
00000010
,
00000100
00000000
00010000
00000000
00001000
00100000
00010000
00000000
,
10000000
00100000
01000000
00010000
,
00000000
10000000
01000000
00100000
,
00001000
00010000
00000010
00000000
00000100
00000000
00000001
00000000
,
00001000
00000100
00010000
00000000
00001000
00000000
00100000
00000000
,
00010000
10000000
01000000
00000000
00100000
00000000
00010000
00000000
,
00000000
01000000
00001000
00000100
,
00000001
00001000
00000100
00000000
00010000
00000000
01000000
00000000
,
10000000
00100000
00010000
00000000
00000010
00000000
00000001
00000000
,
00000010
00001000
00000100
00000000
00010000
00000000
00001000
00000000
,
00100000
10010000
00000000
00000000
;

//---------------dance-double - ----------------
#NOTEDATA:;
#CHARTNAME:;
#STEPSTYPE:dance-double;
#DESCRIPTION:;
#CHARTSTYLE:;
#DIFFICULTY:Hard;
#METER:9;
#RADARVALUES:0.641402,0.686311,0.031768,0.000000,0.031768,424.000000,421.000000,3.000000,0.000000,0.000000,0.000000,0.000000,0.000000,0.000000,0.641402,0.686311,0.031768,0.000000,0.031768,424.000000,421.000000,3.000000,0.000000,0.000000,0.000000,0.000000,0.000000,0.000000;
#CREDIT:;
#NOTES:
00000000
00000000
00000000
00000000
,
00000000
00000000
00000000
00000000
,
00000000
00000000
00000000
00000000
,
00000000
00000000
00000000
00000000
,
00000000
00000000
00000000
00000000
,
00000000
00000000
10000000
01000000
00100000
00000000
00010000
01000000
,
00100000
00000000
10000000
00010000
01000000
00000000
00001000
00010000
,
00000010
00000000
00001000
00000001
00000010
00000000
00000100
00010000
,
00001000
00000000
00100000
00010000
10000000
00000000
01000000
00000000
,
01000000
00000000
00100000
00010000
01000000
00001000
00010000
00000010
,
00001000
00000000
00000001
00000010
00000100
00001000
00000010
00010000
,
00001000
00000000
00100000
00010000
10000000
01000000
00100000
00010000
,
01000000
00000000
00001000
00010000
00000010
00001000
00000001
00000000
,
00000000
00000000
00000010
00000100
00010000
00001000
00100000
00010000
,
10000000
00000000
00100000
01000000
00010000
10000000
01000000
00100000
,
00001000
00000000
00010000
00000010
00001000
00000001
00000010
00000100
,
00001000
00000000
00000001
00000100
00000010
00001000
00000100
00000000
,
00000000
00000000
00000000
00000000
00010000
00000000
00000000
00001000
00000000
00000000
00000100
00000000
00000001
00000000
00000000
00001000
,
00000000
00000000
00000100
00000000
00010000
00000000
00000000
01000000
00000000
00000000
10000000
00000000
00010000
00000000
01000000
00000000
,
00001000
00000000
00010000
00000000
00000010
00000000
00000000
00000100
00000000
00000000
00000001
00000000
00000010
00000000
00000000
00000100
,
00000000
00000000
00010000
00000000
00001000
00000000
00000000
01000000
00000000
00000000
00100000
00000000
10000000
00000000
01000000
00000000
,
00100000
00010000
01000000
00100000
10000000
01000000
00100000
00001000
,
00010000
00000000
00000010
00001000
00000001
00000010
00000100
00010000
,
00001000
00000000
00100000
00010000
10000000
01000000
00100000
00010000
,
01000000
00000000
00001000
00010000
00000010
00001000
00000001
00000000
,
00000000
00000000
00000010
00000100
00001000
00000001
00000100
00000010
,
00010000
00000000
00001000
00100000
00010000
10000000
01000000
00100000
,
00010000
00000000
01000000
00001000
00010000
00000010
00001000
00000001
,
00000100
00000000
00000010
00001000
00000100
00010000
00001000
00000000
,
00000000
00000000
00100000
00010000
10000000
00000000
00100000
01000000
,
00010000
00000000
00100000
00001000
00010000
00000000
00000010
00001000
,
00000001
00000000
00000010
00000100
00001000
00000000
00000010
00010000
,
00001000
00100000
00000000
00000000
,
00000000
00000000
00010000
10000000
01000000
00000000
00100000
00001000
,
00010000
00000000
00000010
00001000
00000001
00000000
00000010
00000100
,
00001000
00000000
00000010
00010000
00001000
00000000
00100000
00010000
,
10000000
01000000
00000000
00000000
,
00000000
00000000
00100000
00010000
00000000
01000000
00001000
00000000
,
00010000
00000010
00000000
00001000
00000001
00000000
00000011
00000000
,
00000101
00000000
00000010
00001000
00000100
00010000
00001000
00100000
,
00010000
10000000
01000000
00100000
00010000
01000000
00001000
00000000
,
00000000
00000000
00010000
00001000
00010000
00000000
00000010
00001000
,
00000010
00000000
00000100
00000001
00000100
00000000
00000010
00001000
,
00000010
00000000
00010000
00001000
00100000
00010000
10000000
01000000
,
00100000
00010000
01000000
00001000
00010000
00000010
00001000
00000000
,
00000000
00000000
00000001
00000010
00000001
00000000
00001000
00000100
,
00001000
00000000
00000010
00010000
00000010
00000000
00001000
00000001
,
00001000
00000000
00000100
00010000
00001000
00100000
00010000
10000000
,
01000000
00100000
00010000
01000000
00001000
00010000
00000010
00000000
,
00000000
00000000
00001000
00000001
00001000
00000000
00000100
00010000
,
00000100
00000000
00001000
00000010
00001000
00000000
00000001
00000100
,
00000001
00000000
00000010
00010000
00001000
00100000
00010000
10000000
,
01000000
00100000
00001000
00010000
00000010
00001000
00000001
00000000
,
00000000
00000000
00000010
00000100
00000010
00000000
00000001
00000100
,
00000001
00000000
00001000
00000100
00001000
00000000
00000010
00010000
,
00000010
00000000
00001000
00000100
00010000
00000000
00001000
00100000
,
00010000
00000000
10000000
01000000
00100000
00000000
00010000
01000000
,
00001000
00000000
00010000
00000010
00001000
00000000
00000001
00000010
,
00000100
00000000
00001000
00000010
00010000
00000000
00001000
01000000
,
00010000
10000000
10000000
01000000
,
01000000
00000000
00100000
00000000
00001000
00010000
00000100
00000000
,
00001000
00000000
00000001
00000100
00000010
00000000
00001000
00000100
,
00000010
00000000
00000001
00000000
00001000
00000100
00010000
00000000
,
00001000
00000000
00100000
00010000
10000000
00000000
00100000
01000000
,
00010000
00000000
00100000
00000000
00001000
00010000
00000100
00000000
,
00001000
00000000
00000001
00000100
00000010
00000000
00001000
00000100
,
00000010
00000000
00000001
00000000
00001000
00000100
00010000
00000000
,
00001000
00000000
00100000
00010000
10000000
00000000
00100000
01000000
,
00010000
00000000
00100000
00000000
00001000
00010000
00000100
00000000
,
00001000
00000001
00000100
00000000
00000010
00010000
00001000
00000000
,
00100000
00010000
10000000
00000000
01000000
00100000
00001000
00000000
,
00010000
00000010
00001000
00000000
00000001
00000010
00000100
00000000
,
00001000
00000010
00000100
00000000
00000001
00001000
00000100
00000000
,
00010000
00001000
00100000
00000000
00010000
10000000
01000000
00000000
,
00100000
00001000
01000000
00000000
00010000
10000000
01000000
00000000
,
00100000
00001000
00010000
00000000
00000010
00001000
00000100
00000000
,
00000010
00001001
00000000
00000000
;

//---------------dance-solo - ----------------
#NOTEDATA:;
#CHARTNAME:;
#STEPSTYPE:dance-solo;
#DESCRIPTION:;
#CHARTSTYLE:;
#DIFFICULTY:Easy;
#METER:5;
#RADARVALUES:0.355494,0.363341,0.010589,0.000000,0.000000,235.000000,234.000000,1.000000,0.000000,0.000000,0.000000,0.000000,0.000000,0.000000,0.355494,0.363341,0.010589,0.000000,0.000000,235.000000,234.000000,1.000000,0.000000,0.000000,0.000000,0.000000,0.000000,0.000000;
#CREDIT:;
#NOTES:
000000
000000
000000
000000
,
000000
000000
000000
000000
,
000000
000000
000000
000000
,
000000
000000
000000
000000
,
000000
000000
000000
000000
,
000000
000000
000001
000001
,
000000
000000
010000
000000
,
010000
000000
000010
000010
,
000000
000000
100000
000000
,
100000
000000
000100
001000
,
000100
000000
100000
000010
,
100000
000000
000001
010000
,
000001
000000
000100
001000
,
000100
000000
010000
000001
,
001000
000000
000010
100000
,
001000
000000
000100
000001
,
100000
000100
001000
000010
,
000000
100000
100000
000001
,
000001
010000
010000
001000
,
001000
000100
000100
000001
,
000001
010000
010000
000010
,
000010
000000
100000
000100
,
001000
000000
000010
100000
,
000001
000000
010000
001000
,
000100
000000
000001
100000
,
010000
000000
010000
000100
,
100000
000000
000010
001000
,
000001
000000
000100
001000
,
010000
000001
100000
000100
,
000000
010000
000010
100000
,
000001
010000
001000
001000
,
001000
000100
000001
010000
,
001000
000100
000001
000001
,
000001
010000
000010
100000
,
000100
001000
000010
100000
,
000001
010000
001000
000100
,
000001
010000
000000
000000
,
000000
000010
000010
000100
,
000100
000001
001000
000010
,
000000
100000
100000
000001
,
000001
000100
001000
010000
,
000000
000001
000001
100000
,
100000
000100
001000
000010
,
000000
000100
000100
001000
,
001000
100000
000001
100000
,
000000
000010
000010
010000
,
010000
000100
100000
001000
,
000000
100000
100000
000001
,
100000
000100
001000
000010
,
000000
100000
100000
000001
,
000001
000100
001000
010000
,
000000
000001
000001
000100
,
000100
000010
010000
000001
,
000000
100000
100000
000010
,
000010
001000
000100
100000
,
000000
000001
000001
010000
,
010000
001000
000100
000001
,
000000
010000
010000
000010
,
000010
100000
000100
001000
,
000000
000001
000000
100000
,
000000
000000
000010
000010
,
000000
001000
000100
100000
,
000001
000000
010000
010000
,
000000
001000
000100
000001
,
000000
000000
010000
010000
,
000000
000010
100000
001000
,
000100
000000
000001
000001
,
000000
010000
000010
000100
,
000000
000001
001000
000010
,
000100
000001
100000
001000
,
000100
000001
010000
000010
,
100000
000100
001000
000010
,
100000
000001
010000
000100
,
100000
001000
000100
000001
,
100000
000010
010000
000100
,
100000
000001
010000
001000
,
000000
100001
000000
000000
;

//---------------dance-solo - ----------------
#NOTEDATA:;
#CHARTNAME:;
#STEPSTYPE:dance-solo;
#DESCRIPTION:;
#CHARTSTYLE:;
#DIFFICULTY:Medium;
#METER:7;
#RADARVALUES:0.476513,0.565198,0.201194,0.000000,0.000000,315.000000,296.000000,19.000000,0.000000,0.000000,0.000000,0.000000,0.000000,0.000000,0.476513,0.565198,0.201194,0.000000,0.000000,315.000000,296.000000,19.000000,0.000000,0.000000,0.000000,0.000000,0.000000,0.000000;
#CREDIT:;
#NOTES:
000000
000000
000000
000000
,
000000
000000
000000
000000
,
000000
000000
000000
000000
,
000000
000000
000000
000000
,
000000
000000
000000
000000
,
000000
000000
100000
000000
000010
010000
000010
000000
,
100000
000000
000001
000100
000000
001000
000000
010000
,
000000
000000
000001
000000
100000
000010
100000
000000
,
000001
000000
010000
001000
000000
000100
000000
000000
,
000000
000000
000001
000000
100000
000000
000010
001000
,
000010
000000
100000
000000
000100
000000
010000
000010
,
010000
000000
000001
000000
000100
000000
001000
010000
,
001000
100000
000001
001000
,
000000
000000
000010
000000
100000
000000
000001
010000
,
001000
000000
000100
000000
000001
000000
010000
000010
,
100000
000000
000100
000000
010000
000000
001000
100000
,
000100
010000
000010
000100
,
000000
000001
000001
010000
,
010000
000000
000010
000000
000010
000000
100000
000100
,
010000
001000
000100
000000
000100
000000
000001
000000
,
000001
000000
010000
000000
010000
000000
000010
100000
,
000001
000100
000010
000000
000010
000000
100000
000001
,
001000
000000
000010
000000
000010
000000
100000
000100
,
010000
000000
000010
000000
000010
000000
000100
000001
,
001000
000010
100000
000001
,
000000
000000
001000
000000
001000
000000
000010
100000
,
000100
000000
010000
000000
010000
000000
000001
000100
,
001000
000000
010000
000000
010000
000000
000001
001000
,
000100
100000
000010
010000
,
000000
000000
000100
000000
100000
001000
000000
000100
,
000001
000000
010000
000000
000010
100000
000000
000100
,
001000
000010
000010
100000
,
100000
000001
000000
000000
,
000000
000000
000100
000000
001000
010000
000000
000001
,
100000
000000
000010
000000
001000
000100
000000
100000
,
000001
010000
010000
001000
,
001000
000100
000000
000000
,
000001
010000
000001
000000
100000
000010
100000
000000
,
000100
001000
000100
000000
000000
000000
100001
000000
,
000000
000000
010000
000000
010000
000000
001000
000100
,
001000
000000
010000
000001
010000
000000
000010
000000
,
000000
000000
100000
000100
100000
000000
000001
000100
,
000001
010000
000010
100000
,
000000
000000
000001
000000
000001
000000
010000
001000
,
000100
000001
100000
000010
,
000000
000000
001000
000100
001000
000000
000001
100000
,
000001
010000
001000
000100
,
000000
000000
000001
000000
010000
000000
000010
100000
,
000010
000000
001000
000100
001000
000000
000010
000000
,
000000
100000
001000
000100
,
000001
000000
010000
000010
010000
000000
000100
000000
,
000000
000000
100000
000001
100000
000000
000010
010000
,
000010
000000
000100
000001
000100
000000
000010
000000
,
000000
000000
010000
000000
001000
000000
000100
000001
,
000100
000000
000010
000000
010000
000000
000100
100000
,
001000
000000
000100
000000
000001
000000
010000
000010
,
010000
000000
000100
000000
001000
000000
000010
100000
,
000001
000000
000100
000000
001000
000000
010000
000001
,
000100
000000
000010
000000
010000
000000
000001
100000
,
001000
000100
000000
000001
,
000000
000000
010000
000010
,
000000
000100
100001
001000
,
010001
000000
000010
000100
,
000000
000001
011000
000100
,
000000
000000
000001
010000
,
000000
000010
100001
000100
,
010010
000000
000100
000001
,
000000
010000
000110
000001
,
000000
010000
000110
100000
,
001100
000010
100001
010000
,
001100
000001
100000
000010
,
001000
000100
100000
001000
,
000000
000100
010001
000010
,
100001
000100
001001
000010
,
100001
001000
010001
000010
,
100001
000100
010000
100001
,
000000
001100
000000
000000
;

//---------------dance-solo - ----------------
#NOTEDATA:;
#CHARTNAME:;
#STEPSTYPE:dance-solo;
#DESCRIPTION:;
#CHARTSTYLE:;
#DIFFICULTY:Hard;
#METER:9;
#RADARVALUES:0.697373,0.686311,0.010589,0.000000,0.031768,461.000000,460.000000,1.000000,0.000000,0.000000,0.000000,0.000000,0.000000,0.000000,0.697373,0.686311,0.010589,0.000000,0.031768,461.000000,460.000000,1.000000,0.000000,0.000000,0.000000,0.000000,0.000000,0.000000;
#CREDIT:;
#NOTES:
000000
000000
000000
000000
,
000000
000000
000000
000000
,
000000
000000
000000
000000
,
000000
000000
000000
000000
,
000000
000000
000000
000000
,
000000
000000
010000
000001
000010
000001
010000
000001
,
000100
000010
100000
010000
100000
000010
100000
010000
,
100000
000100
010000
000001
000010
000001
010000
000001
,
000100
000010
100000
010000
100000
000010
100000
010000
,
100000
000000
000010
010000
000001
000000
000100
001000
,
010000
000000
000001
100000
000010
000000
001000
000100
,
001000
000000
000010
100000
000001
000000
010000
001000
,
000100
000000
000001
000000
100000
001000
000000
000100
,
000001
000000
010000
000010
100000
000000
000100
001000
,
000010
000000
100000
000001
010000
000000
001000
000100
,
001000
000000
010000
000001
100000
000000
000010
001000
,
000100
000000
100000
000000
000001
001000
000000
000100
,
100000
000000
000000
000000
000010
000000
000000
000010
000000
000000
000010
000000
010000
000000
000000
010000
,
000000
000000
010000
000000
000100
000000
000000
000100
000000
000000
000100
000000
100000
000000
001000
000000
,
010000
000000
000001
000000
100000
000000
000000
100000
000000
000000
100000
000000
000010
000000
000000
000010
,
000000
000000
000010
000000
001000
000000
000000
001000
000000
000000
001000
000000
000100
000000
100000
000000
,
001000
010000
000001
001000
000010
000000
100000
000100
,
010000
000000
000010
000100
000001
000000
100000
001000
,
010000
000000
000001
000100
000010
000000
010000
001000
,
100000
000000
000001
001000
000000
000010
000000
100000
,
000100
000000
010000
000010
100000
000000
000001
010000
,
000010
000000
000100
000001
001000
000000
000100
100000
,
001000
000000
010000
000001
100000
000000
000010
001000
,
000100
000000
100000
000010
000000
010000
000000
000001
,
000100
000000
001000
000000
001000
000000
010000
001000
,
010000
000000
000001
100000
000000
100000
000000
000100
,
001000
000000
000010
100000
000001
000000
010000
001000
,
000100
000000
000001
100000
000000
100000
000000
000100
,
001000
000000
000010
100000
000001
000000
010000
001000
,
000100
000000
000001
100000
000100
001000
000000
000010
,
000010
000000
100000
000100
001000
000001
000100
001000
,
010000
000000
000001
100000
000100
001000
000010
100000
,
000001
000000
000100
000010
000010
000000
010000
000100
,
000100
000000
100000
001000
010000
000100
100000
000000
,
000000
000000
000001
000100
000010
010000
000100
100000
,
001000
010000
000001
100000
000100
000000
000100
000000
,
000000
000000
010000
000010
000000
000010
000000
100000
,
001000
000000
000100
000001
000000
000001
000000
001000
,
000100
000000
100000
001000
000100
000001
010000
000010
,
100000
000100
001000
000001
010000
000000
010000
000000
,
000000
000000
001000
000100
000000
000100
000000
000001
,
100000
000000
000010
001000
000000
001000
000000
000100
,
100000
000000
000010
010000
000001
000100
001000
010000
,
000001
000000
100000
000010
001000
000100
100000
000010
,
010000
000000
000001
000100
000010
010000
000000
000100
,
000100
000000
100000
001000
010000
000001
000000
000100
,
000100
000000
000010
010000
000100
100000
001000
010000
,
000001
000100
001000
010000
000001
100000
000100
001000
,
000001
000000
000100
000010
001000
000100
000000
000100
,
100000
000010
010000
000001
000100
001000
000000
001000
,
010000
000001
100000
000100
010000
000010
000000
000010
,
100000
001000
000100
000001
001000
000100
000000
100000
,
000010
010000
000001
000100
001000
100000
000000
100000
,
000100
001000
000001
100000
001000
000100
000000
000100
,
000100
000001
000000
100000
,
000000
000000
000010
001000
000100
100000
000001
010000
,
001000
000100
000001
100000
000100
001000
000001
000100
,
001000
000000
100000
010000
100000
000010
100000
010000
,
100000
000010
010000
000001
000100
001000
100000
000100
,
001000
000000
000010
100000
000100
010000
001000
100000
,
000100
001000
000001
100000
001000
000100
000001
010000
,
000010
100000
000100
001000
000010
100000
000001
010000
,
001000
000100
000001
010000
000010
100000
000001
000100
,
001000
000000
010000
000001
100000
001000
010000
000001
,
100000
000010
001000
000100
100000
001000
010000
000001
,
000100
000010
001000
000100
100000
010000
001000
000100
,
001000
000010
001000
000001
100000
001000
000100
000001
,
001000
010000
001000
000010
100000
000001
000100
001000
,
010000
000001
100000
000010
001000
000100
100000
001000
,
010000
000001
100000
000100
001000
000010
100000
000001
,
010000
001000
000100
000001
001000
000100
100000
000001
,
000100
010010
000000
000000
;

//---------------dance-single - ----------------
#NOTEDATA:;
#CHARTNAME:;
#STEPSTYPE:dance-single;
#DESCRIPTION:;
#CHARTSTYLE:;
#DIFFICULTY:Beginner;
#METER:3;
#RADARVALUES:0.163376,0.322970,0.074124,0.074124,0.000000,108.000000,101.000000,7.000000,7.000000,0.000000,0.000000,0.000000,0.000000,0.000000,0.163376,0.322970,0.074124,0.074124,0.000000,108.000000,101.000000,7.000000,7.000000,0.000000,0.000000,0.000000,0.000000,0.000000;
#CREDIT:;
#NOTES:
0000
0000
0000
0000
,
0000
0000
0000
0000
,
0000
0000
0000
0000
,
0000
0000
0000
0000
,
0000
0000
0000
0000
,
0000
0000
0010
0000
,
0000
0100
0000
0100
,
0000
0010
0000
0000
,
0000
0110
0000
0000
,
0000
0000
1000
1000
,
0000
0001
0000
0001
,
0000
0000
0010
0010
,
0000
0010
0000
0000
,
0000
0000
0100
0100
,
0000
0100
0000
0000
,
0000
0000
0010
0010
,
0000
0010
0000
0000
,
0000
0000
1000
0000
,
1000
0000
0001
0000
,
0002
0000
0000
0000
,
0000
0000
0000
0000
,
0003
0000
1000
1000
,
0000
0001
0000
0000
,
0000
0000
0001
0001
,
0000
1000
0000
0000
,
0000
0000
0010
0010
,
0000
0100
0000
0000
,
0000
0000
0110
0000
,
0000
0000
0000
0000
,
0000
0000
1000
0000
,
0000
1000
0000
0100
,
0000
0100
0000
0010
,
0000
0010
0000
0001
,
0000
0001
0000
0100
,
0000
0100
0000
0010
,
0000
0010
0000
1000
,
0000
1000
0000
0001
,
0000
0001
0000
0100
,
0000
0100
0000
0010
,
0000
0020
0000
0000
,
0000
0000
0000
0030
,
0000
0010
0010
0010
,
0010
0010
0010
0000
,
0000
0200
0000
0000
,
0000
0000
0000
0300
,
0000
0100
0100
0100
,
0100
0100
0100
0000
,
0000
2000
0000
0000
,
0000
0000
0000
3000
,
0000
1000
1000
1000
,
1000
1000
1000
0000
,
0000
0002
0000
0000
,
0000
0000
0000
0003
,
0000
0001
0001
0001
,
0001
0001
0001
0000
,
0000
1001
0000
0000
,
0000
0000
0000
0000
,
0000
1001
0000
0000
,
0000
0000
0000
0000
,
0000
0000
0000
0000
,
0000
0010
0000
0010
,
0000
0100
0100
0100
,
0000
0001
0000
0001
,
0000
1000
1000
1000
,
0000
0001
0000
0000
,
0000
1001
0000
0000
,
0000
1000
0000
0001
,
0000
0100
0000
0010
,
0000
0200
0000
0000
,
0000
0000
0000
0000
,
0000
0000
0000
0000
,
0000
0000
0000
0300
,
0000
0020
0000
0000
,
0000
0000
0000
0000
,
0000
0000
0000
0000
,
0000
0030
0000
0000
,
1001
1001
0000
0000
;

//---------------dance-single - ----------------
#NOTEDATA:;
#CHARTNAME:;
#STEPSTYPE:dance-single;
#DESCRIPTION:;
#CHARTSTYLE:;
#DIFFICULTY:Challenge;
#METER:18;
#RADARVALUES:1.090686,1.336620,0.465924,0.201194,1.000678,721.000000,677.000000,44.000000,19.000000,0.000000,0.000000,0.000000,0.000000,0.000000,1.090686,1.336620,0.465924,0.201194,1.000678,721.000000,677.000000,44.000000,19.000000,0.000000,0.000000,0.000000,0.000000,0.000000;
#CREDIT:;
#NOTES:
// measure 0
0000
0000
0000
0000
,  // measure 1
0000
0000
0000
0000
,  // measure 2
0000
0000
0000
0000
,  // measure 3
0000
0000
0000
0000
,  // measure 4
0000
0000
0000
0000
,  // measure 5
0000
0000
0000
0000
0001
0010
0000
0001
0010
0000
0100
0000
1000
0000
0200
0000
,  // measure 6
0000
1000
0000
0010
0000
1000
0000
0310
,  // measure 7
0000
0000
1000
0000
0010
1000
0000
0010
1000
0000
0001
0000
0100
0000
0002
0000
,  // measure 8
0000
0010
0000
0100
0000
0010
0000
1003
,  // measure 9
0000
0001
1000
0001
0100
0001
1000
0001
,  // measure 10
0100
0000
0001
0000
0010
0001
0010
0000
0001
0000
0100
0001
0100
0000
0010
0001
,  // measure 11
0010
0001
0100
0001
1000
0100
1000
0010
,  // measure 12
1000
0000
0100
0000
1000
0100
1000
0000
0010
0000
1000
0100
1000
0000
0010
0000
,  // measure 13
1000
0000
0001
0000
0100
0001
0100
0000
0001
0000
1000
0000
0100
0001
0100
0000
,  // measure 14
0001
0000
0010
0000
0100
0010
0100
0000
1000
0000
0010
0100
0010
0000
0100
0010
,  // measure 15
0100
0000
0001
0000
1000
0100
1000
0000
0010
0000
1000
0000
0001
1000
0001
0000
,  // measure 16
1000
0001
2000
0000
0100
0000
0010
0000
,  // measure 17
3100
1000
0100
1000
0100
0000
1000
0000
0010
1000
0000
0010
1000
0000
0001
0000
,  // measure 18
0010
0001
0000
0010
0001
0000
0100
0000
0001
0010
0000
0001
0010
0000
0001
0000
,  // measure 19
1000
0001
1000
0001
1000
0001
1000
0001
1000
0001
1000
0001
1000
0001
1000
0001
,  // measure 20
1000
0001
1000
0001
1000
0001
1000
0001
1000
0001
1000
0001
1000
0001
1000
0001
,  // measure 21
1000
0001
1000
0001
1000
0001
1000
0000
0001
0000
1000
0000
0001
0000
1000
0000
,  // measure 22
0010
0100
0001
1001
0000
0101
0000
0011
,  // measure 23
0001
0100
0001
1000
0010
0000
1010
0000
,  // measure 24
1000
0100
0010
0100
1000
0010
0100
1000
,  // measure 25
0100
0010
0100
0001
1000
0001
0100
1000
,  // measure 26
0001
1000
0100
0110
0000
1100
0000
1010
,  // measure 27
0010
0100
0001
1000
0002
0000
0100
0000
,  // measure 28
0013
0000
0001
0000
0010
0001
0010
0000
0001
0010
0001
0000
0010
0001
0010
0001
,  // measure 29
0010
0001
0010
0001
0010
0000
0001
0000
1000
0000
1010
0000
0000
0000
1001
0000
,  // measure 30
0000
1100
0000
1010
0000
1100
0000
1001
,  // measure 31
0000
0210
0000
0301
1000
0100
0000
0100
,  // measure 32
0010
0001
0010
0100
0010
0001
0010
0100
,  // measure 33
0010
0001
0010
0001
0010
0000
0001
0000
1000
0000
1001
0000
0000
0000
1100
0000
,  // measure 34
0000
0110
0000
0011
0000
0101
0000
0110
,  // measure 35
0010
1000
0000
0100
1000
0100
0000
0100
,  // measure 36
0010
0001
2000
0000
0010
0000
0100
0000
,  // measure 37
3001
0000
1000
0010
1000
0000
0010
0000
0100
0000
0010
0100
0010
0000
0100
0000
,  // measure 38
0001
0000
0010
0000
0000
0000
0011
0000
0011
0000
0011
0000
0001
0010
0001
0010
,  // measure 39
0100
1000
0100
1000
0010
1000
0010
1000
0010
0000
1000
0010
1000
0010
1000
0000
,  // measure 40
0001
1000
0001
1000
0001
0000
0010
0001
0010
0001
0010
0000
0022
0000
0000
0000
,  // measure 41
0033
0000
1000
0001
0100
0000
0001
0000
0010
0000
0001
0000
0100
0000
0001
0000
,  // measure 42
1000
0000
0001
0000
0000
0100
0001
0000
0010
0000
0001
0000
0100
0000
0001
0000
,  // measure 43
0011
0000
0010
0000
0100
0010
0100
0010
0100
0000
1000
0010
1000
0010
1000
0000
,  // measure 44
0010
0100
0010
0100
0010
0000
0001
0100
0001
0100
0001
0000
0202
0000
0000
0000
,  // measure 45
0303
0000
0001
0100
0010
0000
0100
0000
0001
0000
0100
0000
0010
0000
0100
0000
,  // measure 46
0001
0000
0011
0000
0000
0000
1100
0000
1000
0010
0100
0010
1000
0010
0100
0000
,  // measure 47
1100
0000
0000
0000
1000
0100
0010
0001
0100
0000
0001
0010
0100
1000
0010
0000
,  // measure 48
1000
0100
0010
0001
0100
0000
0001
0010
0100
1000
0010
0000
0220
0000
0000
0000
,  // measure 49
0330
0010
0001
0010
0100
0000
1000
0000
0100
0000
0010
0000
0100
0000
1000
0000
,  // measure 50
0001
0000
0100
0000
0000
0001
0100
0000
0010
0000
1000
0000
0001
0010
0001
1000
,  // measure 51
0100
0000
0000
0000
0100
1000
0001
1000
0010
0000
0001
0100
0010
0100
1000
0000
,  // measure 52
0001
0010
1000
0010
0100
0000
0010
0001
0100
0001
1000
0000
2002
0000
0000
0000
,  // measure 53
3003
0000
0001
0100
1000
0000
0100
0000
0001
0000
0100
0000
1000
0000
0010
0000
,  // measure 54
0001
0000
0011
0000
0000
0000
1001
0000
0000
0000
1000
0000
0100
0010
0100
0010
,  // measure 55
0001
0000
0000
0000
0001
0010
0001
0000
0100
0000
0010
1000
0000
0000
0001
0010
,  // measure 56
0000
0000
0100
1000
0000
0000
0020
0000
0000
0000
0130
0001
1000
0100
0010
0000
,  // measure 57
0001
1000
0001
1000
0100
0000
0010
0000
1000
0000
1001
0000
0000
0000
1010
0000
,  // measure 58
0000
0000
0101
0000
0000
0000
1000
0000
0100
1000
0001
0100
0010
0000
1000
0000
,  // measure 59
0100
0010
0000
0000
0000
0000
0000
0000
,  // measure 60
0000
0000
0000
0000
0001
0000
0010
0001
0000
0010
0001
0000
1000
0001
1000
0000
,  // measure 61
0100
1000
0100
1000
0010
0000
1000
0000
0001
0000
0100
0000
0010
0000
0100
0010
,  // measure 62
0100
0010
0100
0010
0100
0010
0100
0010
0100
0010
0100
0010
0100
0010
0100
0010
,  // measure 63
0100
0010
0100
0010
0100
0010
0100
0010
0100
0010
0100
0010
0100
0010
0100
0010
,  // measure 64
0100
0000
0110
0000
0011
0000
0001
0010
0000
0001
0010
0000
0100
1000
0100
0000
,  // measure 65
1000
0010
1000
0010
0100
0000
0001
0000
1000
0000
0002
0000
0010
0000
1003
0001
,  // measure 66
1000
0100
0010
0000
1000
0000
0001
0000
1000
0000
0100
1000
0100
0000
0010
0000
,  // measure 67
0000
0000
0100
0010
0100
0000
0010
0000
0001
0000
1000
0000
0001
0100
0001
0100
,  // measure 68
0001
0000
0101
0000
1010
0000
1000
0010
0000
1000
0010
0000
0100
0001
0100
0000
,  // measure 69
0001
0010
0001
0010
0100
0000
1000
0000
0010
0000
0100
0000
0001
0000
1000
0100
,  // measure 70
1000
0100
1000
0100
1000
0100
1000
0100
1000
0100
1000
0100
1000
0100
1000
0100
,  // measure 71
1000
0100
1000
0100
1000
0100
1000
0100
1000
0100
1000
0100
1000
0100
1000
0100
,  // measure 72
1000
0000
1100
0000
1001
0000
1000
0001
0000
1000
0001
0000
1000
0001
1000
0000
,  // measure 73
0010
0100
0010
0100
0001
0000
1000
0000
0010
0000
2000
0000
0001
0000
3100
0010
,  // measure 74
0001
1000
0100
0000
1000
0010
1000
0010
1000
0010
1000
0010
1000
0010
1000
0010
,  // measure 75
1000
0010
1000
0010
0100
0001
0100
0001
0100
0001
0100
0001
0100
0001
0100
0001
,  // measure 76
0100
0101
2002
0000
3003
0000
0000
0000
;
