#VERSION:0.83;
#TITLE:LET'S GROOVE;
#SUBTITLE:;
#ARTIST:TIPS & TRICKS VS WISDOME;
#TITLETRANSLIT:;
#SUBTITLETRANSLIT:;
#ARTISTTRANSLIT:;
#GENRE:;
#ORIGIN:;
#CREDIT:;
#BANNER:LET'S GROOVE.png;
#BACKGROUND:LET'S GROOVE-bg.png;
#PREVIEWVID:;
#JACKET:LET'S GROOVE-jacket.png;
#CDIMAGE:;
#DISCIMAGE:;
#LYRICSPATH:;
#CDTITLE:;
#MUSIC:LET'S GROOVE.ogg;
#OFFSET:0.000000;
#SAMPLESTART:23.490000;
#SAMPLELENGTH:15.000000;
#SELECTABLE:YES;
#DISPLAYBPM:65.000000:130.000000;
#BPMS:0.000=129.677,
4.000=129.996,
116.000=65.011,
132.000=130.027;
#STOPS:;
#DELAYS:;
#WARPS:;
#TIMESIGNATURES:0.000=4=4;
#TICKCOUNTS:0.000=4;
#COMBOS:0.000=1;
#SPEEDS:0.000=1.000=0.000=0;
#SCROLLS:0.000=1.000;
#FAKES:;
#LABELS:0.000=Song Start;
#BGCHANGES:;
#KEYSOUNDS:;
#ATTACKS:
;

//---------------dance-single - ----------------
#NOTEDATA:;
#CHARTNAME:;
#STEPSTYPE:dance-single;
#DESCRIPTION:;
#CHARTSTYLE:;
#DIFFICULTY:Beginner;
#METER:3;
#RADARVALUES:0.123511,0.164739,0.125137,0.011376,0.000000,76.000000,65.000000,11.000000,1.000000,0.000000,0.000000,0.000000,0.000000,0.000000,0.123511,0.164739,0.125137,0.011376,0.000000,76.000000,65.000000,11.000000,1.000000,0.000000,0.000000,0.000000,0.000000,0.000000;
#CREDIT:;
#DISPLAYBPM:65.000000:130.000000;
#NOTES:
// measure 0
0000
0000
0000
0000
,  // measure 1
0000
0000
0000
0000
,  // measure 2
0000
0000
0000
0000
,  // measure 3
0001
0000
0000
0000
,  // measure 4
0000
0000
0000
0000
,  // measure 5
1000
0000
0000
0000
,  // measure 6
0001
0000
0000
0000
,  // measure 7
1000
0000
0000
0000
,  // measure 8
0001
0000
1000
0000
,  // measure 9
0001
0000
1000
0000
,  // measure 10
0001
0000
1000
0000
,  // measure 11
0001
0000
1000
0000
,  // measure 12
1001
0000
0000
0000
,  // measure 13
1001
0000
0100
0000
,  // measure 14
1001
0000
0100
0000
,  // measure 15
0001
0000
0100
0000
,  // measure 16
1000
0000
0100
0000
,  // measure 17
0010
0000
0100
0000
,  // measure 18
0010
0000
0100
0000
,  // measure 19
0001
0000
0100
0000
,  // measure 20
1000
0000
0100
0000
,  // measure 21
1001
0000
0100
0000
,  // measure 22
1001
0000
0100
0000
,  // measure 23
0001
0000
0100
0000
,  // measure 24
1000
0000
0100
0000
,  // measure 25
0010
0000
0100
0000
,  // measure 26
0010
0000
0100
0000
,  // measure 27
0001
0000
0100
0000
,  // measure 28
1000
0000
0100
0000
,  // measure 29
1001
0000
0000
0000
,  // measure 30
1001
0000
0000
0000
,  // measure 31
1001
0000
0000
0000
,  // measure 32
1001
0000
0000
0000
,  // measure 33
1001
0000
0001
0000
,  // measure 34
0001
0000
0100
0000
,  // measure 35
0010
0000
0100
0000
,  // measure 36
0010
0000
0100
0000
,  // measure 37
1001
0000
0001
0000
,  // measure 38
0001
0000
0100
0000
,  // measure 39
0010
0000
0100
0000
,  // measure 40
0010
0000
0200
0000
,  // measure 41
0000
0000
0000
0300
0000
0000
0000
0000
;

//---------------dance-single - ----------------
#NOTEDATA:;
#CHARTNAME:;
#STEPSTYPE:dance-single;
#DESCRIPTION:;
#CHARTSTYLE:;
#DIFFICULTY:Easy;
#METER:5;
#RADARVALUES:0.185267,0.423616,0.238897,0.136513,0.000000,114.000000,93.000000,21.000000,12.000000,0.000000,0.000000,0.000000,0.000000,0.000000,0.185267,0.423616,0.238897,0.136513,0.000000,114.000000,93.000000,21.000000,12.000000,0.000000,0.000000,0.000000,0.000000,0.000000;
#CREDIT:;
#DISPLAYBPM:65.000000:130.000000;
#NOTES:
0000
0000
0000
0000
,
0000
0000
0000
0000
,
0000
0000
0000
0000
,
0001
0000
0100
0000
,
1000
0000
0100
0000
,
1001
0000
0000
0000
,
1001
0000
0000
0000
,
1001
0000
0000
0000
,
1001
1001
1001
1001
,
0110
0110
0110
0110
,
1001
1001
1001
1001
,
1001
0000
0000
0000
,
0110
0000
0000
0000
,
1001
0000
0100
0000
,
1001
0000
0100
0000
,
0001
0000
0100
0000
,
1000
0000
0100
0000
,
0001
0001
1000
1000
,
0001
1000
0001
0001
,
1000
0000
0100
0000
,
0001
0000
0100
0000
,
0010
0010
0100
0100
,
0002
0003
2000
3000
,
0001
0001
1000
1000
,
0020
0030
0200
0300
,
0001
0000
1000
0000
,
0010
0000
0100
0000
,
0002
0003
2000
3000
,
0010
0000
0000
0000
,
2002
0000
0000
0000
,
3003
0200
0000
0300
,
0020
0000
0000
0030
,
2000
3000
0001
0010
,
1001
0100
0001
0100
,
1000
0100
0001
0100
,
0010
1000
0100
0001
,
0010
1000
0100
0001
,
1000
0000
0100
0000
,
0001
0000
0100
0000
,
0001
1000
0001
1000
,
0010
0010
0200
0000
,
0000
0000
0000
0300
0000
0000
0000
0000
;

//---------------dance-single - ----------------
#NOTEDATA:;
#CHARTNAME:;
#STEPSTYPE:dance-single;
#DESCRIPTION:;
#CHARTSTYLE:;
#DIFFICULTY:Medium;
#METER:7;
#RADARVALUES:0.277901,0.353013,0.182017,0.045504,0.011376,171.000000,155.000000,16.000000,4.000000,0.000000,0.000000,0.000000,0.000000,0.000000,0.277901,0.353013,0.182017,0.045504,0.011376,171.000000,155.000000,16.000000,4.000000,0.000000,0.000000,0.000000,0.000000,0.000000;
#CREDIT:;
#DISPLAYBPM:65.000000:130.000000;
#NOTES:
0000
0000
0000
0000
,
0000
0000
0000
0000
,
0000
0000
0000
0000
,
0001
0000
0000
1000
0100
0000
0001
0000
,
1000
0000
0000
0100
1000
0000
0001
0000
,
0101
0000
0010
0010
,
0101
0000
0010
0010
,
0101
0000
0010
0010
,
0010
1000
0100
0001
,
0010
1000
0100
0001
,
0010
1000
0100
0001
,
0020
0000
0000
0030
,
2000
0000
3000
0100
,
1001
0000
0100
0000
0010
1000
0100
0000
,
0001
0000
0100
0000
1000
0001
1000
0000
,
0010
0000
0101
0000
0010
1000
0100
0000
,
1000
0000
0100
0000
0001
1000
0001
0000
,
0010
0000
1001
0000
0001
1000
0100
0000
,
0010
0000
0010
0000
1000
0001
0100
0000
,
0020
0000
0130
1001
,
0100
0000
0100
0000
0010
0100
0010
0000
,
1100
0001
1100
0001
,
0101
1000
0101
1000
,
0010
1000
0100
0000
0000
0000
0100
0000
,
0010
0001
0100
0000
0000
0000
0100
0000
,
1001
0110
0000
0100
,
1000
0100
0001
0100
,
0010
1000
0100
0001
,
0010
1000
0100
0000
,
1001
0100
0100
0100
,
0100
1000
1000
1000
,
0101
0001
0001
0001
,
0010
0000
0000
0000
0010
0000
0000
0000
0010
0001
0010
0000
0010
0001
0010
0000
,
1001
0000
0100
0000
0001
1000
0100
0000
,
0001
0000
0100
0000
0001
1000
0100
0000
,
0001
0000
0100
0000
0001
1000
0100
0000
,
0001
0001
1000
0100
,
0001
0000
1000
0000
0001
1000
0100
0000
,
0010
0010
0001
1000
,
0001
1000
0001
1000
,
0001
0000
0010
0200
0000
0000
0000
0000
,
0000
0000
0000
0300
0000
0000
0000
0000
;

//---------------dance-single - ----------------
#NOTEDATA:;
#CHARTNAME:;
#STEPSTYPE:dance-single;
#DESCRIPTION:;
#CHARTSTYLE:;
#DIFFICULTY:Hard;
#METER:10;
#RADARVALUES:0.351032,0.426175,0.102384,0.136513,0.022752,216.000000,207.000000,9.000000,12.000000,0.000000,0.000000,0.000000,0.000000,0.000000,0.351032,0.426175,0.102384,0.136513,0.022752,216.000000,207.000000,9.000000,12.000000,0.000000,0.000000,0.000000,0.000000,0.000000;
#CREDIT:;
#DISPLAYBPM:65.000000:130.000000;
#NOTES:
0000
0000
0000
0000
,
0000
0000
0000
0000
,
0000
0000
0000
0000
,
0020
0000
0030
1000
0100
0000
0001
0000
,
0020
0000
0030
1000
0100
0000
0001
0000
,
0220
0000
0330
1000
0100
0000
0001
0000
,
0220
0000
0330
0001
0100
0000
1000
0000
,
0220
0000
0330
1000
0100
0000
0001
0000
,
0010
0001
0100
0010
0100
0001
0010
0001
,
0100
0010
0100
0001
0010
0001
0100
0010
,
0100
0001
0010
0001
0100
0010
0100
0001
,
1000
0100
0010
0001
1000
0010
0100
0001
,
0010
0100
0100
0100
0100
0000
1001
0000
,
0010
1000
0100
1000
0020
0000
0030
0000
,
1000
0001
0100
0010
1000
0000
0010
0100
,
0001
0010
0100
0000
1000
0000
0000
0000
,
0100
0010
0001
0100
0010
0000
1000
0010
,
0100
0001
1000
0000
0100
0000
0000
0000
,
0010
0100
1000
0010
0100
0000
0001
1000
,
0100
0000
0010
0001
0100
0000
0000
0000
,
0001
0100
0010
1000
0100
0000
1001
0100
,
0010
0000
0001
1000
0000
0000
0000
0000
,
0100
0010
0001
1000
0100
0000
0010
1000
,
0010
1000
0100
0000
0000
0000
0000
0000
,
1000
0100
1000
0010
0100
0000
0001
0010
,
0100
1000
0001
0000
0000
0000
0000
0000
,
0001
1000
0001
0010
0100
0000
1000
0010
,
0100
0000
0001
0010
0100
0000
0000
0000
,
0220
0000
0000
0000
0330
0001
1000
0001
,
0110
0000
0001
1000
0100
0000
0000
0000
0100
0000
0000
0000
0100
0000
0000
0000
,
0100
1000
0001
0000
0100
0000
0100
0000
,
0110
0000
0001
1000
0100
0000
0000
0000
0000
0000
0000
0000
0000
0000
1000
0000
,
0011
0000
1000
0000
0010
0000
0001
0000
1000
0000
0100
0000
0010
0001
0010
0001
,
0100
0000
0010
0001
0010
0000
0100
0000
,
1000
0010
1000
0100
0000
1000
0001
0000
,
1000
0001
1000
0000
,
0010
1000
0100
1000
0000
0010
0001
0100
,
0000
0000
0010
1000
0010
0000
0100
0000
,
0010
1000
0100
0001
0000
0000
0001
0000
,
1000
0001
1000
0000
,
0100
0010
0001
0100
0000
0010
1000
0200
,
0000
0000
0000
0000
0000
0300
0000
0000
;

//---------------dance-double - ----------------
#NOTEDATA:;
#CHARTNAME:;
#STEPSTYPE:dance-double;
#DESCRIPTION:;
#CHARTSTYLE:;
#DIFFICULTY:Easy;
#METER:3;
#RADARVALUES:0.165765,0.258094,0.000000,0.455042,0.000000,102.000000,102.000000,0.000000,40.000000,0.000000,0.000000,0.000000,0.000000,0.000000,0.165765,0.258094,0.000000,0.455042,0.000000,102.000000,102.000000,0.000000,40.000000,0.000000,0.000000,0.000000,0.000000,0.000000;
#CREDIT:;
#DISPLAYBPM:65.000000:130.000000;
#NOTES:
00000000
00000000
00000000
00000000
,
00000000
00000000
00000000
00000000
,
00000000
00000000
00000000
00000000
,
00002000
00003000
00020000
00030000
,
00002000
00003000
00020000
00030000
,
00200000
00300000
20000000
30000000
,
02000000
03000000
00020000
00030000
,
00002000
00003000
00000200
00000300
,
00000001
00000001
00000100
00000100
,
00001000
00001000
00010000
00010000
,
01000000
01000000
10000000
10000000
,
00100000
00100000
00010000
00010000
,
00001000
00001000
00000100
00000000
,
00000002
00000003
00000200
00000300
,
00002000
00003000
00020000
00030000
,
02000000
03000000
20000000
30000000
,
00200000
00300000
00020000
00030000
,
00001000
00000010
00000001
00000100
,
00001000
00010000
01000000
00000000
,
00020000
00030000
00002000
00003000
,
00020000
00030000
00002000
00003000
,
00010000
00100000
10000000
01000000
,
00010000
00001000
00000100
00000000
,
00000002
00000003
00002000
00003000
,
00000002
00000003
00002000
00003000
,
00000010
00000100
00001000
00010000
,
00100000
10000000
01000000
00000000
,
00020000
00030000
00002000
00003000
,
00000200
00000000
00000000
00000300
,
00000002
00000000
00000000
00000003
,
00000200
00000000
00000000
00000300
,
00002000
00000000
00000000
00003000
,
00010000
00000000
00100000
00000000
10000000
01000000
00010000
00001000
,
00000100
00000001
00000100
00000001
,
00000100
00001000
00010000
01000000
,
10000000
01000000
10000000
01000000
,
00010000
00001000
00000100
00000001
,
00000200
00000300
00002000
00003000
,
00020000
00030000
02000000
03000000
,
20000000
30000000
00020000
00030000
,
00000200
00000300
00000002
00000000
,
00000000
00000003
00000000
00000000
,
00000000
00000000
00000000
00000000
;

//---------------dance-double - ----------------
#NOTEDATA:;
#CHARTNAME:;
#STEPSTYPE:dance-double;
#DESCRIPTION:;
#CHARTSTYLE:;
#DIFFICULTY:Medium;
#METER:4;
#RADARVALUES:0.250273,0.328483,0.091008,0.056880,0.000000,154.000000,146.000000,8.000000,5.000000,0.000000,0.000000,0.000000,0.000000,0.000000,0.250273,0.328483,0.091008,0.056880,0.000000,154.000000,146.000000,8.000000,5.000000,0.000000,0.000000,0.000000,0.000000,0.000000;
#CREDIT:;
#DISPLAYBPM:65.000000:130.000000;
#NOTES:
00000000
00000000
00000000
00000000
,
00000000
00000000
00000000
00000000
,
00000000
00000000
00000000
00000000
,
00001000
00000000
00010000
00000000
,
00001000
00000000
00010000
00000000
,
00100000
10000000
01000000
00010000
,
00000010
00001000
00000100
00000001
,
00000010
00000001
00000100
00001000
,
00100000
00010000
00000010
00001000
,
01000000
00010000
00000100
00001000
,
00100000
00010000
00000010
00001000
,
01000000
00010000
00000100
00001000
,
00010000
00001000
00010000
00000000
,
00011000
00000000
01000000
00000000
10000000
01000000
10000000
00000000
,
10010000
00000000
01000000
00000000
00010000
01000000
00010000
00000000
,
00011000
00000000
00000100
00000000
00000001
00000100
00000001
00000000
,
00001001
00000000
00000100
00000000
00001000
00000100
00001000
00000000
,
00000000
00001000
00010000
00100000
,
00000000
10000000
01000000
00010000
,
00000000
00001000
00000100
00000001
,
00000000
00000010
00010000
00001000
,
00011000
00000000
01000000
00000000
00100000
10000000
01000000
00000000
,
10010000
00000000
01000000
00000000
00100000
00010000
01000000
00000000
,
00011000
00000000
00000100
00000000
00000010
00000001
00000100
00000000
,
00001001
00000000
00000100
00000000
00000010
00001000
00000100
00000000
,
00010000
00000000
00000000
00001000
00010000
00000000
01000000
00000000
,
00001000
00000000
00000000
00010000
00001000
00000000
00000100
00000000
,
00000001
00000000
00000100
00001000
,
00020000
00000000
00000000
00030000
,
00100000
10000000
01000000
00010000
,
00000010
00001000
00000100
00000001
,
00000010
00000001
00000100
00001000
,
00100000
00010000
01000000
10000000
,
00100000
10000000
01000000
00010000
,
00100000
10000000
01000000
00020000
,
00001000
01000000
00001000
01030000
,
00002000
00010000
00000100
00010000
,
00003100
00010000
00100000
01000000
,
01000000
00010000
00000010
00000100
,
00010000
01000000
00001000
00000100
,
00020000
00001000
02000000
00000000
,
00000000
03030000
00000000
00000000
,
00000000
00000000
00000000
00000000
;

//---------------dance-double - ----------------
#NOTEDATA:;
#CHARTNAME:;
#STEPSTYPE:dance-double;
#DESCRIPTION:;
#CHARTSTYLE:;
#DIFFICULTY:Hard;
#METER:7;
#RADARVALUES:0.326655,0.472106,0.182017,0.671187,0.028440,201.000000,185.000000,16.000000,59.000000,0.000000,0.000000,0.000000,0.000000,0.000000,0.326655,0.472106,0.182017,0.671187,0.028440,201.000000,185.000000,16.000000,59.000000,0.000000,0.000000,0.000000,0.000000,0.000000;
#CREDIT:;
#DISPLAYBPM:65.000000:130.000000;
#NOTES:
00000000
00000000
00000000
00000000
,
00000000
00000000
00000000
00000000
,
00000000
00000000
00000000
00000000
,
00200000
00000000
00300000
10000000
01000000
00000000
00010000
00000000
,
00002000
00000000
00003000
00000100
00000001
00000000
00000010
00000000
,
00000200
00000000
00000300
00010000
00001000
00000000
00010000
00000000
,
00200000
00000000
00300000
00010000
00001000
00000000
01000000
00000000
,
20000000
00000000
30000000
01000000
00010000
00000000
10000000
00000000
,
11000000
00010000
00001000
00000100
00001000
00010000
01000000
00100000
,
00011000
00000100
00000010
00001000
00000001
00000100
00000000
00001000
,
00110000
01000000
10000000
01000000
00010000
00001000
00000100
00000001
,
00000110
00000001
00000100
00001000
00010000
00001000
00100000
01000000
,
10010000
01000000
00010000
00001000
00000100
00000000
00011000
00000000
,
00000200
00000000
00000300
00001000
00020000
00000000
00031000
00000000
,
02000000
00000000
03000000
00100000
20000000
00000000
30000000
00010000
,
00200000
00000000
00300000
01000000
00020000
00000000
00031000
00000000
,
00000200
00000000
00000300
00000001
00000020
00000000
00000030
00001000
,
00020000
00000000
00030000
00100000
20000000
00000000
31000000
00000000
,
00020000
00000000
00030000
00000010
00000200
00000000
00000300
00000001
,
00002000
00000000
00003000
00000100
00020000
00000000
00031000
00000000
,
02000000
00000000
03000000
00010000
20000000
00000000
30000000
00100000
,
20020000
00000000
30030000
01000000
00020000
00000000
00031000
00000000
,
00022000
00000000
00033000
00000100
00000002
00000000
00000003
00000010
,
00002200
00000000
00003300
00010000
00002000
00000000
01003000
00000000
,
02200000
00000000
03300000
00010000
20000000
00000000
30000000
01000000
,
02200000
00000000
03300000
00001000
00020000
00000000
00031000
00000000
,
00002020
00000000
00003030
00000100
00000020
00000000
00000030
00000001
,
00000202
00000000
00000303
00000010
00020000
00000000
00031000
00000000
,
00000220
00000000
00000000
00000330
,
00011000
00000000
00001000
00010000
01000000
00000000
10000000
00000000
00100000
00000000
10000000
00000000
01000000
00000000
00010000
00000000
,
00000000
00000000
00001000
00010000
00000100
00000000
00000000
00000000
00000010
00000000
00000100
00000000
00000000
00000000
00000001
00000000
,
00000000
00000000
00000100
00001000
00010000
00000000
00000000
00000000
00100000
00000000
00000000
00000000
01000000
00000000
00010000
00000000
,
10000000
00000000
01000000
00000000
00100000
00000000
01000000
00000000
10000000
00000000
00100000
00000000
00010000
00001000
00000100
00000001
,
00000110
00000000
00001000
00010000
00002000
00000000
00003000
00000000
,
00010000
00100000
10000000
02000000
00000000
03000000
00020000
00000000
,
00032000
00023000
00032000
00003100
,
00000001
00000010
00000100
00002000
00000000
00003000
00000000
00000000
,
00000010
00000000
00000100
00001000
00020000
00000000
00030000
00000000
,
00100000
10000000
01000000
00020000
00000000
00030000
00002000
00000000
,
00003200
00002300
00003200
00000300
,
00001000
00010000
01000000
20000000
00000000
30100000
01000000
00200000
,
00000000
00000000
00300000
00000000
,
00000000
00000000
00000000
00000000
;

//---------------dance-single - ----------------
#NOTEDATA:;
#CHARTNAME:;
#STEPSTYPE:dance-single;
#DESCRIPTION:;
#CHARTSTYLE:;
#DIFFICULTY:Challenge;
#METER:12;
#RADARVALUES:0.502171,0.710292,0.466418,0.329905,0.125137,309.000000,268.000000,41.000000,29.000000,0.000000,0.000000,0.000000,0.000000,0.000000,0.502171,0.710292,0.466418,0.329905,0.125137,309.000000,268.000000,41.000000,29.000000,0.000000,0.000000,0.000000,0.000000,0.000000;
#CREDIT:;
#DISPLAYBPM:65.000000:130.000000;
#NOTES:
0000
0000
0000
0000
,
0000
0000
0000
0000
,
0000
0000
0000
0000
,
0020
0000
0130
0001
1000
0000
1100
0000
,
2000
0000
3001
1000
0100
0000
1001
0000
,
0200
0000
0301
0100
1000
0000
1100
0000
,
0002
0000
1003
0001
0001
0010
0100
0000
,
0020
0000
1030
0010
0001
0010
0100
0000
,
1100
1100
1100
1100
,
0101
0101
0101
0101
,
0110
0110
0110
0110
,
1000
0010
0100
0001
1000
0100
0010
0001
,
0010
0000
0010
0000
0100
0000
0100
0000
1000
0000
1000
0000
0001
0010
0100
1000
,
0002
0000
0100
0103
0001
1000
1100
0000
,
2000
0000
0001
3001
1000
0100
0100
0001
,
0200
0001
1000
0001
1300
0001
1100
0000
,
0020
0000
1000
1030
0010
0001
0010
1000
,
0002
0100
0100
0103
0001
0010
1010
0000
,
2000
0000
0001
3001
1000
0100
0011
0000
,
0201
0000
0310
1000
0100
0010
0001
0000
,
2000
0010
3010
0100
0001
1000
0001
0000
,
2100
0000
3010
0100
1000
0001
1001
0000
,
1000
0100
0010
1000
0100
0010
0001
0100
,
0020
1000
0001
0130
0010
0100
0110
0000
,
1020
0000
0130
0001
1000
0001
0100
0010
,
1000
1000
0100
0100
0010
0001
0101
0000
,
0200
0000
0301
1000
0000
0010
0100
0001
,
1000
0000
1100
1000
0001
0000
0101
0001
,
2000
0000
3001
0000
0002
0000
1003
0000
1001
0000
0001
0010
0100
1000
0001
0000
,
0200
0000
0010
0010
0310
0000
1010
0000
1000
0010
0001
0100
0010
0000
1010
0000
,
1100
0000
0000
0000
2000
0000
0000
0000
3001
0000
0000
0000
1000
0000
0000
0000
0001
0010
0001
0000
0100
0000
0010
0000
1000
0000
0100
0000
0100
0000
0100
0000
,
0000
0010
0001
0100
1000
0000
1100
0000
0020
0000
0001
0000
1030
0010
0100
0000
,
0101
0000
0000
0000
0001
0000
0000
0000
1100
0000
0000
0000
1010
0000
0000
0000
1000
0010
1000
0000
0010
0100
0010
0000
0001
0100
0001
0000
1000
0000
0100
0000
,
0020
0000
0001
0001
0031
0100
0101
0000
,
0002
0010
0100
1000
0100
0013
0001
0000
,
2000
0000
3200
0001
2300
0000
3001
0000
,
1000
0001
0010
0100
1000
0100
0100
0100
,
0020
0000
1030
0010
0100
0001
0101
0000
,
0001
1000
0100
0001
0100
1000
0010
0000
,
0110
0000
1001
1000
0110
0000
1001
0000
,
0001
0010
0100
1000
0001
0100
0010
2000
,
0000
0000
0000
0000
0000
3000
0000
0000
;
