#VERSION:0.83;
#TITLE:LET THEM MOVE;
#SUBTITLE:;
#ARTIST:N.M.R;
#TITLETRANSLIT:;
#SUBTITLETRANSLIT:;
#ARTISTTRANSLIT:;
#GENRE:;
#ORIGIN:;
#CREDIT:;
#BANNER:LET THEM MOVE.png;
#BACKGROUND:LET THEM MOVE-bg.png;
#PREVIEWVID:;
#JACKET:LET THEM MOVE-jacket.png;
#CDIMAGE:;
#DISCIMAGE:;
#LYRICSPATH:;
#CDTITLE:;
#MUSIC:LET THEM MOVE.ogg;
#OFFSET:0.000000;
#SAMPLESTART:43.787998;
#SAMPLELENGTH:15.000000;
#SELECTABLE:YES;
#DISPLAYBPM:115.000000;
#BPMS:0.000=115.100;
#STOPS:;
#DELAYS:;
#WARPS:;
#TIMESIGNATURES:0.000=4=4;
#TICKCOUNTS:0.000=4;
#COMBOS:0.000=1;
#SPEEDS:0.000=1.000=0.000=0;
#SCROLLS:0.000=1.000;
#FAKES:;
#LABELS:0.000=Song Start;
#BGCHANGES:;
#KEYSOUNDS:;
#ATTACKS:
;

//---------------dance-single - ----------------
#NOTEDATA:;
#CHARTNAME:;
#STEPSTYPE:dance-single;
#DESCRIPTION:;
#CHARTSTYLE:;
#DIFFICULTY:Beginner;
#METER:3;
#RADARVALUES:0.140538,0.210280,0.110674,0.012297,0.000000,80.000000,71.000000,9.000000,1.000000,0.000000,0.000000,0.000000,0.000000,0.000000,0.140538,0.210280,0.110674,0.012297,0.000000,80.000000,71.000000,9.000000,1.000000,0.000000,0.000000,0.000000,0.000000,0.000000;
#CREDIT:;
#DISPLAYBPM:115.000000;
#NOTES:
0000
0000
0000
0000
,
0000
0000
0000
0000
,
0000
0000
0000
0000
,
0000
0000
0000
0000
,
0000
0000
0000
0000
,
1000
1000
0000
0100
,
0100
0000
0001
0000
,
0001
0001
0000
0100
,
0100
0000
1000
0000
,
1000
1000
0000
0010
,
0010
0000
0001
0000
,
0001
0001
0000
0010
,
0010
0000
1000
0000
,
1001
0000
0000
0000
,
1001
0000
0000
0000
,
0010
0000
0010
0000
,
0100
0100
0100
0000
,
1001
0000
0000
0000
,
1001
0000
0000
0000
,
0010
0000
0010
0000
,
0100
0100
0100
0000
,
0001
0001
0001
0000
,
1001
0000
0100
0000
,
1000
1000
1000
0000
,
1001
0000
0100
0000
,
0001
0001
0001
0000
,
0010
0000
0010
0000
,
1000
1000
1000
0000
,
0100
0000
0100
0000
,
0001
0000
0000
0000
,
1001
0000
0000
0000
,
1000
0000
0000
0000
,
1001
0000
0000
0000
,
0010
0010
0010
0000
,
0001
0000
1000
0000
,
0100
0100
0100
0000
,
0001
1000
0001
1001
,
2000
0000
0000
0000
,
3000
0000
0000
0000
;

//---------------dance-single - ----------------
#NOTEDATA:;
#CHARTNAME:;
#STEPSTYPE:dance-single;
#DESCRIPTION:;
#CHARTSTYLE:;
#DIFFICULTY:Easy;
#METER:4;
#RADARVALUES:0.202024,0.257009,0.098377,0.012297,0.000000,115.000000,107.000000,8.000000,1.000000,0.000000,0.000000,0.000000,0.000000,0.000000,0.202024,0.257009,0.098377,0.012297,0.000000,115.000000,107.000000,8.000000,1.000000,0.000000,0.000000,0.000000,0.000000,0.000000;
#CREDIT:;
#DISPLAYBPM:115.000000;
#NOTES:
0000
0000
0000
0000
,
0000
0000
0000
0000
,
0000
0000
0000
0000
,
0000
0000
0000
0000
,
0000
0000
0000
0000
,
1000
0100
0100
0100
,
0001
0100
0100
0100
,
0001
0010
0010
0010
,
1000
0010
0010
0010
,
0100
0001
0001
0001
,
0010
0001
0001
0001
,
0010
1000
1000
1000
,
0010
0001
0001
0001
,
1001
0110
0000
0000
,
1000
0100
0000
1001
,
0001
0100
0000
0110
,
0001
0001
0001
0001
,
1000
0001
0000
0100
,
1000
0001
0000
0010
,
1000
0001
0000
0110
,
0001
0001
0001
0001
,
1000
1000
0100
0100
,
0001
0001
0100
0100
,
0010
0010
0001
0001
,
0010
0010
1000
1000
,
0001
0000
0001
0000
,
0100
0100
0100
0100
,
0001
0000
0001
0000
,
0000
0000
0000
0000
,
0110
0000
0000
1000
,
0100
0001
0010
0010
,
1000
0000
0000
1001
,
0000
0000
0000
1001
,
1000
0001
0001
1000
,
0100
0100
0100
0100
,
1000
0010
1000
0010
,
1000
0010
1000
0010
,
0002
0000
0000
0000
,
0003
0000
0000
0000
;

//---------------dance-single - ----------------
#NOTEDATA:;
#CHARTNAME:;
#STEPSTYPE:dance-single;
#DESCRIPTION:;
#CHARTSTYLE:;
#DIFFICULTY:Medium;
#METER:9;
#RADARVALUES:0.277563,0.397196,0.098377,0.012297,0.000000,158.000000,150.000000,8.000000,1.000000,0.000000,0.000000,0.000000,0.000000,0.000000,0.277563,0.397196,0.098377,0.012297,0.000000,158.000000,150.000000,8.000000,1.000000,0.000000,0.000000,0.000000,0.000000,0.000000;
#CREDIT:;
#DISPLAYBPM:115.000000;
#NOTES:
0000
0000
0000
0000
,
0000
0000
0000
0000
,
0000
0000
0000
0000
,
0000
0000
0000
0000
,
0000
0000
0000
0000
,
1000
0000
1000
0000
0001
0001
0001
0000
,
0100
0000
0100
0000
0010
0010
0010
0000
,
1000
0000
1000
0000
0001
0001
1001
0000
,
0100
0000
0100
0000
0010
0010
0110
0000
,
1000
0000
1000
0000
0001
1000
1001
0000
,
0010
0000
0010
0000
0100
0010
0110
0000
,
1000
0000
1000
0000
0100
1000
1100
0000
,
0001
0000
0001
0000
0100
0001
0101
0000
,
0010
0000
0000
0000
,
0010
0000
0000
0000
,
0010
0000
0000
0000
,
0011
0000
0100
0000
0000
1000
1000
1000
,
1000
0000
0100
0000
0000
0001
0001
0000
,
0100
0000
0100
0000
0000
1000
1000
0000
,
0100
0000
0100
0000
0000
0001
0001
0000
,
0011
0000
0100
0000
1000
1000
1000
1000
,
1000
0000
0001
0000
1000
1000
1000
0000
,
0001
0000
1000
0000
0001
0001
0001
0000
,
0100
0000
0001
0000
1000
0001
1000
0000
,
0100
0000
1000
0000
0001
1000
0001
0000
,
1000
0000
0001
0000
0010
0010
0010
0000
,
0100
0100
0100
0100
,
0001
0010
1000
0100
,
0001
0010
1000
0100
,
1000
0100
1000
0100
0010
0001
0010
0001
,
1000
0100
1000
0100
0010
0001
0010
0001
,
1000
0100
1000
0100
0010
0001
0010
0001
,
1000
0100
1000
0100
,
0010
0001
0010
0001
,
0100
0100
0100
0100
,
1000
0000
1000
0000
0100
0010
0001
0000
,
1000
0000
1000
0000
0100
0010
0001
0000
,
0200
0000
0000
0000
,
0300
0000
0000
0000
;

//---------------dance-single - ----------------
#NOTEDATA:;
#CHARTNAME:;
#STEPSTYPE:dance-single;
#DESCRIPTION:;
#CHARTSTYLE:;
#DIFFICULTY:Hard;
#METER:11;
#RADARVALUES:0.347832,0.443925,0.000000,0.012297,0.202902,198.000000,198.000000,0.000000,1.000000,0.000000,0.000000,0.000000,0.000000,0.000000,0.347832,0.443925,0.000000,0.012297,0.202902,198.000000,198.000000,0.000000,1.000000,0.000000,0.000000,0.000000,0.000000,0.000000;
#CREDIT:;
#DISPLAYBPM:115.000000;
#NOTES:
0000
0000
0000
0000
,
0000
0000
0000
0000
,
0000
0000
0000
0000
,
0000
0000
0000
0000
,
0000
0000
0000
0000
1000
0100
1000
0001
,
0000
0100
0000
0100
,
0000
1000
0000
0100
,
0000
0000
1000
0100
1000
0100
1000
0000
1000
0100
1000
0100
1000
0000
0000
0000
,
0000
0000
0000
0000
1000
0001
1000
0010
,
0001
0001
0000
0001
,
0000
0010
0100
0100
,
0000
0000
0001
0100
0001
0100
0001
0000
0001
0100
0001
0100
0001
0000
0000
0000
,
0000
0000
0000
0000
1000
0001
1000
0001
,
1000
0001
0100
0010
1000
0001
0100
0010
,
1000
0001
0100
0010
1000
0001
0100
0010
,
1000
0001
0100
0010
1000
0001
1000
0000
,
0010
0000
0100
0000
0000
1000
0100
0010
,
0001
0001
0010
0100
1000
0001
0010
0100
,
1000
0001
0010
0100
1000
0001
0010
0100
,
1000
0001
0010
0100
1000
0001
1000
0000
,
0100
0000
0010
0000
1000
0100
0010
0001
,
1000
0000
0000
0000
,
0100
0100
0010
0010
,
0000
0000
1000
0100
1000
0100
1000
0000
0001
0010
0001
0010
0001
0000
0000
0000
,
0100
0100
0010
0010
,
0001
0001
1000
1000
,
0100
1000
0000
0000
0100
1000
0000
0000
0100
1000
0000
0000
0100
1000
0000
0000
,
0000
0000
1000
0100
1000
0100
1000
0000
0001
0010
0001
0010
0001
0000
0000
0000
,
0000
1000
0000
0001
,
1000
0000
0001
0000
1000
0000
0001
0000
1000
0000
0010
0000
0010
0100
0010
0000
,
0001
0000
0010
0000
0001
0000
0010
0000
0001
0000
0001
0000
0001
0010
0001
0000
,
1000
0000
0100
0000
1000
0000
0100
0000
1000
0000
1000
0000
1000
0100
1000
0000
,
0000
1000
0000
0001
,
1000
0100
1000
0100
0000
0000
0000
0000
0000
0000
0000
0000
0000
0000
0000
0000
,
0010
1000
0000
0000
0010
1000
0000
0000
0010
1000
0000
0000
0010
1000
0000
0000
,
0000
0000
1000
0010
1000
0010
1000
0000
0001
0100
0001
0100
0001
0000
0000
0000
,
1000
0100
0001
0100
,
0020
0000
0000
0000
,
0030
0000
0000
0000
;

//---------------dance-double - ----------------
#NOTEDATA:;
#CHARTNAME:;
#STEPSTYPE:dance-double;
#DESCRIPTION:;
#CHARTSTYLE:;
#DIFFICULTY:Easy;
#METER:3;
#RADARVALUES:0.210807,0.250246,0.122971,0.000000,0.000000,120.000000,110.000000,10.000000,0.000000,0.000000,0.000000,0.000000,0.000000,0.000000,0.210807,0.250246,0.122971,0.000000,0.000000,120.000000,110.000000,10.000000,0.000000,0.000000,0.000000,0.000000,0.000000,0.000000;
#CREDIT:;
#DISPLAYBPM:115.000000;
#NOTES:
00000000
00000000
00000000
00000000
,
00000000
00000000
00000000
00000000
,
00000000
00000000
00000000
00000000
,
00000000
00000000
00000000
00000000
,
00000000
00000000
00000000
00000000
,
10000000
01000000
00100000
00010000
,
00001000
00000100
00000010
00000001
,
00000001
00000100
00000010
00001000
,
00010000
01000000
00100000
10000000
,
10000000
01000000
00100000
00010000
,
00001000
00000100
00000010
00000001
,
00000001
00000010
00000100
00001000
,
00010000
00100000
01000000
10000000
,
10010000
00011000
00000000
00000000
,
00000001
00001000
00000000
00010000
,
10000000
00010000
00000000
00011000
,
00000001
00001000
00000000
00000000
,
10000000
00010000
00000000
00000000
,
00001000
00000001
00000000
00000001
,
00001000
00010000
00000000
00011000
,
00100000
00010000
00001000
00000100
,
00001000
00001000
00010000
00010000
,
10000000
01000000
00100000
00010000
,
00010000
00100000
01000000
10000000
,
10000000
01000000
00100000
00010000
,
00001000
00000100
00000010
00001001
,
00000001
00001000
00010000
10000000
,
00000000
01100000
00000000
10010000
,
00000000
00000000
00000000
00000000
,
01100000
00010000
00001000
00000110
,
00001000
00010000
00001000
00010000
,
00001000
00010000
00001000
00011000
,
00000000
00000000
00000000
10000000
,
00010000
00010000
00001000
00001000
,
00000001
00001000
00010000
10000000
,
10000000
01000000
00100000
00010000
,
00001000
00000100
00000010
00000001
,
00001000
00000000
00000000
00000000
;

//---------------dance-double - ----------------
#NOTEDATA:;
#CHARTNAME:;
#STEPSTYPE:dance-double;
#DESCRIPTION:;
#CHARTSTYLE:;
#DIFFICULTY:Medium;
#METER:6;
#RADARVALUES:0.237158,0.386744,0.110674,0.000000,0.000000,135.000000,126.000000,9.000000,0.000000,0.000000,0.000000,0.000000,0.000000,0.000000,0.237158,0.386744,0.110674,0.000000,0.000000,135.000000,126.000000,9.000000,0.000000,0.000000,0.000000,0.000000,0.000000,0.000000;
#CREDIT:;
#DISPLAYBPM:115.000000;
#NOTES:
00000000
00000000
00000000
00000000
,
00000000
00000000
00000000
00000000
,
00000000
00000000
00000000
00000000
,
00000000
00000000
00000000
00000000
,
00000000
00000000
00000000
00000000
,
10000000
00010000
00001000
00000001
,
00000001
00001000
00010000
10000000
,
10000000
00010000
00001000
00000001
,
00000001
00001000
00010000
10000000
,
01000000
00010000
00001000
00000010
,
00000100
00001000
00010000
00100000
,
00100000
00010000
00001000
00000100
,
00000010
00001000
00010000
01000000
,
00000000
00010000
00001000
00000000
,
00000000
00010000
00001000
00000000
,
00000000
00010000
00001000
00000000
,
00011000
01010000
00000000
00001100
,
00000101
00001000
00010000
10000000
,
00010000
00001000
00000001
00001000
,
00010000
10000000
00010000
00001000
,
00000101
00001100
00011000
01010000
,
11000000
00000000
00000000
00000000
00010000
00001000
00100000
00000000
,
00000000
00000000
00000000
00000000
00010000
00001000
01000000
00000000
,
00000000
00000000
00000000
00000000
00001000
00010000
00000100
00000000
,
00000000
00000000
00000000
00000000
00001000
00010000
00000010
00000000
,
00000000
00000000
00000000
00000000
00010000
00001000
00100000
00000000
,
00100000
00010000
00001000
00000100
,
00000001
00001000
00000001
00001000
,
00010000
10000000
00010000
10000000
,
01000000
00010000
01000000
00010000
00010000
00001000
00010000
00001000
,
00001000
00000100
00001000
00000100
00000010
00000001
00000010
00000001
,
00001000
00000100
00001000
00000100
00010000
00001000
00010000
00001000
,
00000000
00001000
00000000
00001000
,
00010000
00010000
00100000
00100000
,
10000000
00010000
00001000
00000001
,
00000000
00000000
00000000
00000000
00000001
00001000
00000001
00000000
,
00000000
00000000
00000000
00000000
10000000
00010000
10000000
00000000
,
00100000
00000000
00000000
00000000
;

//---------------dance-double - ----------------
#NOTEDATA:;
#CHARTNAME:;
#STEPSTYPE:dance-double;
#DESCRIPTION:;
#CHARTSTYLE:;
#DIFFICULTY:Hard;
#METER:7;
#RADARVALUES:0.296887,0.386744,0.049188,0.000000,0.000000,169.000000,165.000000,4.000000,0.000000,0.000000,0.000000,0.000000,0.000000,0.000000,0.296887,0.386744,0.049188,0.000000,0.000000,169.000000,165.000000,4.000000,0.000000,0.000000,0.000000,0.000000,0.000000,0.000000;
#CREDIT:;
#DISPLAYBPM:115.000000;
#NOTES:
00000000
00000000
00000000
00000000
,
00000000
00000000
00000000
00000000
,
00000000
00000000
00000000
00000000
,
00000000
00000000
00000000
00000000
,
00000000
00000000
00000000
00000000
00010000
00001000
00010000
00000100
,
00000000
00100000
00100000
00100000
,
00100000
01000000
00001000
01000000
,
00001000
00010000
00100000
10000000
10000000
00100000
00010000
00000000
,
00000000
00000000
00000000
00000000
10000000
00010000
00001000
00000001
,
00001000
00000100
00000100
00000100
,
00000100
00000010
00010000
00000010
,
00010000
00001000
00000010
00000001
00000001
00000010
00001000
00000000
,
00000000
00000000
00000000
00000000
00000001
00000100
00000001
00000100
,
00000001
00001000
00000001
00001000
00000010
00001000
00000010
00001000
,
00000010
00010000
00000010
00010000
00001000
00010000
00001000
00010000
,
00001000
01000000
00001000
01000000
00010000
01000000
00010000
00000000
,
10000000
00000000
10000000
00000000
00000000
10000000
00010000
00001000
,
00000001
00000000
00000000
00000000
00000001
00000100
00000001
00001000
,
00000010
00001000
00000010
00010000
00001000
00010000
00001000
01000000
,
00010000
01000000
00010000
10000000
00100000
10000000
00100000
00000000
,
10000000
00000000
00010000
00000000
10000000
00010000
00001000
00000001
,
00000000
00000001
00000000
00001000
,
00000000
00010000
00000000
10000000
,
00000000
00010000
00100000
00001000
00010000
00000100
00001000
00000000
,
00000000
00000001
00000000
00001000
,
00000000
00010000
00000000
10000000
,
00011000
00100000
00011000
00000010
,
00000000
00001000
00000010
00010000
00001000
01000000
00010000
00000000
,
00000000
10000000
00000000
10000000
,
10000000
01000000
00100000
00010000
00100000
00100000
00100000
00000000
,
00001000
00000100
00000010
00000001
00000010
00000010
00000010
00000000
,
00000001
00000010
00000100
00001000
00000100
00000100
00000100
00000000
,
00000000
00010000
00000000
10000000
,
00000000
00001000
00000000
00000001
,
00011000
01000000
00011000
00000100
,
00000100
00001000
00010000
00100000
00010000
00001000
00000100
00000000
,
01000000
00010000
00001000
00000010
00001000
00010000
01000000
00000000
,
00100000
00000000
00000000
00000000
;

//---------------dance-couple - ----------------
#NOTEDATA:;
#CHARTNAME:;
#STEPSTYPE:dance-couple;
#DESCRIPTION:;
#CHARTSTYLE:;
#DIFFICULTY:Challenge;
#METER:7;
#RADARVALUES:0.193240,0.363994,0.073783,0.000000,0.000000,110.000000,104.000000,6.000000,0.000000,0.000000,0.000000,0.000000,0.000000,0.000000,0.193240,0.363994,0.073783,0.000000,0.000000,110.000000,104.000000,6.000000,0.000000,0.000000,0.000000,0.000000,0.000000,0.000000;
#CREDIT:;
#DISPLAYBPM:115.000000;
#NOTES:
00000000
00000000
00000000
00000000
,
00000000
00000000
00000000
00000000
,
00000000
00000000
00000000
00000000
,
00000000
00000000
00000000
00000000
,
00000000
00000000
00000000
00000000
,
00001000
00000000
00001000
00000000
00000001
00000001
00000001
00000000
,
10000000
00000000
10000000
00000000
00010000
00010000
00010000
00000000
,
00001000
00000000
00001000
00000000
00000001
00000001
00001001
00000000
,
10000000
00000000
10000000
00000000
00010000
00010000
10010000
00000000
,
00001000
00000000
00001000
00000000
00000001
00001000
00001001
00000000
,
00100000
00000000
00100000
00000000
01000000
00100000
01100000
00000000
,
00001000
00000000
00001000
00000000
00000100
00001000
00001100
00000000
,
00010000
00000000
00010000
00000000
01000000
00010000
01010000
00000000
,
00000010
00000000
00000001
00000100
,
00100000
00000000
10000000
01000000
,
00100010
00000000
00011000
01000100
,
00000110
00000000
01100000
00000000
00000000
10000001
01000100
00011000
,
00011000
00000000
10000001
00000000
00000000
01000100
01000100
00000000
,
00000010
00000000
00000010
00000000
00000000
00001000
00000100
00000000
,
00100000
00000000
00100000
00000000
00000000
00010000
01000000
00000000
,
01100000
00000000
00000110
00000000
00011000
00100010
01000100
01000100
,
01000100
00000000
00010001
00000000
10001000
01000100
01000100
00000000
,
10000000
00000000
01000000
00000000
00010000
01000000
01000000
00000000
,
00001000
00000000
00000100
00000000
00000001
00000100
00000100
00000000
,
00000001
00001000
00010000
10000000
,
00001001
00000000
00000100
00000000
00000001
00001000
00000001
00000000
,
10010000
00000000
01000000
00000000
00010000
10000000
00010000
00000000
,
00000100
00000000
00000010
00000000
00000100
00000100
00000100
00000000
,
01000000
00000000
00100000
00000000
01000000
01000000
01000000
00000000
,
10001000
00000100
10001000
00000100
10000010
00000001
10000010
00000001
,
10001000
00000100
10001000
00000100
10000010
00000001
10000010
00000000
,
10000001
01000000
10000001
01000000
00100001
00010000
00100001
00010000
,
10000001
01000000
10000001
01000000
00100001
00010000
00100001
00000000
,
00001000
00000000
00001000
00000000
00001000
00001000
00001000
00000000
,
00010000
00000000
00010000
00000000
00010000
00010000
00010000
00000000
,
00011000
00000000
00011000
00000000
01000100
00100010
10000001
00000000
,
10000001
00000000
10000001
00000000
01000100
00100010
00011000
00000000
,
01000100
00000000
00000000
00000000
;

//---------------dance-solo - ----------------
#NOTEDATA:;
#CHARTNAME:;
#STEPSTYPE:dance-solo;
#DESCRIPTION:;
#CHARTSTYLE:;
#DIFFICULTY:Easy;
#METER:3;
#RADARVALUES:0.172159,0.204747,0.036891,0.000000,0.000000,98.000000,95.000000,3.000000,0.000000,0.000000,0.000000,0.000000,0.000000,0.000000,0.172159,0.204747,0.036891,0.000000,0.000000,98.000000,95.000000,3.000000,0.000000,0.000000,0.000000,0.000000,0.000000,0.000000;
#CREDIT:;
#DISPLAYBPM:115.000000;
#NOTES:
000000
000000
000000
000000
,
000000
000000
000000
000000
,
000000
000000
000000
000000
,
000000
000000
000000
000000
,
000000
000000
000000
000000
,
010000
001000
000000
001000
,
000010
001000
000000
001000
,
000001
100000
000000
100000
,
001000
000100
000000
000100
,
010000
000001
000000
000001
,
000010
100000
000000
100000
,
000100
000001
000000
000001
,
000100
100000
000000
100000
,
010000
000010
000000
000010
,
100001
001000
000000
000000
,
100000
001000
000000
000001
,
000001
001000
000000
001100
,
000000
000000
010000
010000
,
000001
100000
000000
000100
,
100000
000001
000000
001000
,
000000
000000
000010
000010
,
100000
100000
001000
001000
,
000001
000001
001000
001000
,
000100
000100
000100
000100
,
001000
001000
001000
001000
,
000010
000000
000010
000000
,
001000
001000
001000
001000
,
010000
000000
010000
000000
,
000000
000000
000000
000000
,
100001
000000
000000
001000
,
000010
000010
100000
100000
,
000001
000000
000000
100000
,
000000
000000
000000
000001
,
100000
000010
000010
100000
,
001000
001000
001000
001000
,
100000
000100
100000
000100
,
100000
000100
100000
000100
,
000001
000000
000000
000000
;

//---------------dance-solo - ----------------
#NOTEDATA:;
#CHARTNAME:;
#STEPSTYPE:dance-solo;
#DESCRIPTION:;
#CHARTSTYLE:;
#DIFFICULTY:Medium;
#METER:6;
#RADARVALUES:0.270536,0.386744,0.049188,0.000000,0.000000,154.000000,150.000000,4.000000,0.000000,0.000000,0.000000,0.000000,0.000000,0.000000,0.270536,0.386744,0.049188,0.000000,0.000000,154.000000,150.000000,4.000000,0.000000,0.000000,0.000000,0.000000,0.000000,0.000000;
#CREDIT:;
#DISPLAYBPM:115.000000;
#NOTES:
000000
000000
000000
000000
,
000000
000000
000000
000000
,
000000
000000
000000
000000
,
000000
000000
000000
000000
,
000000
000000
000000
000000
,
010000
000000
010000
000000
000001
000001
000001
000000
,
001000
000000
001000
000000
000100
000100
000100
000000
,
010000
000000
010000
000000
000001
000001
000001
000000
,
001000
000000
001000
000000
000100
000100
000100
000000
,
100000
000000
100000
000000
000010
000010
000010
000000
,
000100
000000
000100
000000
001000
001000
001000
000000
,
100000
000000
100000
000000
001000
010000
011000
000000
,
000001
000000
000001
000000
001000
000010
001010
000000
,
100000
000000
000000
000000
,
100000
000000
000000
000000
,
100000
000000
000000
000000
,
000110
000000
010000
000000
000000
000001
000001
000001
,
000001
000000
001000
000000
000000
100000
100000
000000
,
000100
000000
000100
000000
000000
000001
000001
000000
,
001000
000000
001000
000000
000000
000010
000010
000000
,
000110
000000
010000
000000
001000
001000
001000
001000
,
001000
000000
000001
000000
010000
010000
010000
000000
,
000001
000000
100000
000000
000100
000100
000100
000000
,
001000
000000
001000
000000
010000
000001
010000
000000
,
001000
000000
100000
000000
000001
001000
000001
000000
,
100000
000000
000010
000000
100000
100000
100000
000000
,
000010
000010
000010
000010
,
000001
010000
010000
000001
,
001000
000100
100000
000001
,
010000
100000
010000
100000
000100
010000
000100
010000
,
000010
000001
000010
000001
000100
001000
000100
001000
,
010000
100000
010000
100000
000100
001000
000100
001000
,
000001
000001
000001
000001
,
000001
001000
000001
001000
,
000100
000100
000100
000100
,
100000
000000
100000
000000
001000
000100
000001
000000
,
100000
000000
100000
000000
001000
000100
000001
000000
,
001000
000000
000000
000000
;

//---------------dance-solo - ----------------
#NOTEDATA:;
#CHARTNAME:;
#STEPSTYPE:dance-solo;
#DESCRIPTION:;
#CHARTSTYLE:;
#DIFFICULTY:Hard;
#METER:7;
#RADARVALUES:0.347832,0.432243,0.000000,0.000000,0.202902,198.000000,198.000000,0.000000,0.000000,0.000000,0.000000,0.000000,0.000000,0.000000,0.347832,0.432243,0.000000,0.000000,0.202902,198.000000,198.000000,0.000000,0.000000,0.000000,0.000000,0.000000,0.000000,0.000000;
#CREDIT:;
#DISPLAYBPM:115.000000;
#NOTES:
000000
000000
000000
000000
,
000000
000000
000000
000000
,
000000
000000
000000
000000
,
000000
000000
000000
000000
,
000000
000000
000000
000000
010000
001000
010000
001000
,
000000
000100
000000
000100
,
000000
100000
000000
001000
,
000000
000000
000001
000010
000001
000010
000001
000000
000001
000010
000001
000010
000001
000000
000000
000000
,
000000
000000
000000
000000
010000
000001
010000
000001
,
100000
100000
000000
000001
,
000000
000100
001000
001000
,
000000
000000
000100
100000
000100
100000
000100
000000
000100
100000
000100
100000
000100
000000
000000
000000
,
000000
000000
000000
000000
100000
000001
100000
000001
,
001000
010000
001000
000010
001000
010000
001000
000010
,
001000
010000
001000
000010
001000
010000
001000
000010
,
001000
010000
001000
000010
100000
000010
100000
000000
,
000100
000000
001000
000000
000000
100000
001000
000100
,
000001
000001
000100
001000
100000
000001
000100
001000
,
100000
000001
000100
001000
100000
000001
000100
001000
,
100000
000001
000100
001000
100000
000001
010000
000000
,
010000
000000
001000
000000
100000
000010
100000
000010
,
001000
000000
000000
000000
,
001000
001000
000100
000100
,
000000
000000
010000
001000
010000
001000
010000
000000
000010
001000
000010
001000
000010
000000
000000
000000
,
001000
001000
000100
000100
,
100000
100000
000001
000001
,
001000
010000
000000
000000
001000
010000
000000
000000
001000
010000
000000
000000
001000
010000
000000
000000
,
000000
000000
100000
000100
100000
000100
100000
000000
000001
001000
000001
001000
000001
000000
000000
000000
,
000000
100000
000000
000001
,
001000
000000
000100
000000
001000
000000
000100
000000
001000
000000
000001
000000
000001
010000
000001
000000
,
001000
000000
010000
000000
001000
000000
010000
000000
001000
000000
001000
000000
001000
000010
001000
000000
,
100000
000000
010000
000000
100000
000000
010000
000000
100000
000000
100000
000000
100000
001000
100000
000000
,
000000
100000
000000
000001
,
001000
000100
001000
000100
000000
000000
000000
000000
000000
000000
000000
000000
000000
000000
000000
000000
,
000010
001000
000000
000000
000010
001000
000000
000000
000010
001000
000000
000000
000010
001000
000000
000000
,
000000
000000
100000
000100
100000
000100
100000
000000
000001
001000
000001
001000
000001
000000
000000
000000
,
010000
001000
000010
001000
,
000100
000000
000000
000000
;

//---------------dance-single - ----------------
#NOTEDATA:;
#CHARTNAME:;
#STEPSTYPE:dance-single;
#DESCRIPTION:;
#CHARTSTYLE:;
#DIFFICULTY:Challenge;
#METER:13;
#RADARVALUES:0.570937,0.607477,0.319725,0.159862,0.534924,325.000000,299.000000,26.000000,13.000000,0.000000,0.000000,0.000000,0.000000,0.000000,0.570937,0.607477,0.319725,0.159862,0.534924,325.000000,299.000000,26.000000,13.000000,0.000000,0.000000,0.000000,0.000000,0.000000;
#CREDIT:;
#DISPLAYBPM:115.000000;
#NOTES:
// measure 0
0000
0000
0000
0000
,  // measure 1
0000
0000
0000
0000
,  // measure 2
0000
0000
0000
0000
,  // measure 3
0000
0000
0000
0000
,  // measure 4
0000
0000
0000
0000
1000
0001
0010
0100
,  // measure 5
1000
1100
0110
0011
,  // measure 6
1001
1020
0001
0100
,  // measure 7
1030
0000
0001
0100
0001
0100
0001
0000
0001
0100
0001
0100
0001
0000
0010
0000
,  // measure 8
1000
0000
0100
1000
0100
1000
0100
0000
0100
1000
0100
1000
0100
0000
1000
0000
,  // measure 9
0010
0110
0011
1001
,  // measure 10
1010
1200
0001
1000
,  // measure 11
0310
0000
1000
0010
1000
0010
1000
0000
1000
0010
1000
0010
1000
0000
0100
0000
,  // measure 12
0001
0000
0010
0001
0010
0001
0010
0000
0010
0001
0010
0001
0010
0000
0001
0000
,  // measure 13
0101
0000
0001
0100
0001
0000
0100
0000
0010
0000
1000
0010
0000
0100
0010
0100
,  // measure 14
0001
0000
0010
0000
0100
0000
1000
0000
0010
0100
0000
0001
0000
0001
0100
0000
,  // measure 15
0010
0100
0010
0000
1100
0000
1000
0010
1000
0000
0100
0000
0010
0000
0001
0000
,  // measure 16
1000
0001
1000
0000
0001
0100
0001
0000
1000
0001
1000
0000
0001
0010
0001
0000
,  // measure 17
0100
0001
0100
0000
0010
0000
1000
0000
0001
0010
0001
0000
0100
0000
0010
0000
,  // measure 18
1000
0100
1000
0000
0010
0000
0100
0000
0001
0010
0001
0000
0100
0000
0010
0000
,  // measure 19
1000
0001
1000
0000
0001
0000
0100
0000
0001
0010
0001
0000
0100
0000
0010
0000
,  // measure 20
0100
0000
0100
0000
0100
0100
0110
0110
,  // measure 21
0100
0000
2000
0000
0000
3200
0000
0000
0302
0000
0000
0023
0000
0000
2030
0000
,  // measure 22
3020
0001
0100
1030
,  // measure 23
0101
0000
1000
0100
1000
0100
1000
0000
0001
0100
0001
0100
0001
0000
0010
0000
,  // measure 24
1000
0010
1000
0010
1000
0000
0100
0000
0010
0000
0001
0010
0001
0010
0001
0000
,  // measure 25
0001
0000
0020
0000
0000
0230
0000
0000
2300
0000
0000
3002
0000
0000
0013
0000
,  // measure 26
0100
1000
0000
0000
0001
0100
0000
0000
0100
1000
0000
0010
0000
0001
0100
0000
,  // measure 27
1100
0000
0010
0001
0010
0001
0010
0000
1000
0100
1000
0100
1000
0000
0100
0000
,  // measure 28
0001
0100
0001
0100
0001
0000
0100
0000
0010
0000
1000
0010
1000
0010
1000
0000
,  // measure 29
0100
0000
1010
0000
0000
1001
0000
0000
0011
0000
0000
0101
0000
0000
0110
0000
,  // measure 30
0010
1000
0001
0000
0100
0000
0010
0000
0100
0001
1000
0000
0010
0000
0100
0000
,  // measure 31
0001
0000
0010
0001
0010
0001
0010
0000
0100
1000
0100
1000
0100
0000
0010
0000
,  // measure 32
1000
0000
0001
0100
0001
0100
0001
0000
0010
0000
1000
0010
1000
0010
1000
0000
,  // measure 33
0010
0000
0011
0000
0000
0101
0000
0000
1100
0000
0000
0110
0000
0000
0011
0000
,  // measure 34
1000
0010
0000
0000
0010
0001
0000
0000
0001
0100
0000
1000
0000
0100
1000
0000
,  // measure 35
0100
0000
1000
0100
1000
0100
1000
0000
0010
0100
0010
0100
0010
0000
0001
0000
,  // measure 36
0100
0000
0010
0100
0010
0100
0010
0000
1000
0001
1000
0001
1000
0000
0010
0000
,  // measure 37
0200
0000
0000
0000
,  // measure 38
0300
0000
0000
0000
;
