#VERSION:0.83;
#TITLE:LE FREAK;
#SUBTITLE:;
#ARTIST:CHIC;
#TITLETRANSLIT:;
#SUBTITLETRANSLIT:;
#ARTISTTRANSLIT:;
#GENRE:;
#ORIGIN:;
#CREDIT:;
#BANNER:LE FREAK.png;
#BACKGROUND:LE FREAK-bg.png;
#PREVIEWVID:;
#JACKET:;
#CDIMAGE:;
#DISCIMAGE:;
#LYRICSPATH:;
#CDTITLE:;
#MUSIC:LE FREAK.ogg;
#OFFSET:0.000000;
#SAMPLESTART:3.814000;
#SAMPLELENGTH:15.000000;
#SELECTABLE:YES;
#DISPLAYBPM:118.000000;
#BPMS:0.000=119.000,
4.000=118.000,
82.000=117.000,
94.000=118.000,
104.000=120.000,
107.000=118.000,
116.000=119.000,
122.000=118.000,
127.500=120.000,
128.000=118.227,
135.000=120.000,
138.500=118.000,
176.000=120.000,
180.000=118.000,
188.000=119.000,
190.000=118.000,
191.500=117.000;
#STOPS:;
#DELAYS:;
#WARPS:;
#TIMESIGNATURES:0.000=4=4;
#TICKCOUNTS:0.000=4;
#COMBOS:0.000=1;
#SPEEDS:0.000=1.000=0.000=0;
#SCROLLS:0.000=1.000;
#FAKES:;
#LABELS:0.000=Song Start;
#BGCHANGES:;
#KEYSOUNDS:;
#ATTACKS:
;

//---------------dance-single - ----------------
#NOTEDATA:;
#CHARTNAME:;
#STEPSTYPE:dance-single;
#DESCRIPTION:;
#CHARTSTYLE:;
#DIFFICULTY:Beginner;
#METER:2;
#RADARVALUES:0.102369,0.113210,0.019905,0.000000,0.000000,72.000000,70.000000,2.000000,0.000000,0.000000,0.000000,0.000000,0.000000,0.000000,0.102369,0.113210,0.019905,0.000000,0.000000,72.000000,70.000000,2.000000,0.000000,0.000000,0.000000,0.000000,0.000000,0.000000;
#CREDIT:;
#DISPLAYBPM:118.000000;
#NOTES:
0000
0000
0000
0000
,
0000
0000
0000
0000
,
1000
0000
1000
0000
,
1000
0000
0000
0000
,
0001
0000
0001
0000
,
0001
0000
0000
0000
,
1000
0000
1000
0000
,
1000
0000
0000
0000
,
0001
0000
0001
0000
,
0001
0000
0000
0000
,
0100
0000
0010
0000
,
0100
0000
0000
0000
,
0100
0000
0010
0000
,
0100
0000
0000
0000
,
1001
0000
0000
0000
,
1000
0000
0000
0000
,
1000
0000
0000
0000
,
0001
0000
0000
0000
,
1000
0000
1000
0000
,
1000
0000
0000
0000
,
0001
0000
0001
0000
,
0001
0000
0000
0000
,
1000
0000
1000
0000
,
1000
0000
1000
0000
,
0000
0000
0000
0000
,
0001
0000
0001
0000
,
0001
0000
0000
0000
,
1000
0000
0001
0000
,
1001
0000
0000
0000
,
1000
0000
1000
0000
,
1000
0000
0100
0000
,
0000
0000
1000
0000
,
0001
0000
0100
0000
,
0001
0000
0100
0000
,
1000
0000
0001
0000
,
1000
0000
0001
0000
,
0010
0000
0100
0000
,
0010
0000
0000
0000
,
1000
0000
1000
0000
,
1000
0000
1000
0000
,
0001
0000
0001
0000
,
0001
0000
0001
0000
,
0100
0000
0100
0000
,
0100
0000
0100
0000
,
0010
0000
0010
0000
,
0010
0000
0010
0000
;

//---------------dance-single - ----------------
#NOTEDATA:;
#CHARTNAME:;
#STEPSTYPE:dance-single;
#DESCRIPTION:;
#CHARTSTYLE:;
#DIFFICULTY:Easy;
#METER:5;
#RADARVALUES:0.160662,0.189098,0.109478,0.169193,0.000000,113.000000,102.000000,11.000000,17.000000,0.000000,0.000000,0.000000,0.000000,0.000000,0.160662,0.189098,0.109478,0.169193,0.000000,113.000000,102.000000,11.000000,17.000000,0.000000,0.000000,0.000000,0.000000,0.000000;
#CREDIT:;
#DISPLAYBPM:118.000000;
#NOTES:
0000
0000
0000
0000
,
0000
0000
0000
0000
,
1001
0000
0010
0000
,
1000
0000
0001
0000
,
1001
0000
0100
0000
,
0001
0000
1000
0000
,
0001
0100
0001
0000
,
1000
1000
0100
0000
,
0010
0001
0010
0000
,
1000
1000
0010
0000
,
0020
0030
0010
0000
,
0100
0010
0100
0000
,
2000
3000
1000
0000
,
0001
1000
0001
0000
,
0020
0030
0100
0000
,
0010
0100
0010
0000
,
0200
0300
0010
0000
,
0100
0010
0100
0000
,
2000
3000
0001
0000
,
1000
0001
0100
0000
,
0020
0030
0200
0300
,
0002
0003
2001
3000
,
1001
0000
0010
0000
,
1000
0000
0001
0000
,
1001
0000
0100
0000
,
1000
0000
0210
0300
,
0110
0000
0001
0000
,
1000
0000
0100
0000
,
0110
0000
1000
0000
,
0001
0000
0010
0000
,
1000
0010
1000
0000
,
0001
0001
0010
0000
,
0100
1000
0100
0000
,
0001
0001
0100
0000
,
2000
0000
0000
3000
,
0001
1000
0100
0000
,
0010
0000
0100
0000
,
1000
0100
0001
0000
,
0002
0000
0000
0003
,
0001
1000
0010
0000
,
1000
0100
0010
0000
,
0002
0000
0000
0003
,
1001
0000
0000
0000
,
0010
0001
0100
0000
,
0020
0000
0030
0000
,
1000
0000
2001
3000
,
2002
0000
0000
0000
,
3000
0000
0003
0000
;

//---------------dance-single - ----------------
#NOTEDATA:;
#CHARTNAME:;
#STEPSTYPE:dance-single;
#DESCRIPTION:;
#CHARTSTYLE:;
#DIFFICULTY:Medium;
#METER:7;
#RADARVALUES:0.237439,0.238861,0.109478,0.089573,0.000000,167.000000,156.000000,11.000000,9.000000,0.000000,0.000000,0.000000,0.000000,0.000000,0.237439,0.238861,0.109478,0.089573,0.000000,167.000000,156.000000,11.000000,9.000000,0.000000,0.000000,0.000000,0.000000,0.000000;
#CREDIT:;
#DISPLAYBPM:118.000000;
#NOTES:
0000
0000
0000
0000
,
0000
0000
0000
0000
,
1000
0001
0010
0001
,
1000
0000
0100
0000
,
0001
1000
0010
1000
,
0100
0000
0010
0000
,
0001
0100
0010
1000
,
0001
0000
1000
0000
,
0001
0010
1000
0100
,
1000
0000
0010
0000
,
0100
0100
0010
0010
,
0100
0001
1000
0100
,
0010
0010
0100
0100
,
0001
0100
0001
0000
,
1000
0010
0100
0001
,
1000
0000
0001
0000
,
1000
0100
0001
0010
,
0001
0000
0100
0000
,
0010
0010
0100
0100
,
0010
1000
0001
0010
,
0100
0100
0010
0010
,
0011
0000
2002
3003
,
0110
0020
0000
0130
,
0000
0010
0100
0010
,
1001
0002
0000
1003
,
0000
0001
1000
0001
,
1100
2000
0000
3100
,
0000
1000
0100
1000
,
1010
0020
0000
0130
,
0000
0001
0010
0100
,
1000
1000
0100
0010
,
0001
0001
0100
0010
,
1000
0001
1000
0001
,
0100
0100
0010
0000
,
1000
1000
0010
0001
,
1000
1000
0010
0100
,
1000
1000
0001
0001
,
0010
0100
1001
0000
,
1000
0010
0100
0010
,
0001
0010
0100
0010
,
0001
0100
1000
0100
,
1000
0100
0001
0100
,
0010
0010
0100
1000
,
0010
0010
0100
0001
,
0100
1000
0100
0001
,
0110
0000
2002
3003
,
1001
0002
0000
1003
,
0000
0001
1000
0001
,
0110
0000
0000
0000
;

//---------------dance-single - ----------------
#NOTEDATA:;
#CHARTNAME:;
#STEPSTYPE:dance-single;
#DESCRIPTION:;
#CHARTSTYLE:;
#DIFFICULTY:Hard;
#METER:10;
#RADARVALUES:0.349760,0.358291,0.258766,0.069668,0.000000,246.000000,220.000000,26.000000,7.000000,0.000000,0.000000,0.000000,0.000000,0.000000,0.349760,0.358291,0.258766,0.069668,0.000000,246.000000,220.000000,26.000000,7.000000,0.000000,0.000000,0.000000,0.000000,0.000000;
#CREDIT:;
#DISPLAYBPM:118.000000;
#NOTES:
0000
0000
0000
0000
,
0000
0000
0000
0000
,
1000
0000
0100
0000
0010
0000
1000
0100
,
1000
0000
0000
0001
0100
0000
0000
0001
,
0100
0000
0010
0000
1000
0000
0100
1000
,
0100
0000
0010
0000
1000
0000
0001
1000
,
0001
1000
0010
0001
,
1000
0100
0001
0100
1000
0000
0110
0000
,
1000
0000
0001
0100
0001
0000
1000
0000
,
0001
0010
1000
0010
0001
0000
0110
0000
,
0001
0000
0100
0001
0100
0000
0010
1000
,
0100
0000
0100
1000
0010
0000
1000
0001
,
1000
0010
1000
0001
,
0100
0001
0010
1000
0100
0000
0000
0000
,
1001
0000
0010
0010
1000
0000
0100
0000
,
0010
0000
0001
0100
0010
0000
0000
0100
,
1001
0000
0010
1000
0001
0000
0110
0000
,
0010
1000
0100
0001
0010
0000
0000
0100
,
1001
0000
0100
1000
0001
0000
0100
0000
,
0001
0000
1000
0100
0001
0100
0010
0001
,
1001
0000
0001
0010
1000
0000
0001
0000
,
0100
1000
0010
0000
1002
0000
0000
1000
,
1003
0000
0110
0000
1000
0000
0000
0010
,
1000
0000
0000
1000
0100
0000
0000
0010
,
0100
0000
1100
0000
0001
0000
0100
0010
,
1010
0000
1000
0000
0120
0000
0000
1000
,
1030
1001
0100
1000
,
0110
0000
0000
0001
1100
0000
0000
0000
,
1010
0000
1000
0001
0100
0000
1000
0001
,
0002
0000
0000
1003
2000
0000
0000
0000
,
3001
0000
1000
0100
0010
0001
1000
0000
,
0110
0000
1000
0001
0100
0000
0000
0000
,
1000
0000
0100
1000
0001
1000
0100
0000
,
1000
0100
0001
0010
1000
0000
0000
0000
,
0010
0000
1000
0100
1000
0000
0010
0000
,
0001
0000
1000
0001
1000
0000
0000
0000
,
0001
0000
0100
0010
0100
0000
0000
0000
,
1000
0001
1000
0001
1000
0000
0000
0010
,
1010
1000
0010
0100
,
0001
0000
0010
0000
1000
0000
0001
1000
,
0001
1000
0100
0001
,
1100
0100
0101
0100
,
0010
1000
0100
1000
,
0010
1000
0100
0000
0220
0000
0330
0000
,
0010
1000
0100
0001
,
0010
1000
0100
0000
0210
0000
0000
0001
,
0301
1001
0100
0010
,
1001
0000
0000
0001
0011
0000
0000
1000
,
1010
0000
0000
0000
;

//---------------dance-double - ----------------
#NOTEDATA:;
#CHARTNAME:;
#STEPSTYPE:dance-double;
#DESCRIPTION:;
#CHARTSTYLE:;
#DIFFICULTY:Easy;
#METER:2;
#RADARVALUES:0.159240,0.189098,0.099525,0.159240,0.000000,112.000000,102.000000,10.000000,16.000000,0.000000,0.000000,0.000000,0.000000,0.000000,0.159240,0.189098,0.099525,0.159240,0.000000,112.000000,102.000000,10.000000,16.000000,0.000000,0.000000,0.000000,0.000000,0.000000;
#CREDIT:;
#DISPLAYBPM:118.000000;
#NOTES:
00000000
00000000
00000000
00000000
,
00000000
00000000
00000000
00000000
,
00011000
00000000
00001000
00000000
,
00010000
00000000
00001000
00000000
,
00000010
00000000
00000100
00000000
,
00000010
00000000
00000001
00000000
,
00001000
00000100
00000100
00000000
,
00010000
00001000
00010000
00000000
,
00001000
00100000
00100000
00000000
,
00010000
00100000
00010000
00000000
,
02000000
03000000
00100000
00000000
,
10000000
01000000
00010000
00000000
,
00002000
00003000
00010000
00000000
,
00001000
00000100
00000001
00000000
,
00002000
00003000
00000100
00000000
,
00000001
00000100
00000010
00000000
,
00000002
00000003
00000100
00000000
,
00001000
00010000
00001000
00000000
,
00020000
00030000
00001000
00000000
,
00100000
00010000
01000000
00000000
,
00020000
00030000
02000000
03000000
,
00001000
00000000
00012000
00003000
,
00011000
00000000
00100000
00000000
,
00010000
00000000
10000000
00000000
,
10010000
00000000
01000000
00000000
,
00010000
00000000
00021000
00030000
,
00011000
00000000
00000010
00000000
,
00001000
00000000
00000001
00000000
,
00001001
00000000
00000100
00000000
,
00001000
00000000
00010000
00000000
,
00010000
00001000
00100000
00000000
,
00010000
00010000
01000000
00000000
,
00100000
10000000
01000000
00000000
,
00100000
00100000
00010000
00000000
,
20000000
00000000
00000000
30000000
,
01000000
00010000
00001000
00000000
,
00010000
00000000
00001000
00000000
,
00010000
00000100
00001000
00000000
,
00000002
00000000
00000000
00000003
,
00001000
00000001
00000100
00000000
,
00000010
00001000
00000100
00000000
,
00020000
00000000
00000000
00030000
,
00011000
00000000
00000000
00000000
,
00100000
00010000
01000000
00000000
,
02000000
00000000
03000000
00000000
,
00100000
00000000
20010000
30000000
,
20020000
00000000
00000000
00000000
,
30000000
00000000
00030000
00000000
;

//---------------dance-double - ----------------
#NOTEDATA:;
#CHARTNAME:;
#STEPSTYPE:dance-double;
#DESCRIPTION:;
#CHARTSTYLE:;
#DIFFICULTY:Medium;
#METER:4;
#RADARVALUES:0.233173,0.238861,0.109478,0.129383,0.000000,164.000000,153.000000,11.000000,13.000000,0.000000,0.000000,0.000000,0.000000,0.000000,0.233173,0.238861,0.109478,0.129383,0.000000,164.000000,153.000000,11.000000,13.000000,0.000000,0.000000,0.000000,0.000000,0.000000;
#CREDIT:;
#DISPLAYBPM:118.000000;
#NOTES:
00000000
00000000
00000000
00000000
,
00000000
00000000
00000000
00000000
,
10000000
00010000
00100000
00010000
,
10000000
00000000
01000000
00000000
,
00010000
00001000
00010000
00001000
,
00000100
00000000
00000010
00000000
,
00000100
00000010
00001000
00000001
,
00001000
00000000
00000001
00000000
,
00000100
00001000
00010000
00001000
,
00010000
00000000
00100000
00000000
,
00010000
00010000
10000000
10000000
,
00100000
01000000
00020000
00030000
,
10000000
10000000
00010000
00010000
,
01000000
00001000
00020000
00030000
,
00001000
00010000
00000010
00000010
,
00001000
00000000
00001000
00000000
,
00000001
00000100
00000010
00000010
,
00001000
00000000
00001000
00000000
,
00001000
00100000
00002000
00003000
,
01000000
00001000
02000000
03000000
,
00100000
00100000
10000000
10000000
,
10100000
00000000
20020000
30030000
,
01100000
20000000
00000000
31000000
,
00000000
00010000
00001000
00010000
,
00011000
00020000
00000000
00031000
,
00000000
00000010
00000100
00000010
,
00000110
00000020
00000000
00000130
,
00000000
00000001
00001000
00000001
,
00001001
00002000
00000000
00003001
,
00000000
00000001
00000010
00000100
,
00001000
00000100
00000100
00010000
,
00001000
00100000
00010000
10000000
,
01000000
10000000
00010000
10000000
,
01000000
01000000
00010000
00000000
,
00001000
00001000
00100000
00010000
,
01000000
01000000
00001000
00010000
,
00000100
00000100
00001000
00001000
,
00000010
00000100
00001001
00000000
,
00001000
00000001
00001000
00000010
,
00000100
00000010
00001000
00001100
,
00010000
00001000
00010000
01000000
,
00100000
01000000
10000000
01000000
,
00010000
00010000
00001000
00010000
,
00000100
00000100
00001000
00000010
,
00000100
00000001
00001000
00000001
,
00000110
00000000
00002002
00003003
,
00000001
00000020
00000000
00000130
,
00000000
00001000
00000001
00001000
,
00000110
00000000
00000000
00000000
;

//---------------dance-double - ----------------
#NOTEDATA:;
#CHARTNAME:;
#STEPSTYPE:dance-double;
#DESCRIPTION:;
#CHARTSTYLE:;
#DIFFICULTY:Hard;
#METER:6;
#RADARVALUES:0.344073,0.358291,0.258766,0.079620,0.000000,242.000000,216.000000,26.000000,8.000000,0.000000,0.000000,0.000000,0.000000,0.000000,0.344073,0.358291,0.258766,0.079620,0.000000,242.000000,216.000000,26.000000,8.000000,0.000000,0.000000,0.000000,0.000000,0.000000;
#CREDIT:;
#DISPLAYBPM:118.000000;
#NOTES:
00000000
00000000
00000000
00000000
,
00000000
00000000
00000000
00000000
,
10010000
00000000
00100000
00000000
10000000
00000000
00010000
10000000
,
01000000
00000000
00000000
00010000
00001000
00000000
00000000
00000010
,
00000001
00000000
00000100
00000000
00000010
00000000
00001000
00000010
,
00000100
00000000
00000001
00000000
00000100
00000000
00001000
00010000
,
00001000
00100000
00010000
00100000
,
00010000
01000000
10000000
01000000
00100000
00000000
01100000
00000000
,
00010000
00000000
10000000
01000000
00010000
00000000
00001000
00000000
,
00010000
00001000
00000100
00000001
00001000
00000000
00000110
00000000
,
00001001
00000000
00000010
00001000
00000100
00000000
00000010
00000001
,
00000100
00000000
00001000
00010000
00001000
00000000
00100000
00010000
,
01000000
00100000
10000000
01000000
,
00100000
00010000
10000000
01000000
00010000
00000000
00000000
00000000
,
00011000
00000000
00001000
00000010
00000100
00000000
00001000
00000000
,
00000010
00000000
00000100
00000001
00001000
00000000
00000000
00001000
,
00000001
00000000
00000100
00001000
00000001
00000000
00000110
00000000
,
00000100
00001000
00010000
01000000
00100000
00000000
00000000
00100000
,
01000000
00000000
01000000
00010000
10000000
00000000
01000000
00000000
,
00010000
00000000
10000000
01000000
00010000
00000000
00001000
00100000
,
00001000
00000000
00000000
00010000
00000100
00000000
00000000
00000000
,
00000010
00000100
00001000
00000000
00000120
00000000
00000000
00000130
,
00000010
00000000
00001001
00000000
00000110
00000000
00000000
00000100
,
00001000
00000000
00000000
00010000
00100000
00000000
00000000
10000000
,
01000000
00000000
01100000
00000000
10000000
00000000
00010000
00100000
,
00110000
00000000
10000000
00000000
02000000
00000000
00000000
03100000
,
01000000
00000000
10010000
00000000
01100000
00000000
00000000
00100000
,
00010000
00000000
00000000
00001000
00000100
00000000
00000000
00000001
,
00000010
00000000
00000001
00001000
00000100
00000000
00001000
00000001
,
00000200
00000000
00000000
00000301
00000020
00000000
00000000
00000000
,
00000031
00000000
00001000
00000100
00010000
00001000
00100000
00000000
,
00110000
00000000
00100000
00010000
10000000
00000000
00000000
00000000
,
01010000
00000000
00010000
01000000
00001000
00010000
00000010
00000000
,
00001000
00000100
00000001
00000010
00001000
00000000
00000000
00000000
,
00000001
00001100
00000101
00000000
,
00000100
00000000
00001000
00010000
00200000
00000000
00000000
00000000
,
10300000
00000000
00010000
00100000
01000000
00000000
00000000
00000000
,
00010000
01000000
00100000
10000000
01000000
00000000
00000000
00010000
,
00011000
00000010
00001000
00000001
,
00001000
00000000
00000100
00000000
00010000
00000000
00000100
00001000
,
00000010
00000100
00000001
00001000
,
00010100
00010000
00011000
00010000
,
00001000
00100000
00010000
01000000
,
00100000
10000000
01000000
00000000
02200000
00000000
03300000
00000000
,
00100000
00010000
10000000
01000000
,
00010000
00001000
00010000
00000000
00021000
00000000
00000000
00001000
,
00031000
00011000
00000100
00001000
,
00001100
00000000
00000000
00000001
00000011
00000000
00000000
00001000
,
00001100
00000000
00000000
00000000
;

//---------------dance-single - ----------------
#NOTEDATA:;
#CHARTNAME:;
#STEPSTYPE:dance-single;
#DESCRIPTION:;
#CHARTSTYLE:;
#DIFFICULTY:Challenge;
#METER:14;
#RADARVALUES:0.688146,0.644924,0.696677,0.288623,0.656867,484.000000,414.000000,70.000000,29.000000,0.000000,0.000000,0.000000,0.000000,0.000000,0.688146,0.644924,0.696677,0.288623,0.656867,484.000000,414.000000,70.000000,29.000000,0.000000,0.000000,0.000000,0.000000,0.000000;
#CREDIT:;
#DISPLAYBPM:118.000000;
#NOTES:
// measure 0
0000
0000
0000
0000
,  // measure 1
0000
0000
0000
0000
0000
0000
0000
1001
,  // measure 2
2001
0000
0000
3100
0010
0000
0010
0000
0001
0010
0001
0000
0101
0000
0100
0000
,  // measure 3
0020
0000
0030
1000
0002
0000
0003
0101
,  // measure 4
1200
0000
0000
0310
1000
0000
0100
0000
0010
0001
0010
0000
0011
0000
0001
0000
,  // measure 5
0200
0000
0000
0001
0000
0000
0310
0000
1000
0001
1000
0000
1001
0000
0001
1000
,  // measure 6
0100
0000
0000
0000
0000
0000
0000
0000
1100
0000
0000
0000
0100
0000
0000
1000
0000
0000
0100
0000
0000
0000
0000
0000
0110
0000
0000
0000
0000
0000
0000
0000
0000
0000
0000
0000
0000
0000
0000
0000
0000
0000
0101
0000
0000
0000
0000
0000
,  // measure 7
0100
0000
0010
0100
0000
1000
0100
0000
0101
0000
0000
0000
0110
0000
1010
0000
,  // measure 8
1100
0000
0000
0000
0000
0000
0000
0000
0101
0000
0000
0000
0100
0000
0000
0010
0000
0000
1000
0000
0000
0020
0000
0000
0000
0000
0000
0100
0000
0000
0000
0000
0000
0130
0000
0000
0000
0000
0000
0000
0000
0000
0101
0000
0000
0000
0000
0000
,  // measure 9
0100
0000
0010
0000
1000
0100
0010
0000
0001
0000
0000
0000
0101
0000
1100
0000
,  // measure 10
1010
0000
0000
0110
0000
0000
0100
0001
0100
0000
0000
0000
0110
0000
0010
1000
,  // measure 11
0010
0000
0100
1000
0001
0000
0100
1000
0001
0000
0010
1000
0100
0000
0010
0001
,  // measure 12
1000
0000
0000
0000
0000
0000
0000
0000
1100
0000
0000
0000
0100
0000
0000
1000
0000
0000
0100
0000
0000
0020
0000
0000
0000
0000
0000
0001
0000
0000
0000
0000
0000
0031
0000
0000
0000
0000
0000
0000
0000
0000
0100
0000
0000
0000
0000
0000
,  // measure 13
1000
0000
0010
0000
0001
0000
0100
0001
0000
0000
0100
0000
0010
0000
1000
0000
,  // measure 14
0010
0000
0000
0000
0000
0000
0000
0000
0011
0000
0000
0000
0001
0000
0000
0100
0000
0000
0001
0000
0000
0000
0000
0000
2000
0000
0000
0000
0000
0000
0000
0000
0000
0000
0000
0000
3001
0000
0000
0000
0000
0000
1000
0000
0000
0100
0000
0000
,  // measure 15
0010
0000
0001
0010
0000
0010
1000
0000
0100
0000
0001
0100
1000
0000
1000
0000
,  // measure 16
0010
0000
0000
0000
0000
0000
0000
0000
0011
0000
0000
0000
0001
0000
0000
0010
0000
0000
0100
0000
0000
0010
0000
0000
2000
0000
0000
0000
0000
0000
3001
0000
0000
0000
0000
0000
0101
0000
0000
0000
0000
0000
0010
0000
0000
0000
0000
0000
,  // measure 17
0001
0000
0010
0100
0001
0000
1000
0100
0000
0010
0001
0000
0010
0000
1000
0000
,  // measure 18
1001
0000
0000
0000
0000
0000
0000
0000
0101
0000
0000
0000
0100
0000
0000
0010
0000
0000
0100
0000
0000
0000
0000
0000
1200
0000
0000
0000
0000
0000
0000
0000
0000
0000
0000
0000
0310
0000
0000
0000
0000
0000
0001
0000
0000
0000
0000
0000
,  // measure 19
0100
0000
0010
1000
0100
0000
0001
1000
0100
0000
0010
0001
0100
0000
0010
1000
,  // measure 20
0100
0000
0000
0000
0000
0000
0000
0000
0110
0000
0000
0000
0100
0000
0000
0001
0000
0000
0100
0000
0000
0010
0000
0000
1000
0000
0000
0000
0000
0000
0000
0000
0000
0000
0000
0000
0000
0000
0000
0000
0000
0000
1001
0000
0000
0000
0000
0000
,  // measure 21
0110
0000
0100
0001
1000
0000
0010
0100
0001
0000
0000
0000
0000
0000
0011
0000
,  // measure 22
0210
0000
0000
0000
0000
0000
0000
0000
0300
0001
0000
0000
0100
0000
0000
0000
0000
0000
0010
0000
0000
0000
0000
0000
1000
0000
0000
0100
0000
0000
0010
0000
0000
0000
0000
0000
0011
0000
0000
0000
0000
0000
0100
0000
0000
0000
0000
0000
,  // measure 23
0020
0000
0030
0100
2000
0000
3000
0100
,  // measure 24
0120
0000
0000
0031
0100
0000
0010
0000
1000
0001
0100
0000
0110
0000
0011
0000
,  // measure 25
0020
0000
0000
1000
0000
0000
0130
0000
0010
0001
0100
0010
1000
0000
1100
0000
,  // measure 26
0102
0000
0000
1003
0001
0000
0100
0000
0010
1000
0100
0000
1100
0000
1000
0000
,  // measure 27
0020
0000
0030
0001
0200
0000
0300
0110
,  // measure 28
2010
0000
0000
3100
0010
0000
0001
0000
0100
0001
1000
0000
1100
0000
0100
0000
,  // measure 29
0002
0000
0000
0010
0000
0000
0103
0000
0010
1000
0100
0000
1100
0000
1000
0001
,  // measure 30
0100
0000
0000
0000
0000
0000
0000
0000
0110
0000
0000
0000
0010
0000
0000
0100
0000
0000
0001
0000
0000
0000
0000
0000
0101
0000
0000
0101
0000
0000
0000
0000
0000
0000
0000
0000
0000
0000
0000
0000
0000
0000
0110
0000
0000
0000
0000
0000
,  // measure 31
0010
0000
1000
0010
0000
0010
0000
0200
0000
0001
0000
0301
0000
0000
0101
0000
,  // measure 32
1100
0000
0000
0000
0000
0000
0000
0000
1001
0000
0000
0000
0001
0000
0000
0100
0000
0000
0010
0000
0000
0000
0000
0000
1020
0000
0000
0000
0000
0000
0000
0000
0000
0000
0000
0000
0130
0000
0000
0000
0000
0000
1000
0000
0000
0100
0000
0000
,  // measure 33
0010
0000
0001
0100
0010
0000
0010
1000
0000
0000
0000
0000
1100
0000
1001
0000
,  // measure 34
0101
0000
0000
0000
0000
0000
0000
0000
0110
0000
0000
0000
0010
0000
0000
0001
0000
0000
0100
0000
0000
0001
0000
0000
1000
0000
0000
0000
0000
0000
0100
0000
0000
0000
0000
0000
0000
0000
0000
0000
0000
0000
0110
0000
0000
0000
0000
0000
,  // measure 35
0011
0000
0001
0010
0100
0000
0010
0100
1000
0000
1000
0100
0010
0000
0100
0010
,  // measure 36
0001
0000
1000
0001
0010
0000
0100
0001
0000
0000
0100
0010
1000
0000
0100
1000
,  // measure 37
0010
0000
0100
0010
0001
0000
1000
0100
0002
0000
1000
0000
1003
0100
0010
0001
,  // measure 38
0100
0000
0000
0000
0000
0000
0000
0000
0101
0000
0000
0000
0001
0000
0000
0100
0000
0000
0010
0000
0000
0000
0000
0000
1010
0000
0000
0000
0000
0000
0000
0000
1200
0000
0000
0000
0000
0000
0000
0000
0000
0000
0000
0000
0310
0000
0000
0000
,  // measure 39
0001
0000
0100
0010
1000
0000
0010
0100
0000
0100
1000
0000
0010
0100
0001
0100
,  // measure 40
0010
0000
0000
0000
0000
0000
0000
0000
1010
0000
0000
0000
1000
0000
0000
0000
0000
0000
0100
0000
0000
0001
0000
0000
0010
0000
0000
0000
0000
0000
0011
0000
0000
0000
0000
0000
0101
0000
0000
0000
0000
0000
0100
0000
0000
0010
0000
0000
,  // measure 41
1000
0000
0010
0100
0001
0000
1000
0100
0000
0010
0001
0000
0100
0010
1000
0010
,  // measure 42
0100
0000
0001
1000
0100
0000
0000
0020
0000
0001
0000
0130
0000
0000
0110
0000
,  // measure 43
0100
0000
1000
0100
0010
0000
0010
0001
0100
0000
0100
0010
1000
0000
1000
0001
,  // measure 44
0100
0000
0001
0000
0100
0000
0010
2000
0000
0001
0000
3001
0000
0000
1100
0000
,  // measure 45
0100
0000
0010
0100
0001
0000
0100
0010
1000
0100
1000
0100
0010
0000
0011
0000
,  // measure 46
0201
0000
0000
0310
0100
0000
1000
0000
0100
1000
0001
0000
0101
0000
0100
0010
,  // measure 47
2000
0000
0000
0100
0000
0000
3010
0000
0200
0000
0000
0001
0000
0000
0310
0000
,  // measure 48
0110
0000
0000
0000
;
