#TITLE:LAST TRAIN -Atarashii Asa-;
#SUBTITLE:;
#ARTIST:Knotlamp;
#TITLETRANSLIT:;
#SUBTITLETRANSLIT:;
#ARTISTTRANSLIT:;
#GENRE:;
#CREDIT:;
#BANNER:;
#BACKGROUND:LAST TRAIN-bg.png;
#LYRICSPATH:;
#CDTITLE:;
#MUSIC:LAST TRAIN.ogg;
#OFFSET:0.000000;
#SAMPLESTART:53.000000;
#SAMPLELENGTH:12.000000;
#SELECTABLE:YES;
#BPMS:0.000000=175.000000
,4.000000=190.000000
;
#STOPS:166.500000=0.310000
;
#BGCHANGES:0.000=LAST TRAIN.avi=1.000=0=0=0=StretchNoLoop====,
0.021=LAST TRAIN.avi=1.000=0=0=1=====,
0.062=LAST TRAIN.avi=1.000=0=0=0=StretchNoLoop====,
99999=-nosongbg-=1.000=0=0=0 // don't automatically add -songbackground-
;
#KEYSOUNDS:;
#ATTACKS:;

//---------------dance-single - ----------------
#NOTES:
     dance-single:
     :
     Beginner:
     5:
     0.210704,0.314947,0.266152,0.221793,0.000000,133.000000,109.000000,24.000000,20.000000,0.000000,0.000000,0.210704,0.314947,0.266152,0.221793,0.000000,133.000000,109.000000,24.000000,20.000000,0.000000,0.000000:
0000
0000
0000
0000
,
0000
0000
0000
0000
,
0000
0000
0000
0000
,
0000
0000
0000
0000
,
0000
0000
0000
0000
,
0000
0000
0000
0000
,
1000
0000
0100
0000
,
0010
0000
0001
0000
,
2002
0000
0000
0000
,
3003
0000
0220
0000
,
0330
0100
0000
0010
,
0000
0100
0000
1000
,
0002
0003
0200
0300
,
0020
0000
0000
0000
,
0030
0000
1000
0000
,
0001
0000
0100
0000
,
0010
0000
1000
0000
,
0010
0000
0100
0000
,
0001
0000
1000
0000
,
0010
0000
0100
0000
,
0001
0000
1000
0000
,
0100
0000
0010
0000
,
0001
0000
0010
0000
,
1000
0000
0010
0000
,
0100
0000
0010
0000
,
0220
0000
0330
0000
,
0101
0000
0110
0000
,
1100
0000
0000
0000
,
1010
0000
0110
0000
,
0011
0000
0000
0000
,
1001
0000
0110
0000
,
1001
0000
0000
0000
,
1010
0000
0101
0000
,
1010
0000
0000
0000
,
1100
0000
0011
0000
,
1100
0000
0000
0000
,
0110
0000
1010
0000
,
0220
0000
0330
0000
,
0100
0000
0001
0000
,
1000
0000
0100
0000
,
0010
0000
0100
0000
,
2002
0000
3003
0000
,
0000
0001
0000
0100
,
0000
0010
0000
1000
,
0000
0010
0000
0100
,
0000
0001
0000
1000
,
0000
0100
0000
0010
,
0000
0001
0000
1000
,
0000
0001
0000
0100
,
0000
0010
0000
1000
,
0000
0010
0000
0001
,
0000
0100
0000
2000
,
3000
0002
0003
0110
,
0000
0000
0000
1000
,
0000
0010
0000
0001
,
0000
1000
0200
2000
,
0000
0000
0000
0000
,
3300
0000
0000
1000
,
0000
0010
0000
0100
,
0000
0001
0000
1000
,
0000
0100
0000
0001
,
0000
0010
0000
0100
,
0000
0010
0000
1000
,
0000
0001
0000
0010
,
0000
0001
0000
0100
,
0000
0001
0000
1000
,
0000
0100
0000
0010
,
0000
0200
0300
2002
,
0000
0000
0000
0000
,
0000
0000
0000
0000
,
0000
0000
0000
0000
,
3003
0000
0000
0000
;

//---------------dance-single - ----------------
#NOTES:
     dance-single:
     :
     Easy:
     7:
     0.361206,0.433052,0.144166,0.188524,0.000000,228.000000,215.000000,13.000000,17.000000,0.000000,0.000000,0.361206,0.433052,0.144166,0.188524,0.000000,228.000000,215.000000,13.000000,17.000000,0.000000,0.000000:
0000
0000
0000
0000
,
0000
0000
0000
0000
,
0000
0000
0000
0000
,
0000
0000
0000
0000
,
0000
0000
0000
0000
,
0000
0000
0000
0000
,
0010
0100
0010
0000
,
1000
0001
1000
0000
,
1000
0100
0010
0001
,
1000
0010
0200
0000
,
0300
0001
0100
0001
,
1000
0100
1000
0010
,
0200
0300
0020
0030
,
2001
0000
3001
1000
,
0100
0001
0010
0001
,
0000
0010
1000
0100
,
0010
0001
1000
0001
,
0100
0010
0100
0000
,
0000
1000
0010
0100
,
0001
1000
0010
0001
,
0200
0300
2000
3000
,
0002
1000
1000
1003
,
0100
0010
0001
1000
,
0000
0010
1000
0001
,
0100
0100
0010
0010
,
2002
0000
0000
3003
,
1001
0000
0101
0000
,
1010
1000
0100
0010
,
0001
0010
0100
1000
,
0001
0000
1000
0001
1000
0000
0000
0000
,
1001
0000
0110
0000
,
1001
0001
0100
0010
,
1000
0010
0100
0001
,
2000
0100
0100
3100
,
1100
0000
0110
0000
,
0011
0010
0001
0100
,
0010
1000
0001
0100
,
0010
0000
1000
0000
0100
0000
0010
0100
,
0010
0010
0100
0100
,
1000
1000
0001
0001
,
1000
0100
0010
0001
,
2002
0000
3003
1000
,
0001
0100
0001
1000
,
0100
1000
0100
0010
,
0001
0000
0010
0000
0001
0000
1000
0010
,
0100
1000
0010
0100
,
0001
1000
0100
0010
,
0001
1000
0010
0100
,
0001
0010
0001
0020
,
0000
0030
0000
0010
,
0001
1000
0010
0100
,
0001
0010
0001
0100
,
0010
1000
0100
0002
,
0003
1000
0010
0100
,
0001
1000
0100
0010
,
0001
1000
0010
0100
,
1000
0010
0001
0100
,
0010
1000
0100
0001
,
1000
0010
0100
0001
,
1000
0010
0002
0000
,
0000
0000
0000
0000
,
0000
0000
0003
0010
,
0100
0001
1000
0100
,
0010
1000
0001
0100
,
0010
1000
0100
0001
,
0010
0100
0001
1000
,
1000
0100
0100
0010
,
0010
0000
0001
0010
0001
0000
0022
0000
,
0000
0000
0000
0000
,
0000
0000
0000
0000
,
0000
0000
0000
0000
,
0033
0000
0000
0000
;

//---------------dance-single - ----------------
#NOTES:
     dance-single:
     :
     Medium:
     12:
     0.584584,0.669262,0.598842,0.310511,0.000000,369.000000,315.000000,54.000000,28.000000,0.000000,0.000000,0.584584,0.669262,0.598842,0.310511,0.000000,369.000000,315.000000,54.000000,28.000000,0.000000,0.000000:
0000
0000
0000
0000
,
0000
0000
0000
0000
,
0000
0000
0000
0000
,
0000
0000
0000
0000
,
0000
0000
0000
0000
,
0000
0000
0000
0000
,
1000
0100
1000
0100
0010
0001
0010
0001
,
1000
0010
1000
0010
0100
0001
0100
0001
,
1000
0001
1000
0001
,
1000
0000
0001
0000
1000
0001
1000
0001
,
1000
0000
1000
0100
1000
0000
0001
0100
,
0010
0000
0100
1000
0010
0000
1000
0001
,
2000
3010
0002
0103
,
1100
1010
1001
0101
,
0110
0000
0010
1000
0100
0000
1001
0000
,
0011
0000
0010
0001
0100
0000
0101
0000
,
1001
1010
1100
1001
,
0021
0130
0220
0330
,
1100
0000
1000
0001
0100
0000
0010
0001
,
0100
0000
0010
1000
0100
0000
0001
1000
,
0100
1100
0100
0101
,
0100
1100
1001
0101
,
0110
0000
0010
1000
0001
0000
1001
0000
,
0011
0000
0010
0001
0100
0000
0110
0000
,
1100
1010
0101
0011
,
2020
0000
0000
3030
,
2000
0000
3200
0000
,
0310
0000
0001
0000
0100
0010
0000
1000
,
0100
0101
1000
1001
,
0010
0000
0100
0020
0200
0000
0330
0000
,
0020
0000
0032
0000
,
0103
0000
0010
0000
0000
1010
0000
1000
,
0100
1100
1001
0110
,
0022
0000
0000
0033
,
0002
0000
2003
0000
,
3010
0110
0101
1100
,
1000
0001
0100
0000
0010
0100
0001
0000
,
0020
0000
0001
0001
0031
0000
0101
0000
,
0001
0100
0001
0100
0010
1000
0010
1000
,
0100
1000
0100
1000
0001
1000
0001
1000
,
0010
0100
1000
0100
0001
0010
1000
0002
,
2000
0000
0000
0000
3003
0000
1000
0100
,
1000
0100
0010
0001
0010
0001
0001
0100
,
0001
0100
0010
1000
0010
1000
1000
0100
,
0010
0100
1000
0001
0010
0100
0010
0002
,
0000
0000
0000
0103
1000
0010
0100
0001
,
0010
0100
0001
1000
0100
0010
0001
0100
,
0010
1000
0001
0010
0100
1000
0010
0100
,
0001
1000
0100
0010
0001
0020
0200
0000
,
0000
0000
0000
0330
0000
0000
1000
0100
,
0001
0100
1000
0100
0001
0100
1000
0010
,
0100
0001
1000
0010
0100
0001
1000
0000
,
0100
1000
0010
0000
0010
0100
0001
0000
,
0101
0000
0001
0010
0100
1000
0010
0000
,
0110
1010
0110
0101
,
0110
1100
1001
0022
,
0000
0000
0000
0000
,
0000
0000
0033
0000
0000
0000
0001
0010
,
1000
0010
0001
0010
1000
0010
0001
0010
,
1000
0100
0001
0010
2000
0000
0000
0000
,
0000
0000
0000
0000
,
0000
0000
0000
0000
3000
0000
1000
0100
,
1000
0100
0010
0001
0010
0001
1000
0010
,
1000
0010
0100
0001
0100
0001
1000
0100
,
0001
0100
1000
0100
0001
0100
1000
0010
,
0001
0010
1000
0010
0001
0010
1000
0000
,
1100
1010
0101
0110
,
0011
0000
0001
0010
0100
2000
0020
0000
,
0000
0000
0000
0000
,
0000
0000
0000
0000
,
0000
0000
0000
0000
,
3030
0000
0000
0000
;

//---------------dance-single - ----------------
#NOTES:
     dance-single:
     :
     Hard:
     16:
     0.864994,1.023577,0.377049,0.266152,0.526759,546.000000,512.000000,34.000000,24.000000,0.000000,0.000000,0.864994,1.023577,0.377049,0.266152,0.526759,546.000000,512.000000,34.000000,24.000000,0.000000,0.000000:
// measure 0
0000
0000
0000
0000
,  // measure 1
0000
0000
0000
0000
,  // measure 2
0000
0000
0000
0000
,  // measure 3
0000
0000
0000
0000
,  // measure 4
0000
0000
0000
0000
,  // measure 5
0000
0000
0000
0000
,  // measure 6
1000
0010
0001
0010
1000
0010
0001
0010
,  // measure 7
1000
0100
0001
0100
1000
0100
0001
0100
,  // measure 8
1000
0000
0000
1000
0100
0000
0000
0100
0010
0000
0000
0010
0001
0000
0000
0001
,  // measure 9
1000
0000
0000
1000
0001
0000
0000
0001
1000
0000
0001
1000
0001
0000
1000
0000
,  // measure 10
0001
0010
0100
1000
0001
0100
0010
1000
,  // measure 11
0100
0000
1000
0100
1000
0000
0010
0000
0100
0000
0001
0010
0001
0000
0100
0000
,  // measure 12
0020
1000
1030
0100
0020
0001
0031
0100
,  // measure 13
0001
0010
0001
0100
0010
1000
0100
1000
,  // measure 14
0010
0000
0100
0000
0001
0010
0001
0000
0100
0000
0010
0000
1000
0100
1000
0000
,  // measure 15
0010
0000
0100
0001
0100
0000
0010
0000
1000
0000
0100
1000
0100
0000
0010
0000
,  // measure 16
0001
0010
0001
0000
0010
0000
1000
0000
0001
0100
0001
0000
0100
0000
0001
0000
,  // measure 17
0010
0100
0010
0000
0001
0010
0001
0000
2000
0000
0000
0000
3100
0000
0000
0000
,  // measure 18
1000
0100
0010
0001
1000
0010
0100
0001
,  // measure 19
1000
0001
1000
0000
0010
0000
0100
0000
0001
0010
0001
0000
0100
0000
0010
0000
,  // measure 20
2000
0100
3100
0010
0002
0100
0103
0010
,  // measure 21
1000
0100
0010
0001
1000
0010
0100
0001
,  // measure 22
1000
0000
0010
0000
0100
0001
0100
0000
0010
0000
1000
0000
0100
1000
0100
0000
,  // measure 23
0010
0000
0001
0010
0001
0000
0100
0000
0010
0000
1000
0100
1000
0000
0010
0000
,  // measure 24
0100
0001
0100
0010
0100
1000
0100
0010
,  // measure 25
0001
0000
1000
0000
0001
0000
1000
0000
0001
1000
0001
1000
0001
1000
0001
1000
,  // measure 26
0002
0000
0100
0100
0203
0000
0010
0010
,  // measure 27
0310
0000
1010
0000
0011
0011
0000
0101
,  // measure 28
0101
1100
1001
0011
,  // measure 29
0101
0000
1001
1001
2002
0000
3003
0000
,  // measure 30
2000
0000
0010
0010
3020
0000
0100
0100
,  // measure 31
0130
0000
0110
0000
0000
0101
0000
1100
,  // measure 32
1100
1001
0011
0101
,  // measure 33
1000
0100
1000
0100
0010
0001
0010
0001
,  // measure 34
2000
0000
0010
0010
3002
0000
0100
0100
,  // measure 35
1003
1100
1010
0101
,  // measure 36
0011
0110
1100
1001
,  // measure 37
0110
0000
0101
0101
0101
0000
0110
0000
,  // measure 38
1000
0100
1000
0000
0100
0000
0010
0000
0001
0010
0001
0000
0100
0000
0001
0000
,  // measure 39
1000
0010
1000
0000
0010
0000
0100
0000
0001
0100
0001
0000
1000
0000
0010
0000
,  // measure 40
1000
0100
1000
0100
1000
0000
0010
0000
1000
0010
1000
0010
1000
0000
0020
0000
,  // measure 41
2000
0000
0000
0000
0000
0000
0000
0000
0000
0000
3030
0000
1000
0100
1000
0000
,  // measure 42
0100
0000
0010
0000
0001
0010
0001
0000
0100
0000
0010
0000
1000
0010
1000
0000
,  // measure 43
0010
0000
0100
0000
0001
0010
0001
0000
0100
0000
0010
0000
1000
0010
1000
0000
,  // measure 44
0010
0000
0100
0000
0001
0100
0001
0000
0010
0000
1000
0000
0010
1000
0010
0100
,  // measure 45
0010
0000
1000
0000
0100
0000
1000
0000
0010
0000
0001
0100
0001
0000
1000
0100
,  // measure 46
1000
0000
0010
0001
0010
0000
0100
0010
0100
0000
1000
0001
1000
0000
0010
0001
,  // measure 47
0010
0000
0100
0001
0100
0000
0010
1000
0010
0000
0100
1000
0100
0000
0010
1000
,  // measure 48
0010
0000
0001
0010
0001
0000
0010
0100
0010
0100
0020
0000
0200
0000
0000
0000
,  // measure 49
0000
0000
0300
0000
0000
0000
0130
0000
0000
0000
0000
0000
0010
0001
0010
0000
,  // measure 50
0100
0000
0010
0000
1000
0100
1000
0000
0010
0000
0100
0000
0001
0010
0001
0000
,  // measure 51
0100
0000
0010
0000
1000
0001
1000
0000
0001
1000
0001
1000
0002
0000
1000
0000
,  // measure 52
1003
1001
0110
2002
,  // measure 53
3003
0000
0000
0000
0010
0100
0010
0100
0010
0000
0000
0000
1000
0100
1000
0000
,  // measure 54
0100
0010
0100
0000
0010
0001
0010
0000
0001
0010
0001
0000
0010
0100
0010
0000
,  // measure 55
0100
1000
0100
0000
1000
0001
1000
0000
0001
1000
0001
1000
0001
0000
1000
0000
,  // measure 56
0001
1000
0001
1000
0001
1000
0001
1000
,  // measure 57
0001
0000
1000
0000
0001
0000
2000
0000
0000
0000
3001
0000
0010
0001
0010
0000
,  // measure 58
0100
0000
1000
0000
0010
1000
0010
0000
0100
0000
0001
0000
1000
0100
1000
0000
,  // measure 59
0010
0001
0010
0000
1000
0100
1000
0100
0020
0000
0000
0000
0001
0000
0000
0000
,  // measure 60
1000
0001
1000
0001
,  // measure 61
1000
0000
0100
0000
0130
0000
0010
0001
,  // measure 62
0100
0001
1000
0100
0010
0100
1000
0100
,  // measure 63
0001
0000
0100
0000
1000
0000
0010
0000
0001
0000
0010
0000
1000
0010
1000
0000
,  // measure 64
0001
0010
0001
0000
1000
0100
1000
0000
0001
0100
0001
0000
1000
0100
1000
0000
,  // measure 65
0100
0010
0100
0000
0010
0001
0010
0000
0001
0010
0001
0010
0100
0000
0000
0100
,  // measure 66
1000
0000
0000
1000
0100
0000
0000
0100
0001
0000
0000
0001
0100
0000
0000
0100
,  // measure 67
0010
0000
0000
0000
0100
0010
0100
0010
0100
0000
0020
0000
0200
0000
0000
0000
,  // measure 68
0000
0000
0000
0000
,  // measure 69
0000
0000
0000
0000
,  // measure 70
0000
0000
0000
0000
,  // measure 71
0330
0000
0000
0000
;
