#TITLE:L'amour et la liberté(Darwin & DJ Silver remix);
#SUBTITLE:;
#ARTIST:NAOKI in the MERCURE;
#TITLETRANSLIT:L'amour et la liberte(Darwin & DJ Silver remix);
#SUBTITLETRANSLIT:;
#ARTISTTRANSLIT:;
#GENRE:;
#CREDIT:;
#BANNER:L'amour et la liberte(Darwin & DJ Silver remix).png;
#BACKGROUND:L'amour et la liberte(Darwin & DJ Silver remix)-bg.png;
#LYRICSPATH:;
#CDTITLE:;
#MUSIC:L'amour et la liberte(Darwin & DJ Silver remix).ogg;
#OFFSET:0.000000;
#SAMPLESTART:56.570000;
#SAMPLELENGTH:15.000000;
#SELECTABLE:YES;
#DISPLAYBPM:70.000000:140.000000;
#BPMS:0.000000=140.078003
,4.000000=139.990005
,128.000000=140.009995
,224.000000=70.039001
,228.000000=139.987000
;
#STOPS:128.000000=1.713000
;
#BGCHANGES:;
#KEYSOUNDS:;
#ATTACKS:;

//---------------dance-single - ----------------
#NOTES:
     dance-single:
     :
     Beginner:
     3:
     0.096061,0.157979,0.024304,0.032406,0.000000,83.000000,80.000000,3.000000,4.000000,0.000000,0.000000,0.096061,0.157979,0.024304,0.032406,0.000000,83.000000,80.000000,3.000000,4.000000,0.000000,0.000000:
0000
0000
0000
0000
,
0000
0000
0000
0000
,
0000
0000
0000
0000
,
0000
0000
0000
0000
,
0000
0000
0000
0000
,
1000
0000
0000
0000
,
0001
0000
0000
0000
,
1000
0000
0000
0000
,
0001
0000
0000
0000
,
1000
0000
0100
0000
,
0010
0000
0000
0000
,
0001
0000
0100
0000
,
0010
0000
0000
0000
,
0100
0000
0010
0000
,
1000
0000
0000
0000
,
0100
0000
0010
0000
,
0001
0000
0000
0000
,
1000
0000
0000
0000
,
0100
0000
0000
0000
,
0010
0000
0000
0000
,
0001
0000
0000
0000
,
0010
0000
0000
0000
,
0100
0000
0000
0000
,
0010
0000
0000
0000
,
0100
0000
0000
0000
,
0001
0000
0000
0000
,
0100
0000
0000
0000
,
0010
0000
0000
0000
,
1000
0000
0000
0000
,
0100
0000
0000
0000
,
0010
0000
0000
0000
,
0100
0000
0100
0000
,
0100
0000
0000
0000
,
1000
0000
0100
0000
,
0001
0000
0000
0000
,
0001
0000
0100
0000
,
1000
0000
0000
0000
,
1000
0000
0000
0000
,
0001
0000
0000
0000
,
1001
0000
0000
0000
,
0020
0000
0000
0030
,
0010
0000
0010
0000
,
0200
0000
0000
0300
,
0100
0000
0100
0000
,
2000
0000
0000
3000
,
1000
0000
1000
0000
,
0002
0000
0000
0003
,
0001
0000
0001
0000
,
1000
0000
0000
0000
,
0100
0000
0000
0000
,
0001
0000
0000
0000
,
0010
0000
0000
0000
,
0100
0100
0000
0000
,
1000
1000
0000
0000
,
0010
0010
0000
0000
,
0001
0001
0000
0000
,
0110
0000
0000
0000
,
1000
0000
0001
0000
,
1000
0000
0001
0000
,
0100
0000
0000
0000
,
0100
0000
0000
0000
,
0001
0000
1000
0000
,
0001
0000
1000
0000
,
0100
0000
0000
0000
,
0100
0000
0000
0000
,
1001
0000
0000
0000
,
0000
0000
0000
0000
;

//---------------dance-single - ----------------
#NOTES:
     dance-single:
     :
     Easy:
     4:
     0.157400,0.236969,0.040507,0.081015,0.000000,136.000000,131.000000,5.000000,10.000000,0.000000,0.000000,0.157400,0.236969,0.040507,0.081015,0.000000,136.000000,131.000000,5.000000,10.000000,0.000000,0.000000:
0000
0000
0000
0000
,
0000
0000
0000
0000
,
0000
0000
0000
0000
,
0000
0000
0000
0000
,
0000
0000
0000
0000
,
0010
1000
0100
0000
,
0100
0000
1000
0000
,
0010
0001
0100
0000
,
0100
0000
0001
0000
,
1000
0000
0100
0000
,
0010
0000
0100
0000
,
0001
0000
0100
0000
,
0010
0000
0100
0000
,
0001
0000
0010
0000
,
0100
0000
0010
0000
,
1000
0000
0010
0000
,
0100
0000
0010
0000
,
2000
0000
0000
0000
,
0200
0000
3300
0000
,
0002
0000
0000
0000
,
0020
0000
0033
0000
,
0002
0000
0000
0000
,
0200
0000
0303
0000
,
2000
0000
0000
0000
,
0020
0000
3030
0000
,
1000
0000
0001
0000
,
1000
0010
0100
0000
,
0001
0000
1000
0000
,
0001
0010
0100
0000
,
1000
0000
0100
0000
,
0001
0000
0100
0000
,
1000
1000
0001
0001
,
0100
0010
0100
0001
,
0000
0010
0100
1000
,
0000
0001
0000
1000
,
0000
0100
0010
0100
,
0010
0100
0010
0001
,
0000
0100
0010
1000
,
0000
0001
0000
1000
,
1001
0000
0000
0000
,
1000
0000
1000
0000
,
0100
0100
0010
0010
,
0001
0000
0001
0000
,
0100
0100
0010
0010
,
1000
0000
0001
0000
,
0010
0010
0100
0100
,
1000
0000
0001
0000
,
0010
0100
0010
0100
,
1000
0000
0000
0000
,
0100
0000
0000
0000
,
0010
0000
0000
0000
,
1001
0000
0000
0000
,
0001
0000
0000
0000
,
0100
0000
0000
0000
,
0010
0000
0000
0000
,
1001
0000
0000
0000
,
0110
0000
0010
0000
,
0100
1000
0010
0000
,
0200
0000
0300
0000
,
0001
1000
0001
1000
,
0010
0100
0010
0000
,
0100
0001
0010
0000
,
0200
0000
0300
0000
,
1000
0001
1000
0001
,
0010
0100
0010
0000
,
1001
0000
0000
0000
,
0000
0000
0000
0000
;

//---------------dance-single - ----------------
#NOTES:
     dance-single:
     :
     Medium:
     7:
     0.256933,0.315958,0.194436,0.153928,0.024304,222.000000,198.000000,24.000000,19.000000,0.000000,0.000000,0.256933,0.315958,0.194436,0.153928,0.024304,222.000000,198.000000,24.000000,19.000000,0.000000,0.000000:
0000
0000
0000
0000
,
0000
0000
0000
0000
,
0000
0000
0000
0000
,
0000
0000
0000
0000
,
0000
0000
0000
0000
,
0010
0000
1000
0000
0000
0001
0100
0000
,
0001
0000
0010
0000
0000
0100
1000
0000
,
0010
0000
0100
0000
0000
0001
0010
0000
,
0100
0000
1000
0000
0000
0010
0001
0010
,
1000
0001
1000
0001
,
0010
0000
0100
0000
0010
0000
0100
1000
,
0001
0100
0001
0100
,
0010
0000
1000
0000
0010
0000
1000
0100
,
0010
0001
0010
0100
,
1000
0000
0001
0000
0100
0000
0010
1000
,
0001
0010
1000
0100
,
2002
0000
0000
3003
,
0200
0000
0000
0000
,
1000
0300
0001
0000
,
0200
0000
0000
0000
,
0001
0300
1000
0000
,
0200
0000
0000
0000
,
0010
0300
0100
0000
,
2000
0000
0000
0000
,
0010
0000
0000
0000
3000
0000
0000
0000
0200
0000
0000
0000
0000
0300
0000
0000
,
0101
0000
1100
0000
,
0011
0000
1010
0000
,
0010
0000
0000
0010
0000
0000
0000
0000
0100
0000
0000
0100
0000
0000
0000
0000
,
0001
0000
0000
0001
0000
0000
0000
0000
1000
0000
0000
1000
0000
0000
0000
0000
,
1100
0000
0011
0000
,
0101
0000
1010
0000
,
1000
0000
0000
1000
0000
0000
0000
0000
0001
0000
0000
0001
0000
0000
0000
0000
,
1001
1000
0100
1000
,
0001
0000
0100
0000
0001
0010
0001
0000
,
1000
0100
1000
0010
,
0100
0001
0100
0000
0001
0010
0001
0000
,
0100
1000
0100
0001
,
0010
0000
0100
0000
1000
0001
1000
0000
,
0010
0100
0001
1000
,
1001
0000
0000
0000
,
1001
0100
0010
0000
,
2000
3000
0002
0003
,
1001
0010
0100
0000
,
0102
0003
2100
3000
,
0110
0100
0001
0000
,
0020
0030
0200
0300
,
1100
1000
0010
0000
,
0102
0003
2010
3000
,
1001
0000
0000
0000
0000
0000
0010
0001
,
0100
0000
0000
0000
0010
1000
0100
0000
,
0010
0000
0000
0001
0000
0000
1000
0000
,
0200
0300
0020
0030
,
0001
0000
0100
0000
,
1000
0000
0010
0000
,
0001
0000
0010
0000
,
1000
0000
0100
0001
,
2002
0000
3003
0000
0101
0000
1100
0100
,
0100
0010
0001
1000
,
0100
0000
0010
0000
0001
0100
0010
0000
,
0100
0010
1000
0001
,
0100
0000
0010
0000
1000
0100
1000
0001
,
1000
0100
0010
0001
,
0100
0000
0010
0000
1000
0100
0010
0000
,
0001
1000
0010
0100
,
0001
0000
1000
0010
0100
0001
1000
0000
,
1001
0000
0000
0000
,
0000
0000
0000
0000
;

//---------------dance-single - ----------------
#NOTES:
     dance-single:
     :
     Hard:
     11:
     0.425907,0.473937,0.226842,0.008101,0.315958,368.000000,340.000000,28.000000,1.000000,0.000000,0.000000,0.425907,0.473937,0.226842,0.008101,0.315958,368.000000,340.000000,28.000000,1.000000,0.000000,0.000000:
0000
0000
0000
0000
,
0000
0000
0000
0000
,
0000
0000
0000
0000
,
0000
0000
0000
0000
,
0000
0000
0000
0000
,
0100
1000
0100
0001
,
0100
1000
0100
0001
,
0010
0100
0010
0001
0100
0010
1000
0100
,
0010
0000
0000
0000
0000
0001
0010
0100
,
1000
1100
0001
0101
,
1000
1010
0001
0011
,
0100
1001
0010
1001
,
0100
0000
0100
0000
0001
0000
0010
0100
,
0100
0000
1100
0000
1000
0010
0001
0000
,
0010
0000
1010
0000
1000
0100
0001
0000
,
0100
0110
0001
1001
,
1000
0000
0010
0000
0100
0000
0001
0000
0010
0000
0100
0000
1000
0001
1000
0100
,
1000
0000
0000
0000
0000
0000
0001
1000
,
0010
0000
0101
0000
,
1100
0000
0000
0000
0000
0000
0010
0001
,
1000
0000
1010
0000
,
0011
0000
0000
0000
0000
0000
0100
0010
,
1000
0000
1001
0000
,
0110
0000
0000
0000
0000
0000
0010
0001
,
1000
0000
1001
0000
,
0100
0000
0000
0010
0000
0001
0000
0000
0100
0000
0000
0010
0000
1000
0000
0000
,
0001
0000
0000
0010
0000
0001
0000
0000
1000
0000
0000
0100
0000
1000
0000
0000
,
0010
0000
0000
0100
0000
0001
0000
0000
0010
0000
0000
0100
0000
0010
0000
0000
,
0001
0000
0000
0100
0000
0010
0000
0000
1000
0000
0000
0001
0000
0100
0000
0000
,
0001
0000
0000
1000
0000
0100
0000
0000
1000
0000
0000
0010
0000
0001
0000
0000
,
0100
0000
0000
1000
0000
0010
0000
0000
0001
0000
0000
0010
0000
1000
0000
0000
,
0100
0000
0000
0001
0000
0010
0000
0000
1000
0000
0000
0100
0000
0010
0000
0000
,
1001
0000
0000
0100
0000
0010
0000
0100
1000
0000
0000
0001
0000
0100
0000
0001
,
0010
0000
0000
0100
0000
0010
0000
0001
1000
0000
0000
0010
0000
1000
0000
0100
,
0010
0000
0000
0001
0000
1000
0000
0010
1000
0000
0000
0100
0000
0010
0000
0001
,
0010
0000
0000
0001
0000
0100
0000
0010
0100
0000
0000
0001
0000
1000
0000
0100
,
1000
0000
0000
0010
0000
1000
0000
0100
0001
0000
0000
0100
0000
1000
0000
0010
,
0001
0000
0000
0010
0000
0100
0000
0001
1000
0000
0000
0001
0000
0010
0000
0100
,
1000
0000
0000
0010
0000
0100
0000
0010
1000
0000
0000
0100
0000
0010
0000
0100
,
1000
0000
0000
0000
0000
0000
0000
0000
0010
0000
0000
0000
1001
0000
1000
0001
,
1000
0100
0010
0000
0001
0000
1100
0000
,
0010
0100
0100
0000
0001
0100
0100
0000
,
0010
1000
0100
0000
1000
0000
0011
0000
,
0100
1000
1000
0000
0100
0010
0010
0000
,
0001
1000
0100
0000
0010
0000
0101
0000
,
1000
0010
0010
0000
0100
0001
0001
0000
,
1000
0010
0100
0000
0001
0000
1010
0000
,
0100
0001
0010
1000
0010
0001
0100
0010
,
0100
0000
0000
0001
0010
0000
0110
0000
,
1100
0000
0000
1000
0010
0000
0100
0001
,
1000
0000
0000
0010
1000
0000
1100
0000
,
0110
0000
0000
0000
0010
0000
0001
1000
,
0001
0000
0000
0000
0010
0000
0000
0100
1000
0000
0001
0000
0100
0000
0010
0000
,
1000
0000
0000
0000
0100
0000
0000
1000
0001
0000
0010
0000
0100
0000
0010
0000
,
0001
0000
0000
0000
0100
0000
0000
0010
1000
0000
0001
0000
0010
0000
0100
0000
,
1000
0000
0000
0000
0010
0000
0000
0100
0010
0000
1000
0000
0001
0000
1000
0000
,
0200
0000
0000
0000
0000
0000
0000
0000
0000
0000
0000
0000
0300
0000
0100
0100
,
0100
0010
0001
1000
0010
0100
1000
0000
,
0100
0001
0010
0100
0001
0100
1000
0000
,
0010
0100
0001
1000
0010
1000
0100
0000
,
1000
0010
0100
0001
0010
0001
0100
0100
,
0100
0001
1000
0010
0100
1000
0100
0010
,
1000
0100
0010
0001
1000
0100
0001
0100
,
0010
0001
0100
1000
0100
0001
0010
1000
,
0010
0001
1000
0010
1000
0100
0010
0001
,
1001
0000
0000
0000
,
0000
0000
0000
0000
;

//---------------dance-double - ----------------
#NOTES:
     dance-double:
     :
     Easy:
     4:
     0.152771,0.236969,0.048609,0.000000,0.000000,132.000000,126.000000,6.000000,0.000000,0.000000,0.000000,0.152771,0.236969,0.048609,0.000000,0.000000,132.000000,126.000000,6.000000,0.000000,0.000000,0.000000:
00000000
00000000
00000000
00000000
,
00000000
00000000
00000000
00000000
,
00000000
00000000
00000000
00000000
,
00000000
00000000
00000000
00000000
,
00000000
00000000
00000000
00000000
,
00000001
00000001
00000010
00000000
,
00001000
00001000
00010000
00000000
,
00001000
00010000
00010000
00000000
,
00100000
10000000
10000000
00000000
,
00100000
00000000
00100000
00000000
,
10000000
00000000
00100000
00000000
,
01000000
00000000
00001000
00000000
,
00010000
00000000
00010000
00000000
,
00001000
00000000
00001000
00000000
,
00010000
00000000
00000100
00000000
,
00000010
00000000
00000001
00000000
,
00000010
00000000
00000010
00000000
,
00000001
00000000
00000000
00000100
,
00000100
00000000
00000000
00000000
,
00001000
00000000
00000000
00010000
,
00010000
00000000
00000000
00000000
,
00001000
00000000
00000000
00010000
,
00010000
00000000
00000000
00000000
,
01000000
00000000
00000000
10000000
,
10000000
00000000
00000000
00000000
,
00100000
00000000
00010000
00000000
,
00001000
00010000
00001000
00000000
,
00000010
00000000
00001000
00000000
,
00010000
00001000
00010000
00000000
,
00100000
00000000
10000000
00000000
,
01000000
00000000
00010000
00000000
,
00001000
00001000
00010000
00010000
,
00011000
00001000
00000000
00000100
,
00000000
00000001
00000000
00001000
,
00000000
00000001
00000000
00000010
,
00000000
00001000
00000000
00010000
,
00000000
00001000
00000000
00010000
,
00000000
00100000
00000000
10000000
,
00000000
00010000
00000000
10000000
,
10010000
00000000
00000000
00000000
,
00100000
00000000
10000000
00000000
,
00100000
00000000
10000000
00000000
,
01000000
00000000
00010000
00000000
,
01000000
00000000
00010000
00000000
,
00001000
00000000
00000100
00000000
,
00001000
00000000
00000100
00000000
,
00000001
00000000
00000010
00000000
,
00000001
00000000
00000010
00000000
,
00000100
00000000
00000000
00000000
,
00010000
00000000
00000000
00000000
,
00001000
00000000
00000000
00000000
,
00011000
00000000
00000000
00000000
,
00010000
00000000
00000000
00000000
,
00001000
00000000
00000000
00000000
,
01000000
00000000
00000000
00000000
,
10010000
00000000
00000000
00000000
,
01100000
00000000
00000000
00000000
,
01000000
10000000
00100000
00000000
,
00010000
00010000
00010000
00000000
,
00001000
00000100
00001000
00000100
,
00000001
00000010
00000001
00000000
,
00000100
00000001
00000010
00000000
,
00001000
00001000
00001000
00000000
,
00010000
01000000
00010000
01000000
,
10000000
00100000
10000000
00000000
,
10010000
00000000
00000000
00000000
,
00000000
00000000
00000000
00000000
;

//---------------dance-double - ----------------
#NOTES:
     dance-double:
     :
     Medium:
     7:
     0.282395,0.368618,0.186334,0.129624,0.032406,244.000000,221.000000,23.000000,16.000000,0.000000,0.000000,0.282395,0.368618,0.186334,0.129624,0.032406,244.000000,221.000000,23.000000,16.000000,0.000000,0.000000:
00000000
00000000
00000000
00000000
,
00000000
00000000
00000000
00000000
,
00000000
00000000
00000000
00000000
,
00000000
00000000
00000000
00000000
,
00000000
00000000
00000000
00000000
,
00100000
00000000
01000000
00000000
00000000
00100000
01000000
00000000
,
00001000
00000000
00010000
00000000
00000000
00001000
00010000
00000000
,
00000100
00000000
00000010
00000000
00000000
00000100
00000010
00000000
,
00001001
00000000
00000000
00000000
00000000
00000100
00000010
00000100
,
00001000
00011000
00010000
01010000
,
01000000
00000000
11000000
00000000
10000000
00000000
00100000
10000000
,
00010000
01010000
00001000
00011000
,
00000100
00000000
00001100
00000000
00000001
00000000
00000010
00000001
,
00001000
00000010
00000100
00001000
,
00010000
00000000
01000000
00000000
10000000
00000000
00100000
01000000
,
00001000
00010000
00001000
00010000
,
00011000
00000000
00000000
00000000
,
00000100
00000000
00000000
00000000
00000000
00000000
00000010
00000001
,
00000100
00000000
00001000
00000000
,
00020000
00000000
00000000
00000000
00030000
00000000
01000000
10000000
,
00100000
00000000
00010000
00000000
,
00001000
00000000
00000000
00000000
00000000
00000000
00000100
00000001
,
00000010
00000000
00001000
00000000
,
00020000
00000000
00000000
00000000
00030000
00000000
01000000
10000000
,
00100000
00000000
00010000
00000000
,
00011000
00000000
00000000
00001000
00000000
00000000
00000000
00000000
00000100
00000000
00000000
00000100
00000000
00000000
00000000
00000000
,
00000010
00000000
00000000
00000010
00000000
00000000
00000000
00000000
00000001
00000000
00000000
00000001
00000000
00000000
00000000
00000000
,
00000100
00001000
00010000
01000000
,
00010000
00001000
00000010
00001000
,
00010000
00000000
00000000
00010000
00000000
00000000
00000000
00000000
01000000
00000000
00000000
01000000
00000000
00000000
00000000
00000000
,
10000000
00000000
00000000
10000000
00000000
00000000
00000000
00000000
00100000
00000000
00000000
00100000
00000000
00000000
00000000
00000000
,
00010000
00001000
00000100
00000001
,
00001001
00000010
00000001
00000100
,
00000010
00000000
00010000
00000000
00001000
00100000
00001000
00000000
,
00010000
01000000
10000000
00100000
,
01000000
00001000
01000000
00000000
00010000
00000100
00010000
00000000
,
00001000
00000010
00000001
00001000
,
00000010
00000000
00000100
00000000
00010000
00001000
00010000
00000000
,
01000000
10000000
00100000
01000000
,
01100000
00000000
00000000
00000000
,
00022000
00003000
00001000
00001000
,
00000100
00000100
00000010
00030010
,
00020020
00030000
00010000
00010000
,
00001000
00001000
00000100
00000130
,
00000210
00000001
00000010
00000301
,
00001200
00010300
00012000
00103000
,
02100000
10000000
00100000
13000000
,
10010000
00000000
01100000
00000000
,
00011000
00000000
00000000
00010000
00000100
00000000
00001000
00000000
,
00000001
00000000
00000100
00001000
,
00020000
00000000
00000000
02030000
00000000
00000000
13000000
00000000
,
00200000
00000000
00000000
02300000
00000000
00000000
03001000
00000000
,
00011000
00000000
00001000
00000000
,
00000100
00000000
00000001
00000000
,
00000010
00000000
00001000
00000000
,
00010000
00000000
01000000
10000000
,
20020000
30030000
01000000
00100000
,
00001000
00010000
00001000
00010000
,
00000100
00000000
00000010
00000000
00000001
00001000
00000100
00000000
,
00010000
00001000
00010000
00001000
,
01000000
00000000
00100000
00000000
10000000
00010000
01000000
00010000
,
00100000
00001000
00100000
00001000
,
00010000
00000000
00000100
00000000
00000010
00000001
00001000
00000000
,
00000010
00010000
00000010
00010000
,
00001000
00000000
00100000
00010000
01000000
00010000
10000000
00000000
,
10010000
00000000
00000000
00000000
,
00000000
00000000
00000000
00000000
;

//---------------dance-double - ----------------
#NOTES:
     dance-double:
     :
     Hard:
     12:
     0.430537,0.552927,0.259248,0.210639,0.311908,372.000000,340.000000,32.000000,26.000000,0.000000,0.000000,0.430537,0.552927,0.259248,0.210639,0.311908,372.000000,340.000000,32.000000,26.000000,0.000000,0.000000:
00000000
00000000
00000000
00000000
,
00000000
00000000
00000000
00000000
,
00000000
00000000
00000000
00000000
,
00000000
00000000
00000000
00000000
,
00000000
00000000
00000000
00000000
,
00001000
00010000
01000000
00100000
,
00001000
00010000
00000010
00000100
,
00001000
01000000
00100000
00010000
00001000
00000010
00000100
00010000
,
00011000
00000000
00000000
00000000
00000000
00101000
00010000
00001000
,
00020010
00001000
00030020
00000100
,
00020030
00000000
00001000
00000000
00030010
00000100
00000010
00010000
,
00001000
00101000
00010000
10100000
,
01000000
01010000
00100000
00101000
,
01002000
00010000
02003000
00100000
,
03002000
00000000
00010000
00000000
01003000
00100000
01000000
00001000
,
00010000
00010100
00001000
00000101
,
00001001
00001000
00000001
00000010
00001000
00010000
01000000
10000000
,
20020000
00000000
00000000
00030000
,
00200000
00000000
00000000
30000000
,
00020000
00000000
00000000
00330000
,
00220000
00300000
00002000
00030000
,
00000020
00000000
00000000
00000000
00000000
00003000
00001030
00000010
,
00000002
00000000
00000200
00000003
,
00002000
00000000
00000000
00000000
00000000
00000300
00003100
00001000
,
00020000
00000000
00002000
00033000
,
00011000
00000000
00000000
00100000
00000000
00100000
00000000
00000000
00010000
00000000
00000000
10000000
00000000
10000000
00000000
00000000
,
00100000
00000000
00000000
01000000
00000000
01000000
00000000
00000000
00100000
00000000
00000000
00010000
00000000
00010000
00000000
00000000
,
00001000
00000000
00000000
00000100
00000000
00000100
00000000
00000000
00000010
00000000
00000000
00001000
00000000
00001000
00000000
00000000
,
00000100
00000000
00000000
00000010
00000000
00000010
00000000
00000000
00000100
00000000
00000000
00000001
00000000
00000001
00000000
00000000
,
00000100
00000000
00000000
00010000
00000000
00001000
00000000
00000000
01000000
00000000
00000000
00010000
00000000
00100000
00000000
00000000
,
01000000
00000000
00000000
10000000
00000000
00100000
00000000
00000000
00010000
00000000
00000000
00001000
00000000
00000100
00000000
00000000
,
00001000
00000000
00000000
00010000
00000000
01000000
00000000
00000000
00010000
00000000
00000000
00001000
00000000
00000010
00000000
00000010
,
00000001
00000000
00001000
00000010
00000000
00000100
00000000
00000010
00001000
00000000
00001000
00000010
00000000
00000100
00000000
00000010
,
00001000
00000000
00001000
00000100
00000000
00010000
00000000
00000100
00001000
00000000
00001000
00000100
00000000
00010000
00000000
00000100
,
00010000
00000000
00010000
00001000
00000000
00100000
00000000
00001000
00010000
00000000
00010000
00001000
00000000
00100000
00000000
00010000
,
10000000
00000000
10000000
00100000
00000000
01000000
00000000
00001000
00100000
00000000
00100000
00010000
00000000
10000000
00000000
00010000
,
10000000
00000000
10000000
00010000
00000000
01000000
00000000
00010000
10000000
00000000
10000000
00010000
00000000
01000000
00000000
00001000
,
00010000
00000000
00010000
00001000
00000000
00100000
00000000
00001000
00010000
00000000
00010000
00001000
00000000
00100000
00000000
00001000
,
00010000
00000000
00010000
00000010
00000000
00000100
00000000
00000010
00010000
00000000
00010000
00000010
00000000
00000100
00000000
00000001
,
00001000
00000000
00000000
00000000
00000001
00000010
00001000
00010000
,
01000000
10000000
10000000
00000000
00100000
00000000
10010000
00000000
,
01000000
00001000
00001000
00000000
00010000
00000100
00000100
00000000
,
00000010
00000001
00000001
00000000
00000100
00000000
00001001
00000000
,
00000100
00010000
00000100
00010000
00000000
00000000
00000000
00000000
00001000
01000000
00001000
01000000
00000000
00000000
00000000
00000000
,
00100000
10000000
10000000
00000000
01000000
00000000
10010000
00000000
,
00100000
00001000
00010000
00000000
00000100
00010000
00001000
00000000
,
00000100
00000001
00000001
00000000
00000010
00000000
00001001
00000000
,
00000110
00000000
00011000
00000000
,
01100000
00000000
00000000
10000000
00010000
00000000
01010000
00000000
,
01001000
00000000
00000000
00100000
00001000
00000000
00010000
00000010
,
00000100
00000000
00000000
00000001
00001000
00000000
00001100
00000000
,
00020200
00030300
00022000
00033000
,
01002000
00000000
00013000
00100000
10000000
00000000
11000000
00000000
,
01010000
00000000
00000000
00010000
00001000
00000000
00000100
00000001
,
00000011
00000000
00000000
00000100
00000000
00000000
00001000
00000000
00000010
00000000
00000100
00000000
00000001
00000000
00000010
00000000
,
00001001
00000000
00000000
00001000
00010000
01000000
10000000
00100000
,
02000000
00000000
00000000
00000000
00000000
00000000
03000000
00000000
00200000
00000000
00000000
00000000
00310000
00000000
00001000
00000100
,
00000001
00000010
00000100
00010000
00000100
00001000
00000001
00000000
,
00000100
00001000
00010000
00000100
00010000
00001000
01000000
00000000
,
00100000
01000000
00001000
01000000
00100000
10000000
01000000
00000000
,
00010000
01000000
10000000
00010000
01000000
00001000
00010000
00010000
,
00010000
00000100
00000010
00000100
00001000
00000001
00000100
00000010
,
00010000
00000010
00001000
00000100
00010000
00001000
01000000
00001000
,
00100000
00010000
01000000
10000000
00010000
00100000
01000000
00001000
,
00010000
00000100
00000010
00001000
00000001
00000100
00010000
00001000
,
00011000
00000000
00000000
00000000
,
00000000
00000000
00000000
00000000
;

//---------------dance-single - ----------------
#NOTES:
     dance-single:
     :
     Challenge:
     16:
     0.739551,1.015928,0.210639,0.267349,1.089651,639.000000,613.000000,26.000000,33.000000,0.000000,0.000000,0.739551,1.015928,0.210639,0.267349,1.089651,639.000000,613.000000,26.000000,33.000000,0.000000,0.000000:
// measure 0
0000
0000
0000
0000
,  // measure 1
0000
0000
0000
0000
,  // measure 2
0000
0000
0000
0000
,  // measure 3
0000
0000
0000
0000
,  // measure 4
0000
0000
0000
0000
,  // measure 5
0010
0001
0010
1000
0010
0001
0010
1000
,  // measure 6
0010
0100
0010
0001
0010
0100
0010
0001
,  // measure 7
0100
0010
0100
1000
0100
0010
0100
1000
,  // measure 8
0100
0001
0100
1000
0100
0001
0100
1000
,  // measure 9
0100
0000
0010
0001
0000
0001
0100
0000
0001
0000
0100
0010
0000
0010
1000
0000
,  // measure 10
0010
0000
1000
0010
0000
0010
0100
0000
0001
0000
0010
0001
0000
0001
0100
0000
,  // measure 11
0010
0000
1000
0010
0100
0000
0001
0100
0000
1000
0100
0000
0010
0000
0001
0000
,  // measure 12
1000
0000
0010
1000
0100
0000
0001
0100
0000
1000
0100
0000
0010
0000
0001
0000
,  // measure 13
1000
0100
1000
0100
1000
0010
1000
0010
1000
0100
1000
0100
1000
0010
1000
0010
,  // measure 14
1000
0100
0010
0001
1000
0100
0010
0001
1000
0010
0100
0001
1000
0010
0100
0001
,  // measure 15
0010
0001
0010
1000
0010
0100
0010
0001
0010
0100
0010
1000
0010
0100
0010
0001
,  // measure 16
0010
0001
0100
0001
0010
0001
0100
0001
0010
0100
1000
0100
0010
0000
0001
0000
,  // measure 17
0020
0000
0002
0003
,  // measure 18
2030
0000
0020
0030
,  // measure 19
3200
0000
2000
3000
,  // measure 20
0302
0000
0020
0030
,  // measure 21
0203
0000
0002
0003
,  // measure 22
2300
0000
0200
0300
,  // measure 23
3020
0000
0200
0300
,  // measure 24
0032
0000
2000
3003
,  // measure 25
1001
0000
0001
0010
0000
0110
0000
1100
0000
1001
0000
1010
0000
0010
0001
0010
,  // measure 26
0100
0000
1000
0100
0000
0101
0000
0011
0000
1010
0000
0011
0000
0100
0001
0100
,  // measure 27
0010
0000
0001
0010
0000
1010
0000
0011
0000
1100
0000
0101
0000
0001
1000
0001
,  // measure 28
0100
0000
0010
1000
0000
1010
0000
1100
0000
0011
0000
0101
0000
0100
0001
1000
,  // measure 29
0010
0001
0100
0010
0000
1010
0000
0101
0000
0011
0000
1100
0000
0100
0001
0100
,  // measure 30
1000
0010
0100
0010
1000
0010
0100
0010
1000
0010
0100
0010
1000
0010
0100
0010
,  // measure 31
1000
0100
0010
0001
1000
0100
0010
0001
1000
0001
0100
1000
0100
0001
0100
1000
,  // measure 32
2002
3003
0000
0000
0000
0000
0000
0000
0000
0000
0000
0000
0000
0000
0000
0000
0000
0000
0000
0000
0000
0000
0000
0000
0001
0000
0000
0000
0000
0000
0000
0000
0000
0000
0000
0000
0010
0000
0000
0000
0000
0000
0000
0000
0000
0000
0000
0000
0000
0000
0000
0000
0000
0000
0000
0000
0000
0000
0000
0000
0010
0000
0000
0000
0000
0000
0000
0000
0000
0000
0000
0000
1000
0000
0000
0000
0000
0000
0000
0000
0000
0000
0000
0000
0010
0000
0000
0000
0000
0000
0000
0000
0000
0000
0000
0000
0100
0000
0000
0000
0000
0000
0000
0000
0000
0000
0000
0000
0010
0000
0000
0000
0000
0000
0000
0000
0000
0000
0000
0000
0001
0000
0000
0000
0000
0000
0000
0000
0000
0000
0000
0000
0010
0000
0000
0000
0000
0000
0000
0000
0000
0000
0000
0000
0100
0000
0000
0000
0000
0000
0000
0000
0000
0000
0000
0000
0010
0000
0000
0000
0000
0000
0000
0000
0000
0000
0000
0000
1000
0000
0000
0000
0000
0000
0000
0000
0000
0000
0000
0000
0010
0000
0000
0000
0000
0000
0000
0000
0000
0000
0000
0000
,  // measure 33
0000
0010
0001
0010
0000
0010
0100
0010
0001
0010
1000
0010
0100
0010
0001
0010
,  // measure 34
0000
0010
1000
0010
0000
0010
0100
0010
0001
0010
0100
0010
1000
0010
0100
0010
,  // measure 35
0001
0000
0000
0101
0000
0000
1100
0000
2000
0000
0000
0000
3001
0000
0000
0000
,  // measure 36
1000
0001
0010
0001
0100
0010
1000
0100
0010
0001
0010
0100
1000
0010
0100
0001
,  // measure 37
0010
0001
1000
0100
0010
0001
0100
0010
1000
0100
0010
0001
0100
0010
1000
0010
,  // measure 38
0100
0001
0010
0001
0100
0010
1000
0100
0010
0001
0100
0010
0100
0001
1000
0002
,  // measure 39
2000
0000
3003
0000
1001
0000
0000
0000
1000
0100
1000
0100
1000
0100
1000
0100
,  // measure 40
1000
0010
0001
0010
1000
0010
0001
0010
1000
0010
0001
0010
1000
0010
0001
0010
,  // measure 41
1000
0010
0100
0001
0000
0000
0000
0000
0001
0100
0010
1000
0000
0000
0000
0000
,  // measure 42
1000
0100
0001
0100
1000
0100
0001
0100
1000
0100
0001
0100
1000
0100
0001
0100
,  // measure 43
1000
0100
0010
0001
0000
0000
0000
0000
0001
0010
0100
1000
0000
0000
0000
0000
,  // measure 44
0010
0001
0010
1000
0010
0001
0010
1000
0100
0001
0100
1000
0100
0001
0100
1000
,  // measure 45
0100
0010
0001
0010
0000
0000
0000
0000
0010
0100
1000
0100
0000
0000
0000
0000
,  // measure 46
0010
0001
0100
0010
1000
0100
0010
0001
1000
0010
0100
0001
1000
0100
0010
0001
,  // measure 47
0010
0100
1000
0001
0010
0001
0100
0010
1000
0100
0010
0001
1000
0010
0100
0001
,  // measure 48
2000
0000
0200
0300
,  // measure 49
3200
0000
0002
0003
,  // measure 50
0302
0000
0020
0030
,  // measure 51
0023
0000
2000
3000
,  // measure 52
2030
0001
0010
3100
,  // measure 53
0002
1000
0100
0013
,  // measure 54
0001
0010
0100
1000
0100
0010
0001
1000
,  // measure 55
0010
0001
0100
0010
1000
0001
0001
1000
,  // measure 56
1001
0000
0000
0000
0000
0000
0000
0000
0001
0000
0000
0000
0000
0000
0000
0000
0010
0000
0000
0000
0000
0000
0000
0000
0100
0000
0000
0000
0000
0000
0000
0000
1000
0000
0000
0000
0000
0000
0000
0000
0100
0000
0000
0000
0000
0000
0000
0000
0010
0000
0000
0000
0000
0000
0000
0000
0001
0000
0000
0000
0000
0000
0000
0000
0100
0000
0000
0000
0000
0000
0000
0000
0010
0000
0000
0000
0000
0000
0000
0000
1000
0000
0000
0000
0000
0000
0000
0000
0100
0000
0000
0000
0000
0000
0000
0000
0010
0000
0000
0000
0000
0000
0000
0000
0001
0000
0000
0000
0000
0000
0000
0000
0100
0000
0000
0000
0000
0000
0000
0000
0010
0000
0000
0000
0000
0000
0000
0000
1000
0000
0000
0000
0000
0000
0000
0000
0001
0000
0000
0000
0000
0000
0000
0000
0010
0000
0000
0000
0000
0000
0100
0000
0000
0000
0000
0000
0010
0000
0000
0000
0000
0000
0100
0000
0000
0000
0000
0000
0010
0000
0000
0000
0000
0000
0100
0000
0000
0000
0000
0000
0010
0000
0000
0000
0000
0000
0100
0000
0000
0000
0000
0000
,  // measure 57
0010
0000
1000
0010
0100
0000
0001
0010
0000
1000
0010
0000
0001
0000
0100
0000
,  // measure 58
0010
1000
0010
0001
0010
1000
0010
0001
0010
1000
0010
0001
0010
1000
0010
0001
,  // measure 59
0010
0000
0001
0100
0010
0000
1000
0100
0000
0010
0001
0000
1000
0010
0100
0000
,  // measure 60
0001
0100
1000
0100
0001
0100
1000
0100
0001
0100
1000
0100
0001
0100
1000
0100
,  // measure 61
0001
0000
0010
0001
0100
0000
1000
0100
0000
0001
0100
0000
0010
1000
0100
0000
,  // measure 62
0010
0001
0010
1000
0010
0001
0010
1000
0010
0001
0010
1000
0010
0001
0010
1000
,  // measure 63
0010
0001
0100
0001
0010
0001
0100
0001
0010
0001
0100
0001
0010
0001
0100
0001
,  // measure 64
0010
0100
1000
0100
0010
0100
1000
0100
0010
0100
1000
0100
0010
0100
1000
0200
,  // measure 65
0002
0000
0000
0000
,  // measure 66
0303
0000
0000
0000
;
