#TITLE:Kissing You;
#SUBTITLE:;
#ARTIST:Girls' Generation;
#TITLETRANSLIT:;
#SUBTITLETRANSLIT:;
#ARTISTTRANSLIT:;
#GENRE:;
#CREDIT:;
#BANNER:;
#BACKGROUND:Kissing You-bg.png;
#LYRICSPATH:;
#CDTITLE:;
#MUSIC:Kissing You.mp3;
#OFFSET:-0.105125;
#SAMPLESTART:100.500000;
#SAMPLELENGTH:12.000000;
#SELECTABLE:YES;
#BPMS:0.000000=118.000000
,287.000000=59.000000
,295.000000=118.000000
;
#STOPS:150.000000=0.490000
;
#BGCHANGES:0.000=Kissing You-bg.png=1.000=0=0=0=StretchNoLoop====,
0.021=Kissing You.mp4=1.000=0=0=1=====,
99999=-nosongbg-=1.000=0=0=0 // don't automatically add -songbackground-
;
#KEYSOUNDS:;
#ATTACKS:;

//---------------dance-single - ----------------
#NOTES:
     dance-single:
     :
     Hard:
     14:
     0.537783,0.871687,0.333184,0.417723,0.365508,757.000000,690.000000,67.000000,84.000000,0.000000,0.000000,0.537783,0.871687,0.333184,0.417723,0.365508,757.000000,690.000000,67.000000,84.000000,0.000000,0.000000:
// measure 0
0000
0000
0000
0000
,  // measure 1
0000
0000
0000
0000
,  // measure 2
0000
0000
0000
0000
,  // measure 3
0000
0000
0000
0000
,  // measure 4
0000
0000
0000
0000
,  // measure 5
0000
0000
0000
0000
1000
0100
0010
0002
,  // measure 6
0000
1003
0001
0000
0001
0100
0010
2000
,  // measure 7
0000
3100
1000
0000
0100
1000
0001
0200
,  // measure 8
0000
0310
1000
0200
0000
1300
0001
0200
,  // measure 9
0000
0310
0100
0000
0110
0000
0110
0000
,  // measure 10
0010
0000
0100
0000
0010
0000
0001
0100
0000
0001
0100
0000
0010
0000
0000
0000
,  // measure 11
0100
0000
1000
0000
0100
0000
0001
0000
0000
0000
1001
0000
1000
0001
0000
0001
,  // measure 12
0100
0000
0010
0000
1000
0000
0001
0100
0000
1000
0100
0000
0010
0000
0000
0000
,  // measure 13
0001
0000
0100
0000
0010
0000
1000
0010
0000
0010
0100
0000
0001
0010
0000
0010
,  // measure 14
0100
0000
0100
1000
0000
0010
0200
0000
0000
0000
0301
0000
0010
0000
0100
0000
,  // measure 15
1000
0000
0000
0000
0000
0000
1000
0000
0000
0100
0000
0000
0000
0000
0000
0010
0000
0000
0002
0000
0000
0000
0000
0000
0100
0000
0000
0000
0000
0000
0000
0000
0100
0000
0000
0000
0000
0000
0000
0000
0100
0000
0000
0000
0000
0000
0000
0000
,  // measure 16
0103
0000
0001
0100
0001
0000
1000
0100
0000
1000
0000
0020
0000
0000
0000
0000
,  // measure 17
0130
0001
1000
0020
0000
1000
1030
0100
,  // measure 18
0010
0001
0010
0001
0100
0000
0010
1000
0000
1000
0100
0000
0010
0001
0100
0002
,  // measure 19
0000
0000
0000
0000
1003
0000
0000
0001
0000
0000
1000
0000
0001
1000
0001
1000
,  // measure 20
0001
0010
0001
0010
0100
0000
1000
0100
0000
0100
1000
0000
0100
0000
1000
0020
,  // measure 21
0000
0000
0000
0130
0001
0000
2002
3003
,  // measure 22
1000
0000
0100
0000
0010
0000
0001
0010
0001
0000
0011
0000
0000
0000
0202
0000
,  // measure 23
0003
0000
0310
0000
0100
0000
0010
0100
0001
0000
0011
0000
0000
0000
2020
0000
,  // measure 24
3000
0000
1030
0000
0010
0000
0100
1000
0100
0000
1000
0000
0010
0000
0200
0000
,  // measure 25
0000
0301
0010
0200
0000
0001
0301
2000
,  // measure 26
0000
3100
0010
0002
0000
0013
0100
2000
,  // measure 27
0000
3010
0100
0020
0000
0001
0000
1030
,  // measure 28
0000
0110
0110
0000
2000
3020
0230
0302
,  // measure 29
0000
1003
1001
0001
0200
0000
0310
0000
,  // measure 30
0110
0000
0100
0000
0001
0000
1000
0100
1000
0000
1001
0000
0000
0000
0101
0000
,  // measure 31
0000
0100
0010
0000
1000
0000
0001
1000
0100
0000
1100
0000
0000
0000
0200
0000
,  // measure 32
0000
0000
1300
0001
0100
0000
0100
0000
0010
0000
0010
0000
0100
0000
0220
0000
,  // measure 33
0330
0000
0010
0100
0001
0000
0011
0000
0000
0000
0001
0000
0011
0000
0010
0000
,  // measure 34
0000
0001
0010
0001
0000
1000
0100
1000
,  // measure 35
0000
0010
1000
0001
0000
0001
0100
0010
,  // measure 36
0100
0000
0110
0010
0000
0100
0100
0100
,  // measure 37
0000
0000
0001
1000
0001
1000
0001
1000
0001
0000
0000
0000
1001
0000
0001
0000
,  // measure 38
0010
0000
0100
1000
0000
0010
0100
0000
0110
0000
0000
0000
0100
0001
0100
0000
,  // measure 39
0001
0000
1000
0010
0000
0010
0100
0000
0001
0100
0000
0100
0001
0000
0001
0000
,  // measure 40
1000
0000
0100
1000
0000
0001
0010
0000
0011
0000
0000
0000
0010
0001
0010
0000
,  // measure 41
0001
0000
1000
0000
0001
0000
0010
0000
0001
0010
0000
0010
0001
1000
0010
1000
,  // measure 42
0000
1000
0001
0000
0000
0000
0201
0000
0001
0000
0310
0000
1000
0000
0010
1000
,  // measure 43
0000
0001
0010
0000
0110
0000
1100
0000
0000
1010
0000
0000
1001
0000
0001
0000
,  // measure 44
1000
0000
0001
0100
0000
0010
0000
1000
0000
0000
0000
0000
1000
0000
0020
0000
,  // measure 45
0100
0000
1000
0000
0030
0000
1001
0000
1000
0100
0000
0010
0001
0010
0001
0010
,  // measure 46
0001
0000
0100
1000
0000
0010
0100
0000
0002
0000
0000
0100
0003
0100
0010
0000
,  // measure 47
2000
0000
0000
0001
3000
0001
0100
0000
0010
0100
0010
0100
0001
0010
0001
0010
,  // measure 48
0001
0000
0010
0001
0000
1000
0001
0000
1001
0000
0001
2000
0000
0000
0100
0000
,  // measure 49
3100
0000
1000
0001
0200
0000
0000
0000
0002
0000
0303
0000
0101
0000
1001
0000
,  // measure 50
0011
0000
0010
0001
1000
0000
1001
0000
0000
0000
2020
0000
3030
0000
0101
0000
,  // measure 51
1000
0000
0001
0100
0010
0000
1000
0000
0000
0000
2200
0000
3300
0000
0010
0000
,  // measure 52
0001
0000
0000
0010
0001
0000
1000
0000
0001
0000
0200
0000
0000
0000
0010
0000
,  // measure 53
0010
0020
0000
0330
0110
0200
0000
0301
,  // measure 54
1000
0200
0000
1300
0001
0020
0000
0031
,  // measure 55
1000
0010
0000
1010
0000
1001
0000
0001
,  // measure 56
0100
0000
0100
0100
0010
0010
0000
0010
,  // measure 57
0110
0100
0002
0000
1003
0000
1100
1000
,  // measure 58
0001
0000
0010
0001
0010
0000
0011
0000
0000
0000
0001
0000
0000
0001
0010
0000
,  // measure 59
0100
0000
1000
0100
0100
0000
0100
0000
0000
0000
2200
0000
3000
0000
1000
0000
,  // measure 60
0310
0000
0100
1000
0001
0000
0100
0000
0010
0000
0100
0000
0000
0000
0100
0000
,  // measure 61
0001
1000
0000
1001
1001
0021
0000
0031
,  // measure 62
1000
0020
0000
0130
0001
2000
0000
3100
,  // measure 63
1000
0000
0002
0000
0000
0000
0013
0000
0001
0000
1000
0000
0010
0000
0000
0100
,  // measure 64
0001
0000
0000
0000
1000
0000
0010
0000
0100
0000
0001
0000
1000
0000
0000
0001
,  // measure 65
1000
0000
0000
0000
0001
0000
0010
0000
0100
0000
1000
0000
0001
0000
0000
1000
,  // measure 66
0010
1000
0000
0001
1000
0001
0000
1001
,  // measure 67
1001
0000
0001
1000
0010
0000
0110
0000
0000
0000
0101
0000
0000
0000
0100
0000
,  // measure 68
0001
0100
0000
1000
0010
1000
0000
0001
,  // measure 69
1000
0000
0002
0000
0000
0000
1000
0000
1003
0000
0001
0010
0001
0000
0010
0001
,  // measure 70
0000
0001
1000
0000
0001
0000
0100
0000
0010
0000
2000
0000
0000
0000
3001
0000
,  // measure 71
0001
0000
0000
0000
0010
0000
0000
0000
0100
0000
0000
0000
1000
0000
0000
0000
0001
0000
0000
0000
0100
0000
0000
0000
0020
0000
1000
0000
1030
0000
0010
0100
,  // measure 72
0001
0000
0011
0000
0010
0000
0002
0000
0000
0000
0010
0000
0013
0000
0001
1000
0100
0000
1100
0000
0000
0000
0200
0000
1000
0000
1000
0000
1300
0000
0100
1000
,  // measure 73
0100
0000
1100
0000
1000
0000
2000
0000
0000
0000
0010
0000
3010
0000
0100
0000
2000
0000
0100
0000
3100
0000
1000
0100
0010
0000
0000
0000
0001
0000
0000
0000
,  // measure 74
1000
0000
0001
0100
0010
0000
1000
0000
0000
0000
1010
0000
0000
0000
1001
0000
,  // measure 75
0101
0000
0001
1000
0100
0000
1100
0000
0000
0000
2020
0000
0030
0000
0100
0000
,  // measure 76
3001
0000
1000
0001
0010
0000
0001
0000
1000
0000
0010
0000
0000
0010
0100
0000
,  // measure 77
0001
0000
2000
0000
0000
0000
3001
1000
0010
0000
0200
0000
0000
0000
0301
0000
,  // measure 78
1000
0020
0000
0130
0001
2000
0000
3200
,  // measure 79
0010
0320
0000
0031
0001
2000
0000
3001
,  // measure 80
1001
0000
0001
0000
0010
1000
0010
0100
0001
0100
0010
0000
1000
0000
0001
0000
,  // measure 81
1000
0100
0020
0031
0020
0130
0020
0031
,  // measure 82
1000
0000
0001
1000
0010
0000
0100
0000
0110
0000
0100
0010
1000
0000
0100
0000
,  // measure 83
1000
0000
0001
0010
0100
0000
1000
0000
0001
0000
1000
0001
0100
0000
0010
0000
,  // measure 84
0110
0000
0100
0001
1000
0000
1000
0000
0100
0000
0020
0000
0000
0000
0130
1000
,  // measure 85
0001
2000
0000
3001
1001
2000
0000
3001
,  // measure 86
0100
0200
0300
0100
0100
0002
0003
0001
,  // measure 87
1000
0000
0200
0000
0300
0000
0100
1000
0001
0000
0200
0000
0010
0000
0301
1000
,  // measure 88
0020
0000
0100
0000
0130
0000
0001
1000
0200
0000
1000
0000
1300
0000
0001
1000
,  // measure 89
0010
0000
1000
0010
1000
0010
1000
0010
1000
0010
1000
0010
1000
0000
0010
0000
,  // measure 90
0100
0000
0001
0000
1000
0000
0000
0000
1001
0000
0000
0000
0001
0010
0100
0000
,  // measure 91
1000
0000
0001
0000
0000
0000
1000
0001
0100
0000
0010
0000
0000
0000
0010
0100
,  // measure 92
0001
0000
1000
0000
0000
0000
1001
0000
1001
0000
1000
0001
0100
0000
0010
0000
,  // measure 93
0110
0000
0010
0100
0001
0000
1000
0000
1001
0000
0010
0200
0002
0000
0000
0000
,  // measure 94
0000
0000
0000
0303
;

//---------------dance-single - ----------------
#NOTES:
     dance-single:
     :
     Medium:
     9:
     0.378651,0.424064,0.338157,0.263564,0.032324,533.000000,465.000000,68.000000,53.000000,0.000000,0.000000,0.378651,0.424064,0.338157,0.263564,0.032324,533.000000,465.000000,68.000000,53.000000,0.000000,0.000000:
0000
0000
0000
0000
,
0000
0000
0000
0000
,
0000
0000
0000
0000
,
0000
0000
0000
0000
,
0000
0000
0000
0000
,
0000
0000
0000
0000
1000
0100
0010
0002
,
0000
0003
1001
0000
0001
0010
0100
2000
,
0000
3000
1001
0000
1000
0001
0100
0020
,
0000
0130
0010
2000
0000
3001
0010
0200
,
0000
1300
0001
0000
1001
0000
1001
0000
,
2000
0000
0010
0000
0010
0000
0000
0010
0000
0000
0010
0000
3010
0000
0000
0000
,
0010
1000
0100
0000
0010
0001
0100
0000
,
0002
0000
0100
0000
0100
0000
0000
0100
0000
0000
0100
0000
0103
0000
0000
0000
,
0100
0001
1000
0000
1000
0001
1000
0000
,
1000
0000
0000
0001
0000
0000
1000
0000
0000
0000
0100
0000
1000
0000
0000
0000
,
0001
0000
0000
1000
0000
0000
0001
0000
0000
0000
0100
0000
0000
0001
0000
0000
,
1000
0100
1000
0000
0010
0001
0100
0000
,
0220
0000
0000
0330
,
0200
0000
0000
0000
0000
0000
0302
0000
0000
0000
0000
0003
2000
0000
0000
0020
,
3000
0000
0000
0030
0200
0000
0000
0302
0000
0000
0000
1003
0000
0000
0001
0000
,
1000
0001
1000
0000
0001
1000
0001
0000
,
2002
3003
1100
1100
,
0100
1000
0001
0000
0202
0000
0303
0000
,
0001
1000
0010
0000
2020
0000
3030
0000
,
1000
0001
1000
0000
2002
0000
3003
0000
,
1001
0000
0001
0010
0100
0000
1100
0000
,
2000
0000
3001
1000
0010
0000
0010
0100
,
0001
1000
0001
0000
0001
1000
0001
0000
,
0022
0000
0033
0000
0001
1000
0010
0000
,
2020
3030
0202
0303
,
1000
0001
1000
0000
2200
0000
3300
0000
,
1000
0100
0010
0000
2020
0000
3030
0000
,
0010
1000
0001
0000
0202
0000
0303
0000
,
1001
0000
0001
1000
0001
0000
1001
0000
,
1010
0000
0010
1000
0010
0000
0010
0100
,
0001
0000
0001
0100
0010
0000
0100
0010
,
1000
1001
1001
1001
,
1000
0001
1000
0001
1000
0000
1001
1000
,
0001
0000
0001
0010
0100
0000
1000
0000
,
0001
0000
0000
0000
0100
0000
0000
0010
0000
0000
0100
0000
0001
0000
0000
0000
,
1000
0000
0100
1000
0100
0000
1000
0001
,
0010
0000
0001
0000
0000
0000
0001
0000
0000
0001
0000
0000
0001
0000
1000
0000
,
0010
0000
0010
0100
0001
0000
1000
0001
,
0100
0000
0000
0000
0010
0000
0000
0010
0000
0000
0010
0000
0010
0000
0000
0000
,
0010
0100
0010
0000
0010
1000
0001
0000
,
0101
1010
1100
2000
,
0000
0000
3002
0000
0000
0000
0000
0000
0103
0000
0000
0200
0000
0000
0300
0000
,
0010
0000
0000
0020
0000
0000
1030
0000
0001
0000
1000
0000
0001
0000
0000
0000
,
0011
0000
0010
0001
1000
0001
0100
0000
,
0101
0000
1010
0000
1001
0000
1100
1000
,
0001
0000
0100
0001
1000
0000
0010
1000
,
0001
0000
0010
0001
1000
0000
0001
1000
,
0010
0100
0001
1000
0001
0000
0011
0000
,
0101
0000
1010
0000
1000
0100
0000
0100
,
1000
0100
0000
0100
0010
0100
0000
0100
,
0001
0100
0000
0110
0000
1100
0000
1000
,
0001
0000
0001
0100
0010
1000
0000
0001
,
1000
0000
1001
0000
1001
0000
1000
0100
,
0010
0001
1000
0001
0000
0101
0000
0001
,
0100
0010
1000
0100
1000
0100
0000
1000
,
0010
0100
0001
1000
0001
0010
0000
0001
,
0010
0001
0000
0001
0001
0100
0000
0100
,
0010
0100
0000
0100
0010
1000
0000
1000
,
0001
1000
0000
1000
0100
0010
0002
0000
,
1003
0000
0001
1000
0100
0000
0200
0000
,
1300
0000
1000
0010
0200
0000
0301
0000
,
1000
0100
0000
0100
1000
0001
0000
0100
,
0100
0010
1000
1000
0000
1010
0000
0010
,
1000
0001
0000
0010
0001
1000
0000
1000
,
0001
0100
0000
0101
0101
0001
1000
0100
,
1000
0100
1000
0000
1010
0000
0010
1000
,
0001
0000
0001
1000
0001
0000
2002
0000
,
3003
0000
0220
0000
0330
0000
1000
0010
,
0100
0001
1000
0001
0100
0100
0100
0000
,
0010
1000
0001
0010
,
0001
1000
0001
1000
,
0100
1000
0010
0100
,
0001
0000
1000
0001
1000
0000
1001
0000
,
0011
1001
1010
1001
,
0101
1010
1100
1001
,
0110
0000
0010
0100
0001
1000
0000
1000
,
0001
1000
0001
0000
1001
0000
1100
1000
,
0001
0100
0010
0100
0010
0000
1010
0000
,
0010
1000
0001
0010
0001
0000
1001
0000
,
1000
0100
0010
0100
1000
0000
1001
0000
,
0001
0100
0010
0000
0110
0000
1010
0000
,
0010
1000
0001
0000
0010
0001
1000
0000
,
1000
0001
0100
0000
0100
0001
1000
0000
,
1000
0100
0010
0000
0010
0100
1000
0000
,
1000
0001
0010
0000
0011
0000
0010
0001
,
0010
0001
0100
0000
0101
0000
0200
0000
,
0310
2000
0000
3001
1000
0020
0000
0130
,
0001
2000
0000
3100
0100
0000
0100
1000
,
0001
0000
0001
0100
0001
0000
0202
0000
,
0000
0000
0000
0303
;

//---------------dance-single - ----------------
#NOTES:
     dance-single:
     :
     Easy:
     6:
     0.219518,0.353387,0.119350,0.099458,0.000000,309.000000,285.000000,24.000000,20.000000,0.000000,0.000000,0.219518,0.353387,0.119350,0.099458,0.000000,309.000000,285.000000,24.000000,20.000000,0.000000,0.000000:
0000
0000
0000
0000
,
0000
0000
0000
0000
,
0000
0000
0000
0000
,
0000
0000
0000
0000
,
0000
0000
0000
0000
,
0000
0000
0000
0000
,
1000
0000
0100
0010
,
0001
0000
0001
1000
,
0010
0000
0010
0100
,
0010
0100
0000
0000
,
0100
0000
0001
0000
,
1000
0100
1000
0000
0010
0001
0010
0000
,
1000
0000
0001
0000
,
0001
0010
0001
0000
0100
1000
0100
0000
,
0010
0000
0010
0000
,
0010
0100
1000
0001
,
0100
0000
0100
0000
,
0100
0010
1000
0001
,
0010
0001
0010
0000
1000
0100
1000
0000
,
0020
0000
0030
0110
,
0100
1000
0100
0000
0001
0010
0001
0000
,
0200
0000
0300
0110
,
0100
1000
0001
0100
,
0010
1000
0001
0010
,
0001
1000
0100
0010
,
0001
0000
1000
0000
0001
0100
0001
0000
,
0001
0010
0001
0000
1000
0010
1000
0000
,
0001
0100
0001
0000
1000
0100
1000
0000
,
2200
0000
3300
0000
0100
1000
0100
0000
,
0001
0100
0001
0000
0202
0000
0303
0000
,
0001
0010
0100
1000
,
0001
0010
1000
0010
,
0001
1000
0100
0010
,
0001
1000
0001
0100
,
0010
1000
0010
0000
0001
0100
0001
0000
,
0001
0010
0001
0000
0100
1000
0100
0000
,
1000
0100
0010
0001
,
1000
0001
1001
1001
,
0000
0000
0101
0000
0000
0000
0001
0100
,
0001
0000
1000
0010
1000
0000
1010
0000
,
0000
0000
1100
0000
0000
0000
1000
0100
,
1000
0000
0010
0001
0010
0000
0011
0000
,
0000
0101
0000
0100
,
0001
1000
0001
0010
,
0000
0011
0000
1001
,
0000
0101
0000
0220
,
0000
0000
0000
0330
,
0000
0000
0000
2002
,
0000
0000
0000
3003
,
0000
1000
0000
0001
,
0000
1000
0000
0001
,
0000
1000
0000
0010
,
0000
0100
0000
0010
,
0000
0100
0000
0010
,
0000
1000
0000
0001
,
0000
0100
0000
0001
,
0000
0010
0000
0001
,
0000
1000
0000
1000
,
0000
0100
0000
0010
,
0000
0001
0000
0010
,
0000
0100
0000
1000
,
0000
0001
0000
0100
,
0000
0100
0000
0100
,
0000
0100
0000
0100
,
0000
0010
0000
1000
,
0000
0001
0000
1000
,
0000
0100
0000
0010
,
0000
0000
0001
0010
0001
0000
0001
0000
,
0010
0100
1000
0001
,
1000
0000
0001
0000
0100
0000
0010
1000
,
0010
0100
0001
1000
,
0100
0010
0002
0200
,
0303
2200
3300
0220
,
0330
2002
3003
0001
,
0000
0010
0000
0100
,
0000
1000
0000
0001
,
0000
1000
0000
0001
,
0000
0100
0000
0010
,
0000
1000
0000
0001
,
0000
1000
0000
0100
,
0000
0000
1000
0100
1000
0000
0100
0000
,
1000
0001
0100
0010
,
0100
0000
0001
0100
0001
0000
0100
0000
,
0010
0000
1000
0010
1000
0000
1000
0000
,
0100
0000
1000
0100
1000
0000
0100
0000
,
0010
0000
0001
0000
0011
0000
0001
0010
,
0001
0000
0001
0100
0001
0000
0001
1000
,
0001
1001
1100
0100
,
1000
0100
1000
0000
0010
0100
0010
0000
,
0001
0100
0001
0000
0000
0000
0110
0000
,
0000
1001
0000
0200
,
0010
0000
0010
0000
,
0001
0000
0001
0000
,
0010
0000
0001
0002
,
0000
0000
0000
0303
;
