#VERSION:0.83;
#TITLE:KIM POSSIBLE THEME SONG;
#SUBTITLE:;
#ARTIST:KIM POSSIBLE;
#TITLETRANSLIT:;
#SUBTITLETRANSLIT:;
#ARTISTTRANSLIT:;
#GENRE:;
#ORIGIN:;
#CREDIT:;
#BANNER:KIM POSSIBLE THEME SONG.png;
#BACKGROUND:KIM POSSIBLE THEME SONG-bg.png;
#PREVIEWVID:;
#JACKET:;
#CDIMAGE:;
#DISCIMAGE:;
#LYRICSPATH:;
#CDTITLE:;
#MUSIC:KIM POSSIBLE THEME SONG.mp3;
#OFFSET:-0.028000;
#SAMPLESTART:1.960000;
#SAMPLELENGTH:15.000000;
#SELECTABLE:YES;
#DISPLAYBPM:122.000000:125.000000;
#BPMS:0.000=122.000,
56.000=124.000,
68.000=125.000,
70.000=124.000,
71.500=122.000,
72.000=120.000,
79.000=125.000,
80.000=123.000,
124.000=125.000,
132.000=122.000,
136.000=124.000,
139.000=120.000,
143.500=122.000,
164.000=123.000,
168.000=122.000,
172.000=125.000;
#STOPS:;
#DELAYS:;
#WARPS:;
#TIMESIGNATURES:0.000=4=4;
#TICKCOUNTS:0.000=4;
#COMBOS:0.000=1;
#SPEEDS:0.000=1.000=0.000=0;
#SCROLLS:0.000=1.000;
#FAKES:;
#LABELS:0.000=Song Start;
#BGCHANGES:0.000=KIM POSSIBLE THEME SONG.avi=1.000=0=0=0=StretchNoLoop====,
99999=-nosongbg-=1.000=0=0=0 // don't automatically add -songbackground-
;
#KEYSOUNDS:;
#ATTACKS:
;

//---------------dance-single - ----------------
#NOTEDATA:;
#CHARTNAME:;
#STEPSTYPE:dance-single;
#DESCRIPTION:;
#CHARTSTYLE:;
#DIFFICULTY:Beginner;
#METER:2;
#RADARVALUES:0.120724,0.150742,0.057099,0.045679,0.000000,74.000000,69.000000,5.000000,4.000000,0.000000,0.000000,0.000000,0.000000,0.000000,0.120724,0.150742,0.057099,0.045679,0.000000,74.000000,69.000000,5.000000,4.000000,0.000000,0.000000,0.000000,0.000000,0.000000;
#CREDIT:;
#DISPLAYBPM:122.000000:125.000000;
#NOTES:
0000
0000
0000
0000
,
0000
0000
0000
0000
,
0001
0000
0000
0000
,
1000
0000
0000
0000
,
0001
0000
0000
0000
,
0100
0100
0100
0100
,
0000
0000
0000
0000
,
0010
0000
0000
0000
,
0100
0000
0000
0000
,
0001
0000
0000
0000
,
1000
0000
0010
0000
,
1000
0000
0001
0000
,
0100
0000
0001
0000
,
1000
0000
0000
0000
,
0001
0000
1000
0000
,
0100
0000
0010
0000
,
0001
0000
1000
0000
,
1001
0000
0000
0000
,
0010
0000
0100
0000
,
0001
0000
1000
0000
,
0001
0000
0010
0000
,
0100
0000
1000
0000
,
0000
0010
0000
0100
,
0000
0001
0000
1000
,
2000
0000
0000
3000
,
0002
0000
0000
0003
,
0010
0000
0100
0000
,
0110
0000
0000
0000
,
1000
0000
0001
0000
,
0010
0000
0100
0000
,
1000
0000
0001
0000
,
1001
0000
0000
0000
,
0100
0000
0010
0000
,
1000
0000
0001
0000
,
1000
0000
0100
0000
,
0010
0000
0001
0000
,
0000
0100
0000
0010
,
0000
1000
0000
0001
,
0002
0000
0000
0003
,
2000
0000
0000
3000
,
0100
0000
0010
0000
,
0110
0000
0000
0000
,
1000
0000
0001
0000
,
0100
0000
0000
0000
,
0110
0000
0000
0000
;

//---------------dance-single - ----------------
#NOTEDATA:;
#CHARTNAME:;
#STEPSTYPE:dance-single;
#DESCRIPTION:;
#CHARTSTYLE:;
#DIFFICULTY:Easy;
#METER:5;
#RADARVALUES:0.194137,0.251236,0.091359,0.125618,0.000000,119.000000,111.000000,8.000000,11.000000,0.000000,0.000000,0.000000,0.000000,0.000000,0.194137,0.251236,0.091359,0.125618,0.000000,119.000000,111.000000,8.000000,11.000000,0.000000,0.000000,0.000000,0.000000,0.000000;
#CREDIT:;
#DISPLAYBPM:122.000000:125.000000;
#NOTES:
0000
0000
0000
0000
,
0000
0000
0000
0000
,
1000
0000
0001
0000
,
1000
0000
0010
0000
,
0100
0000
0010
0000
,
0001
1000
0001
1000
,
0100
0000
0010
0000
,
0100
1000
0100
0000
,
0010
0000
0001
0000
,
1000
0100
1000
0000
,
0001
0001
0001
0000
,
1000
1000
1000
0000
,
0020
0030
0200
0300
,
0110
0000
0000
0000
,
0100
0001
0100
1000
,
0100
0001
1000
0001
,
0010
0000
0100
0000
,
0110
0000
0000
0000
,
0001
0001
1000
1000
,
0010
0100
0001
1000
,
1001
0000
0010
0000
,
0100
0001
0100
0000
,
0010
0000
1000
0000
,
0100
0001
0100
0000
,
2000
3000
0002
0003
,
2000
3000
0002
0003
,
0100
0100
0010
0010
,
0110
0000
0000
0000
,
0010
1000
0010
0001
,
0010
1000
0001
1000
,
0100
0000
0010
0000
,
0110
0000
0000
0000
,
1000
1000
0001
0001
,
0100
0010
1000
0001
,
1001
0000
0100
0000
,
0010
1000
0010
0000
,
0100
0000
0001
0000
,
0010
1000
0010
0000
,
0002
0003
2000
3000
,
0002
0003
2000
3000
,
0010
0010
0100
0100
,
0110
0000
0000
0000
,
0100
0001
1000
0010
,
0200
0000
0300
0000
,
1001
0000
0000
0000
;

//---------------dance-single - ----------------
#NOTEDATA:;
#CHARTNAME:;
#STEPSTYPE:dance-single;
#DESCRIPTION:;
#CHARTSTYLE:;
#DIFFICULTY:Medium;
#METER:7;
#RADARVALUES:0.264287,0.301483,0.125618,0.125618,0.000000,162.000000,151.000000,11.000000,11.000000,0.000000,0.000000,0.000000,0.000000,0.000000,0.264287,0.301483,0.125618,0.125618,0.000000,162.000000,151.000000,11.000000,11.000000,0.000000,0.000000,0.000000,0.000000,0.000000;
#CREDIT:;
#DISPLAYBPM:122.000000:125.000000;
#NOTES:
0000
0000
0000
0000
,
0000
0000
0000
0000
,
1001
0000
0010
0100
,
1000
0000
0010
0100
,
0001
0000
1000
0100
,
1100
1100
0101
0101
,
1000
0000
0010
1000
,
0100
0000
0010
0001
,
0100
0000
1000
0100
,
0010
1000
0100
0010
,
0001
1000
0001
0000
0002
0000
0003
0000
,
2000
0000
3000
0010
0000
0010
0000
0100
,
0000
0100
0010
0000
1000
0000
0001
0000
,
0020
0000
0000
0030
,
0100
0000
1000
0000
0001
0010
0001
0000
,
0100
0000
0010
0000
1000
0001
1000
0000
,
0001
0100
1000
0010
,
0002
0000
0000
0003
,
0001
0010
0100
0000
1000
0010
0100
0000
,
0010
0100
0001
1000
,
1001
0001
0100
0001
,
1000
0100
2000
0000
,
3001
0010
0001
1000
,
0010
1000
0200
0000
,
0310
0001
0010
0001
,
1000
0100
1000
0100
,
0010
0001
0100
1000
,
1001
0000
0000
0000
,
0010
0000
0001
0000
1000
0100
1000
0000
,
0010
0000
0100
0000
0001
1000
0001
0000
,
1000
0010
0001
0100
,
2000
0000
0000
3000
,
1000
0100
0010
0000
0001
0100
0010
0000
,
0100
0010
1000
0001
,
1001
1000
0010
1000
,
0001
0010
0002
0000
,
1003
0100
1000
0001
,
0100
0001
0020
0000
,
0130
1000
0100
1000
,
0001
0010
0001
0010
,
0100
1000
0010
0001
,
1001
0000
0000
0000
,
0100
1000
0001
0000
0100
0001
1000
0000
,
0220
0000
0330
0000
,
1001
0000
0000
0000
;

//---------------dance-single - ----------------
#NOTEDATA:;
#CHARTNAME:;
#STEPSTYPE:dance-single;
#DESCRIPTION:;
#CHARTSTYLE:;
#DIFFICULTY:Hard;
#METER:10;
#RADARVALUES:0.393168,0.427102,0.239816,0.296916,0.068519,241.000000,220.000000,21.000000,26.000000,0.000000,0.000000,0.000000,0.000000,0.000000,0.393168,0.427102,0.239816,0.296916,0.068519,241.000000,220.000000,21.000000,26.000000,0.000000,0.000000,0.000000,0.000000,0.000000;
#CREDIT:;
#DISPLAYBPM:122.000000:125.000000;
#NOTES:
0000
0000
0000
0000
,
0000
0000
0000
0000
,
1010
0000
0100
0010
1000
0010
0100
0001
,
0010
0000
0100
1000
0001
1000
0100
0010
,
0001
0000
1000
0100
0010
0100
1000
0001
,
0011
1010
1100
0101
,
1001
0000
0010
0100
0001
0100
0010
1000
,
0100
0000
0010
0001
1000
0001
0010
0100
,
1000
0000
0001
0010
0100
0010
0001
1000
,
0020
0230
0302
2003
,
3100
1000
0010
0100
0010
1000
0000
0001
,
0000
1000
0000
1100
0000
0101
0000
1000
,
0000
0001
0100
0000
0100
0010
0000
1000
,
2002
0000
0000
3003
,
1000
1000
0001
0001
0100
0010
1000
0001
,
0100
1000
0100
0001
0010
0100
0010
0000
,
2000
3010
0200
0301
,
1001
0000
0000
0000
,
0002
2003
3200
0302
,
0103
1000
0010
0001
0020
0000
1030
0000
,
1001
0000
0100
0010
1000
0010
0100
0000
,
0010
0100
0001
0100
0010
0000
1010
0000
,
0101
0000
1000
0100
0010
0001
0010
0100
,
1000
0001
0100
0001
0010
0000
0001
0000
,
0100
0000
0000
0100
0000
0000
0000
0000
0010
0000
0000
0010
0000
0000
0000
0000
,
1000
0000
0000
1000
0000
0000
0100
0000
0001
0000
0000
0001
0000
0000
0100
0000
,
1000
0000
0000
1000
0000
0000
1000
0000
0001
0000
0000
0001
0000
0000
0001
0000
,
2002
0000
0000
3003
,
0001
0001
1000
1000
0010
0100
0001
1000
,
0010
0001
0010
1000
0100
0010
0001
0000
,
0200
0310
2000
3001
,
1001
0000
0000
0000
,
2000
3002
0023
2030
,
3010
0001
0100
1000
0200
0000
0301
0000
,
1001
0000
0010
0100
0001
0100
0010
0000
,
0100
0010
1000
0010
0100
0000
0101
0000
,
1010
0000
0001
0010
0100
1000
0100
0010
,
0001
1000
0010
1000
0100
0000
1000
0000
,
0010
0000
0000
0010
0000
0000
0000
0000
0100
0000
0000
0100
0000
0000
0000
0000
,
0001
0000
0000
0001
0000
0000
0010
0000
1000
0000
0000
1000
0000
0000
0010
0000
,
0001
0000
0000
0001
0000
0000
0001
0000
1000
0000
0000
1000
0000
0000
1000
0000
,
2002
0000
0000
3003
,
0001
0010
0100
1000
0010
1000
0001
0000
,
0220
0000
0000
0330
,
1001
0000
0000
0000
;

//---------------dance-double - ----------------
#NOTEDATA:;
#CHARTNAME:;
#STEPSTYPE:dance-double;
#DESCRIPTION:;
#CHARTSTYLE:;
#DIFFICULTY:Easy;
#METER:3;
#RADARVALUES:0.194137,0.251236,0.102778,0.114198,0.000000,119.000000,110.000000,9.000000,10.000000,0.000000,0.000000,0.000000,0.000000,0.000000,0.194137,0.251236,0.102778,0.114198,0.000000,119.000000,110.000000,9.000000,10.000000,0.000000,0.000000,0.000000,0.000000,0.000000;
#CREDIT:;
#DISPLAYBPM:122.000000:125.000000;
#NOTES:
00000000
00000000
00000000
00000000
,
00000000
00000000
00000000
00000000
,
10000000
00000000
01000000
00000000
,
00100000
00000000
00010000
00000000
,
10000000
00000000
00100000
00000000
,
00010000
00001000
00010000
00001000
,
00000100
00000000
00000001
00000000
,
00000010
00000000
00000100
00000000
,
00001000
00000000
00000010
00000000
,
00000100
00001000
00000100
00000000
,
00010000
00010000
00010000
00000000
,
00001000
00001000
00001000
00000000
,
00200000
00300000
02000000
03000000
,
01100000
00000000
00000000
00000000
,
10000000
00010000
10000000
00010000
,
01000000
00001000
00010000
00000100
,
00001000
00000000
00000001
00000000
,
00001001
00000000
00000000
00000000
,
00000010
00000010
00000100
00000100
,
00001000
00010000
00001000
00010000
,
00011000
00000000
00100000
00000000
,
00010000
00100000
00010000
00000000
,
10000000
00000000
01000000
00000000
,
00010000
01000000
00010000
00000000
,
00002000
00003000
00000200
00000300
,
00000020
00000030
00000200
00000300
,
00001000
00010000
00001000
00010000
,
00011000
00000000
00000000
00000000
,
10000000
00010000
10000000
00010000
,
00100000
00001000
00010000
00000010
,
00001000
00000000
00000001
00000000
,
00001001
00000000
00000000
00000000
,
00000100
00000100
00000010
00000010
,
00001000
00010000
00001000
00010000
,
00011000
00000000
01000000
00000000
,
00010000
01000000
00010000
00000000
,
10000000
00000000
00100000
00000000
,
00010000
00100000
00010000
00000000
,
00002000
00003000
00000020
00000030
,
00000200
00000300
00000020
00000030
,
00001000
00010000
00001000
00010000
,
00011000
00000000
00000000
00000000
,
00010000
00001000
00100000
00010000
,
10010000
00000000
00000000
00000000
,
01100000
00000000
00000000
00000000
;

//---------------dance-double - ----------------
#NOTEDATA:;
#CHARTNAME:;
#STEPSTYPE:dance-double;
#DESCRIPTION:;
#CHARTSTYLE:;
#DIFFICULTY:Medium;
#METER:5;
#RADARVALUES:0.277339,0.351731,0.182717,0.079939,0.000000,170.000000,154.000000,16.000000,7.000000,0.000000,0.000000,0.000000,0.000000,0.000000,0.277339,0.351731,0.182717,0.079939,0.000000,170.000000,154.000000,16.000000,7.000000,0.000000,0.000000,0.000000,0.000000,0.000000;
#CREDIT:;
#DISPLAYBPM:122.000000:125.000000;
#NOTES:
00000000
00000000
00000000
00000000
,
00000000
00000000
00000000
00000000
,
00011000
00000000
00010000
01000000
,
10000000
00000000
00100000
00010000
,
01000000
00000000
00010000
00100000
,
00101000
00010000
00011000
00001000
,
00010100
00000000
00001000
00000100
,
00000001
00000000
00000010
00001000
,
00000100
00000000
00000010
00000100
,
00010000
00001000
01000000
00010000
,
10000000
00100000
10000000
00000000
02000000
00000000
03000000
00000000
,
00200000
00000000
00300000
00001000
00000000
00010000
00000000
00000100
,
00000000
00000100
00001000
00000000
00001000
00000001
00000000
00000001
,
00000200
00000000
00000000
00000300
,
00001010
00000000
00000101
00000000
00000010
00000100
00000001
00000000
,
00001000
00000100
00000010
00000000
00001000
00010000
00001000
00000000
,
00010000
01000000
10000000
00100000
,
01100000
00000000
00000000
00000000
,
00001000
00010000
00000100
00000000
00010000
00001000
01000000
00000000
,
00010000
00100000
00001000
00010000
,
00011000
00010000
00000100
00010000
,
00001000
01000000
00020000
00000000
,
00130000
00001000
00010000
00000010
,
00001000
00000100
00000020
00000000
,
00000031
00001000
00000010
00010000
,
00001000
00100000
00010000
10000000
,
00100000
01000000
00001000
00010000
,
00011000
00000000
00000000
00000000
,
00001100
00000000
00000011
00000000
00000100
00000010
00000001
00000000
,
00001000
00000010
00000100
00000000
00001000
00010000
00001000
00000000
,
00010000
00100000
10000000
01000000
,
01100000
00000000
00000000
00000000
,
00001000
00010000
00000010
00000000
00010000
00001000
00100000
00000000
,
00010000
01000000
00001000
00010000
,
00011000
00010000
00000010
00010000
,
00001000
00100000
00020000
00000000
,
01030000
00001000
00010000
00000100
,
00001000
00000010
00000200
00000000
,
00000301
00001000
00000100
00010000
,
00001000
01000000
00010000
10000000
,
01000000
00100000
00001000
00010000
,
00011000
00000000
00000000
00000000
,
00000100
00001000
00000010
00000000
00000100
00000001
00000010
00000000
,
00001100
00000000
00000000
00000000
,
00011000
00000000
00000000
00000000
;

//---------------dance-double - ----------------
#NOTEDATA:;
#CHARTNAME:;
#STEPSTYPE:dance-double;
#DESCRIPTION:;
#CHARTSTYLE:;
#DIFFICULTY:Hard;
#METER:7;
#RADARVALUES:0.402957,0.427102,0.216977,0.239816,0.074229,247.000000,228.000000,19.000000,21.000000,0.000000,0.000000,0.000000,0.000000,0.000000,0.402957,0.427102,0.216977,0.239816,0.074229,247.000000,228.000000,19.000000,21.000000,0.000000,0.000000,0.000000,0.000000,0.000000;
#CREDIT:;
#DISPLAYBPM:122.000000:125.000000;
#NOTES:
00000000
00000000
00000000
00000000
,
00000000
00000000
00000000
00000000
,
00011000
00000000
00010000
00001000
00100000
00010000
00100000
00001000
,
00010000
00000000
00001000
00010000
00000010
00001000
00000010
00010000
,
00001000
00000000
00100000
00010000
10000000
00010000
01000000
00100000
,
00200000
00320000
00032000
00003100
,
00000110
00000000
00000001
00000010
00000001
00001000
00000100
00010000
,
00001000
00000000
01000000
00010000
10000000
00100000
01000000
00010000
,
10000000
00000000
01000000
00100000
01000000
10000000
00100000
01000000
,
00020000
00230000
00302000
00023000
,
00031000
00001000
00001000
00000000
00010000
00010000
00010000
00000100
,
00000000
00001000
00000000
00000010
00000000
00000100
00000000
00000001
,
00001000
00000010
00000100
00000000
00001000
00010000
00000000
00011000
,
00000000
00000000
00001000
00000000
00100000
00010000
01000000
00000000
,
00100000
00100000
10000000
10000000
00010000
00100000
00001000
00010000
,
00001000
00100000
00010000
01000000
00001000
00010000
00000010
00000000
,
00001010
00000100
00000011
00000100
,
00002002
00000000
00000000
00003003
,
00000010
00000000
00000010
00000000
00001000
00000010
00000000
00000000
00010000
00000000
00000000
00000000
00011000
00000000
00000000
00000000
,
00001000
00010000
01000000
10000000
00020000
00000000
02030000
00000000
,
03001000
00000000
00010000
00000100
00001000
00000100
00010000
00000000
,
00001000
01000000
00010000
01000000
00001000
00000000
01001000
00000000
,
00010100
00000000
00000100
00010000
00001000
00010000
00000100
00001000
,
00000010
00000100
00000001
00001000
00000001
00000000
00001000
00000000
,
00000100
00000000
00000000
00000100
00000000
00000000
00000000
00000000
00010000
00000000
00000000
00010000
00000000
00000000
00000000
00000000
,
00001000
00000000
00000000
00001000
00000000
00000000
00001000
00000000
00010000
00000000
00000000
00010000
00000000
00000000
00010000
00000000
,
00100000
00000000
00000000
00100000
00000000
00000000
00100000
00000000
01000000
00000000
00000000
01000000
00000000
00000000
01000000
00000000
,
20020000
00000000
00000000
30030000
,
01000000
01000000
10000000
10000000
00010000
01000000
00001000
00010000
,
00001000
01000000
00010000
00100000
00001000
00010000
00000100
00000000
,
00001100
00000010
00000101
00000010
,
00002002
00000000
00000000
00003003
,
00000100
00000000
00000100
00000000
00001000
00000100
00000000
00000000
00010000
00000000
00000000
00000000
00011000
00000000
00000000
00000000
,
00001000
00010000
00100000
10000000
00020000
00000000
00230000
00000000
,
00301000
00000000
00010000
00000010
00001000
00000010
00010000
00000000
,
00001000
00100000
00010000
00100000
00001000
00000000
00101000
00000000
,
00010010
00000000
00000010
00010000
00001000
00010000
00000010
00001000
,
00000100
00000010
00000001
00001000
00000001
00000000
00001000
00000000
,
00000010
00000000
00000000
00000010
00000000
00000000
00000000
00000000
00010000
00000000
00000000
00010000
00000000
00000000
00000000
00000000
,
00001000
00000000
00000000
00001000
00000000
00000000
00001000
00000000
00010000
00000000
00000000
00010000
00000000
00000000
00010000
00000000
,
01000000
00000000
00000000
00000000
10000000
00000000
00100000
00000000
01000000
00000000
00000000
00010000
00000000
00000000
10000000
00000000
,
20020000
00000000
00000000
30030000
,
00100000
10000000
01000000
00010000
01000000
00100000
00001000
00000000
,
00022000
00000000
00000000
00033000
,
00011000
00000000
00000000
00000000
;

//---------------dance-single - ----------------
#NOTEDATA:;
#CHARTNAME:;
#STEPSTYPE:dance-single;
#DESCRIPTION:;
#CHARTSTYLE:;
#DIFFICULTY:Challenge;
#METER:14;
#RADARVALUES:0.802651,0.829079,0.845067,0.137038,0.902166,492.000000,418.000000,74.000000,12.000000,0.000000,0.000000,0.000000,0.000000,0.000000,0.802651,0.829079,0.845067,0.137038,0.902166,492.000000,418.000000,74.000000,12.000000,0.000000,0.000000,0.000000,0.000000,0.000000;
#CREDIT:;
#DISPLAYBPM:122.000000:125.000000;
#NOTES:
// measure 0
0000
0000
0000
0000
,  // measure 1
0000
0000
0000
0000
,  // measure 2
1001
0000
1000
0000
0100
0010
0000
0110
0000
0101
0000
1100
0000
1001
0000
1000
,  // measure 3
0010
0000
0011
0000
0100
0010
0000
1010
0000
1100
0000
1001
0000
0011
0000
0010
,  // measure 4
0100
0000
0110
0000
1000
0100
0000
0101
0000
1010
0000
1100
0000
1001
0000
1000
,  // measure 5
0020
0032
0203
2300
,  // measure 6
3001
0000
0011
0000
0010
1000
0000
1001
0000
0101
0000
0011
0000
0110
0000
0100
,  // measure 7
0010
0000
0110
0000
0100
0010
0000
0011
0000
1001
0000
1010
0000
0110
0000
1000
,  // measure 8
0100
0000
0010
0100
0001
0000
0100
0010
2000
0000
0000
0001
0000
0000
3100
0000
,  // measure 9
0010
0000
0001
0100
1000
0000
0100
0010
0002
0000
0000
0010
0000
0000
1003
0000
,  // measure 10
1001
0000
0001
0100
1000
0000
0100
0010
1000
0000
0100
0000
0000
0000
0100
0010
,  // measure 11
0000
0000
0010
0001
0000
0000
0001
0100
0000
0000
0100
1000
0000
0000
1000
0010
,  // measure 12
0000
0000
1100
0000
0011
0000
0000
0000
0101
0000
1010
0000
0001
0010
1000
0100
,  // measure 13
0002
0000
0100
0000
1003
0100
1001
0000
,  // measure 14
1000
0010
1000
0100
1000
0010
1000
0100
0010
0001
0010
0100
0010
0001
0010
0100
,  // measure 15
0001
0010
0100
0010
0001
0010
0100
0010
0001
0100
0010
0100
0001
0100
0010
0100
,  // measure 16
1000
0000
0000
1000
0100
0000
0000
0100
0010
0000
0000
0010
0001
0010
0100
1000
,  // measure 17
0020
0000
0100
0000
0001
0000
0130
0000
0001
0010
0100
1000
0100
0010
0001
0000
,  // measure 18
0011
0101
1100
1010
,  // measure 19
1001
1000
0100
0001
0100
0000
1001
0000
,  // measure 20
1010
0000
0000
0000
0100
0001
1000
0000
0010
0100
0001
0000
1000
0100
0010
0001
,  // measure 21
0100
0000
0010
0000
1000
0000
0100
0000
0001
0000
0100
0010
0000
0010
1000
0000
,  // measure 22
0100
0000
0010
0000
0001
0010
0100
0000
1000
0010
0100
0000
0001
0100
0010
1000
,  // measure 23
0100
0110
0011
1010
0110
0101
1001
1100
,  // measure 24
1000
0000
0010
1000
0000
0010
1000
0000
0100
0000
1000
0100
0000
1000
0100
0000
,  // measure 25
0001
0000
0100
0001
0000
0100
0001
0000
0010
0000
0001
0010
0000
0001
0010
0000
,  // measure 26
0110
0000
0000
1100
0000
0000
0101
0000
1010
0000
0000
0011
0000
0000
1100
0000
,  // measure 27
0202
0003
0001
0000
0001
0001
0301
0000
,  // measure 28
0010
0100
0001
0100
0010
0100
0001
0100
0010
1000
0100
1000
0010
1000
0100
1000
,  // measure 29
0001
0010
0100
0010
0001
0010
0100
0010
0001
0100
0010
0100
0001
0100
0010
0100
,  // measure 30
1000
0100
0010
0100
1000
0100
0010
0100
1000
0010
0100
0010
1000
0010
0100
0010
,  // measure 31
0100
0000
0001
0000
1000
0000
0100
0000
0010
0001
0010
0001
0100
0000
0101
0000
,  // measure 32
1000
0100
0010
0000
0100
0010
0001
0000
0001
0010
0100
0000
0010
0100
1000
0100
,  // measure 33
0010
0000
0001
0100
0010
0000
0100
0010
1000
0100
0010
0000
0010
0100
0001
0010
,  // measure 34
0100
0000
1000
0000
0010
0100
1000
0100
0010
0000
0011
0000
0100
0001
0010
0100
,  // measure 35
0010
0001
0100
0000
0010
1000
0100
0000
0100
0001
1000
0010
0000
1000
0100
0000
,  // measure 36
0010
0000
0001
0010
0100
0000
0010
0100
1000
0000
1000
0100
0010
0001
0100
0000
,  // measure 37
0110
0101
1010
0101
0011
1100
1001
0110
,  // measure 38
1000
0000
0001
0100
0000
0001
0100
0000
0010
0000
1000
0100
0000
1000
0100
0000
,  // measure 39
0001
0000
0010
0100
0000
1000
0010
0000
0100
0000
0001
1000
0000
0010
0100
0000
,  // measure 40
0011
0000
0000
1100
0000
0000
0101
0000
1010
0000
0000
0110
0000
0000
1001
0000
,  // measure 41
2020
0030
0010
0000
0010
0010
3010
0000
,  // measure 42
1000
0100
1000
0100
0010
0001
0010
0001
1000
0001
1000
0001
0100
0010
0100
0010
,  // measure 43
0100
0000
0101
0000
1010
0000
0101
0000
1000
0100
0001
0010
0100
0000
0110
0000
,  // measure 44
1001
0000
0000
0000
;
