#TITLE:KEEP ON MOVIN' ~DMX MIX~;
#SUBTITLE:;
#ARTIST:N.M.R-typeG;
#TITLETRANSLIT:;
#SUBTITLETRANSLIT:;
#ARTISTTRANSLIT:;
#GENRE:;
#CREDIT:;
#BANNER:KEEP ON MOVIN' ~DMX MIX~.png;
#BACKGROUND:KEEP ON MOVIN' ~DMX MIX~-bg.png;
#LYRICSPATH:;
#CDTITLE:;
#MUSIC:KEEP ON MOVIN' ~DMX MIX~.ogg;
#OFFSET:0.000000;
#SAMPLESTART:32.743999;
#SAMPLELENGTH:15.000000;
#SELECTABLE:YES;
#DISPLAYBPM:132.000000;
#BPMS:0.000000=131.500000
,4.000000=132.000000
;
#STOPS:
;
#BGCHANGES:0.000=KEEP ON MOVIN' ~DMX MIX~.avi=1.000=0=0=0=StretchNoLoop====,
99999=-nosongbg-=1.000=0=0=0 // don't automatically add -songbackground-
;
#KEYSOUNDS:;
#ATTACKS:;

//---------------dance-single - ----------------
#NOTES:
     dance-single:
     :
     Beginner:
     3:
     0.138571,0.200000,0.080000,0.000000,0.000000,97.000000,89.000000,8.000000,0.000000,0.000000,0.000000,0.138571,0.200000,0.080000,0.000000,0.000000,97.000000,89.000000,8.000000,0.000000,0.000000,0.000000:
0000
0000
0000
0000
,
0000
0000
0000
0000
,
0000
0000
0000
0000
,
0000
0000
0000
0000
,
0000
0000
0000
0000
,
0000
0000
0000
0000
,
1000
0000
0000
0000
,
0000
0000
0000
0000
,
0001
0000
0000
0000
,
1000
0000
0100
0000
,
1000
0000
0010
0000
,
0001
0000
0100
0000
,
0100
0000
1000
0000
,
0010
0000
0001
0000
,
0010
0010
0000
0000
,
0100
0000
0010
0000
,
1000
0000
0001
0000
,
1000
0000
1001
0000
,
0100
0100
0100
0000
,
0010
0010
0010
0000
,
0100
0000
0010
0000
,
0100
0000
0010
0000
,
1000
1000
1000
1000
,
0000
0001
0001
0001
,
0000
1001
0000
0000
,
1000
0000
0010
0000
,
0000
1000
0000
1000
,
0000
0010
0010
0010
,
0000
0001
0000
0001
,
0000
0100
0100
0100
,
0000
1000
0000
1000
,
0000
0000
1000
0000
,
0001
0000
0010
0000
,
1001
0000
0110
0000
,
0001
0000
0000
0100
,
0000
0010
0000
0010
,
0000
0001
0000
0010
,
0010
0000
0100
0000
,
0001
0000
1000
0000
,
0010
0000
0010
0000
,
0100
0000
0001
0000
,
0000
1001
0000
1001
,
0000
0100
0000
0001
,
0000
1000
0000
0010
,
0000
0001
0000
0010
,
0000
0001
0000
0010
,
0000
0000
0001
0000
,
0010
0000
0100
0100
,
0000
0110
0000
0000
,
1000
0000
0010
0000
,
1001
0000
0000
0000
;

//---------------dance-single - ----------------
#NOTES:
     dance-single:
     :
     Easy:
     5:
     0.208571,0.310500,0.120000,0.130000,0.000000,146.000000,134.000000,12.000000,13.000000,0.000000,0.000000,0.208571,0.310500,0.120000,0.130000,0.000000,146.000000,134.000000,12.000000,13.000000,0.000000,0.000000:
0000
0000
0000
0000
,
0000
0000
0000
0000
,
0000
0000
0000
0000
,
0000
0000
0000
0000
,
0000
0000
0000
0000
,
0000
0000
0000
0000
,
2000
0000
0000
3000
,
0000
0000
0000
0000
,
0002
0000
0000
0003
,
1000
0001
0100
0010
,
1000
0010
0010
0000
,
0001
0100
0100
0000
,
0100
0001
1000
0000
,
0010
1000
0001
0000
,
0010
0010
1001
0000
,
0100
1000
0010
0000
,
1000
0000
0001
0000
,
1000
0000
1001
0000
,
0100
0100
0100
0000
,
0010
0010
0010
0000
,
0100
0000
0010
0000
,
0100
0001
0010
0100
,
1000
1000
1000
1000
,
0001
0001
0001
0001
,
0010
1001
0000
0000
,
1000
0001
0010
0100
,
0000
1000
0000
1000
,
0010
0010
0010
0010
,
0000
0001
0000
0001
,
0100
0100
0100
0100
,
0010
1000
0001
1000
,
0011
0000
1100
0000
,
0001
0100
0010
0100
,
1001
0000
0110
0000
,
0002
0100
0000
0103
,
2000
0010
0000
3010
,
0200
0001
0010
0310
,
0020
0100
0100
1030
,
0002
0003
2000
3000
,
0010
0100
0010
1000
,
0100
0010
0001
1000
,
0000
1001
0110
1001
,
0100
0100
0001
0001
,
1000
1000
0010
0010
,
0100
0001
1000
0010
,
0100
0001
1000
0010
,
2000
3000
0002
0003
,
0020
0100
0100
0130
,
1000
0110
0000
0000
,
1000
0001
0010
0100
,
2002
0000
0000
0000
,
0000
0000
0000
3003
;

//---------------dance-single - ----------------
#NOTES:
     dance-single:
     :
     Medium:
     7:
     0.282857,0.388125,0.110000,0.140000,0.000000,198.000000,187.000000,11.000000,14.000000,0.000000,0.000000,0.282857,0.388125,0.110000,0.140000,0.000000,198.000000,187.000000,11.000000,14.000000,0.000000,0.000000:
0000
0000
0000
0000
,
0000
0000
0000
0000
,
0000
0000
0000
0000
,
0000
0000
0000
0000
,
0000
0000
0000
0000
,
0000
0000
0000
0000
,
2000
0000
3000
0000
,
0020
0000
0030
0000
,
0002
0000
0003
0000
,
2000
3001
0002
1003
,
0000
0010
0000
0010
,
0000
0100
0000
0100
,
0000
0001
0000
0001
,
0000
1000
0001
1000
,
0100
0100
1000
0100
,
0010
0010
0001
0010
,
0100
1000
0001
0100
,
1000
0000
0001
0000
0100
0010
0100
0010
,
0100
0000
0001
0000
0100
0001
1000
0000
,
0010
0000
0010
0000
0010
1000
0001
0000
,
0100
0100
0010
0010
,
0002
0013
2000
3100
,
0001
0000
0001
0000
0001
0010
0100
0000
,
1000
0000
1000
0000
1000
0010
0100
0000
,
0010
1001
0010
0100
,
1000
0001
0010
0100
,
1000
0001
1000
0000
0010
1000
0100
0000
,
0010
0000
0010
0000
0010
0001
0010
0000
,
0001
1000
0001
0000
0100
0001
0010
0000
,
0100
0000
0100
0000
0100
1000
0100
0000
,
0010
0001
1000
0000
0001
0100
0001
0000
,
1000
0000
1000
0000
0001
1000
0001
0000
,
1000
0001
0100
0000
0010
1000
0100
0000
,
1001
0110
1001
0110
,
0002
0000
0100
0000
0000
0000
1003
1000
,
2000
0000
0010
0000
0000
0000
3010
0010
,
0020
0000
1000
0000
0000
0000
1030
1000
,
0200
0000
1000
0000
0000
0000
0310
0010
,
0100
2000
3001
0110
,
1000
1000
0001
0000
0010
0010
0100
0000
,
0100
0010
0001
1000
,
0000
1001
0110
1001
,
0100
1000
0100
0000
0010
0001
0010
0000
,
0001
1000
0001
0000
0010
0100
0010
0000
,
0100
1000
0001
0010
,
0100
1000
0001
0010
,
0001
1000
0001
0000
1000
0001
1000
0000
,
0010
0100
0010
0000
0100
0010
0100
0000
,
0010
1001
0100
0100
,
1000
0001
0010
0100
,
2002
0000
0000
0000
,
0000
0000
0000
3003
;

//---------------dance-single - ----------------
#NOTES:
     dance-single:
     :
     Hard:
     11:
     0.481429,0.517500,0.300000,0.310000,0.090000,337.000000,307.000000,30.000000,31.000000,0.000000,0.000000,0.481429,0.517500,0.300000,0.310000,0.090000,337.000000,307.000000,30.000000,31.000000,0.000000,0.000000:
0000
0000
0000
0000
,
0000
0000
0000
0000
,
0000
0000
0000
0000
,
0000
0000
0000
0000
,
0000
0000
0000
0000
,
0000
0000
0000
0000
,
2000
0002
3003
0000
0010
0000
0110
0000
,
0001
1000
0100
0110
,
0001
0010
1100
0000
1000
0100
0011
0000
,
0010
0010
1000
1000
0001
0001
0110
0000
,
0010
0000
1000
0000
0100
0000
0010
0000
0001
0000
0010
0000
0001
1000
0000
0000
,
0020
1000
0230
0010
,
0302
0100
2003
0001
,
3020
1000
0030
0110
,
1100
0110
0011
1001
,
1000
0001
0010
0100
1000
0010
0100
0001
,
0100
0001
0101
0000
0010
1000
1010
0000
,
0001
1001
1000
0000
0100
0110
0010
0000
,
1010
0000
0010
0000
1000
0000
0001
0000
0100
0000
0001
0000
0010
0001
0000
0000
,
1000
0000
0010
0000
0000
0000
0100
0000
1000
0000
0100
0000
0010
0001
0000
0000
,
0001
0010
0100
1000
0001
0001
0010
0100
,
0000
0100
0000
0010
0001
0010
0100
0000
,
0011
0000
0010
0000
0001
0000
1000
0000
0100
0000
1000
0000
0010
1000
0000
0000
,
0001
0000
0100
0000
0000
0000
0010
0000
0001
0000
0010
0000
0100
1000
0000
0000
,
1000
0100
0010
0000
1001
0000
0000
0000
0001
0010
0100
0000
1001
0000
0000
0000
,
2000
3100
0020
0031
0002
0013
0200
1300
,
2000
0010
3010
0000
0002
0100
0103
0000
,
0000
0001
0010
0001
1000
0010
1000
0000
,
2000
0010
3001
0010
0002
0100
1003
0100
,
1000
0010
0100
0010
1000
0100
1001
0000
,
0002
0010
0013
0000
2000
0100
3100
0000
,
0000
1000
0010
1000
0001
0010
0001
0000
,
0002
0010
1003
0010
2000
0100
3001
0100
,
0000
0001
0010
0001
1000
0010
1000
0000
,
1010
0000
0100
0000
0010
0000
1000
0000
0001
1000
0010
0000
0200
0000
0001
0000
,
0300
0000
0010
0000
1000
0000
0100
0000
0010
0001
0010
0000
0100
0000
0000
0000
,
2010
3010
0100
0100
0001
0010
0100
1000
,
1000
0100
0010
0001
2100
3100
0010
0010
,
0101
0000
0010
0000
0100
0000
0001
0000
1000
0001
0100
0000
0020
0000
1000
0000
,
0030
0000
0100
0000
0001
0000
0010
0000
0100
1000
0100
0000
0010
0000
0001
0000
,
0002
0103
0020
1030
0110
0100
0001
0100
,
0000
0001
0100
0010
0101
0000
1001
0000
,
1010
0000
0010
0000
1000
0000
0001
0000
0100
0000
0001
0000
0010
0001
0000
0000
,
1000
0000
0010
0000
0000
0000
0100
0000
1000
0000
0100
0000
0010
0001
0000
0000
,
0001
0010
0100
1000
0001
0001
0010
0100
,
0000
0100
0000
0010
0001
0010
0100
0000
,
0011
0000
0010
0000
0001
0000
1000
0000
0100
0000
1000
0000
0010
1000
0000
0000
,
0001
0000
0100
0000
0000
0000
0010
0000
0001
0000
0010
0000
0100
1000
0000
0000
,
0001
0100
0010
0000
1001
0000
0000
0000
1000
0010
0100
0000
1001
0000
0000
0000
,
0002
0103
0020
1030
2000
3010
0200
0301
,
0010
0000
1000
0000
0100
0000
0010
0000
0001
0000
0010
0000
0001
1000
0000
0000
,
0020
0000
0200
0330
;

//---------------dance-double - ----------------
#NOTES:
     dance-double:
     :
     Easy:
     4:
     0.165714,0.200000,0.010000,0.050000,0.000000,116.000000,115.000000,1.000000,5.000000,0.000000,0.000000,0.165714,0.200000,0.010000,0.050000,0.000000,116.000000,115.000000,1.000000,5.000000,0.000000,0.000000:
00000000
00000000
00000000
00000000
,
00000000
00000000
00000000
00000000
,
00000000
00000000
00000000
00000000
,
00000000
00000000
00000000
00000000
,
00000000
00000000
00000000
00000000
,
00000000
00000000
00000000
00000000
,
00000002
00000000
00000003
00000000
,
00000200
00000000
00000300
00000000
,
00002000
00000000
00003000
00000000
,
00010000
00010000
00001000
00001000
,
01000000
00000000
00010000
00000000
,
10000000
00000000
01000000
00000000
,
00100000
00000000
00001000
00000000
,
00010000
00000000
00000010
00000000
,
00000100
00000000
00000001
00000000
,
00000100
00000000
00001000
00000000
,
00010000
00000000
01000000
00000000
,
10000000
00000000
00100000
00000000
,
10000000
00010000
10000000
00000000
,
01000000
00100000
01000000
00000000
,
00100000
00001000
00100000
00000000
,
00001000
00010000
00001000
00000000
,
00010000
00000010
00010000
00000000
,
00000100
00000010
00000100
00000000
,
00001000
00000010
00001000
00000000
,
00000001
00000100
00000001
00000000
,
00000010
00000000
00000100
00000000
,
00001000
00001000
00000001
00000001
,
00000100
00000000
00001000
00000000
,
00010000
00010000
00001000
00001000
,
00100000
00000000
01000000
00000000
,
10000000
10000000
00010000
00010000
,
01000000
00000000
00100000
00000000
,
00020000
00030000
00002000
00003000
,
00000010
00000000
00000001
00000000
,
00000010
00000100
00000010
00000000
,
00000001
00000000
00000100
00000000
,
00000001
00001000
00000001
00000000
,
00000100
00000000
00000010
00000000
,
00001000
00000100
00001000
00000000
,
00000010
00000000
00010000
00000000
,
00001000
00010000
00001000
00010000
,
00000100
00000010
00000100
00000000
,
00001000
00000001
00001000
00000000
,
00000100
00010000
00000100
00000000
,
00010000
00001000
00010000
00000000
,
00001000
01000000
00001000
00000000
,
00100000
00010000
00100000
00000000
,
01000000
10000000
01000000
00000000
,
10000000
00010000
10000000
00000000
,
10010000
00000000
00000000
00000000
;

//---------------dance-double - ----------------
#NOTES:
     dance-double:
     :
     Medium:
     8:
     0.321429,0.425000,0.290000,0.170000,0.030000,225.000000,196.000000,29.000000,17.000000,0.000000,0.000000,0.321429,0.425000,0.290000,0.170000,0.030000,225.000000,196.000000,29.000000,17.000000,0.000000,0.000000:
00000000
00000000
00000000
00000000
,
00000000
00000000
00000000
00000000
,
00000000
00000000
00000000
00000000
,
00000000
00000000
00000000
00000000
,
00000000
00000000
00000000
00000000
,
00000000
00000000
00000000
00000000
,
00100000
00000000
00000000
00000000
00000000
00000000
00000000
00000000
00000000
00000000
01000000
00000000
00000000
01000000
00000000
00000000
,
01000000
00000000
00000000
00000000
00000000
10000000
00010000
10000000
,
00010000
00000000
00000000
00000000
00000000
00000000
00000000
00000000
00000000
00000000
01000000
00000000
00000000
01000000
00000000
00000000
,
01000000
00001000
00010000
00000100
,
00001100
00001010
00000101
00000011
,
00000001
00000000
00000000
00001000
00000000
00000000
00000100
00000000
00000000
00000000
00000010
00000000
00000000
00000100
00000000
00000000
,
00010000
00010000
00000000
00000000
00001000
00001000
00000000
00000000
,
00100000
00010000
01000000
00000000
00100000
10000000
01000000
00000000
,
10000000
00010000
11000000
01010000
,
00010000
00000000
00000000
10000000
00000000
00000000
01000000
00000000
00000000
00000000
00100000
00000000
00000000
00001000
00000000
00000000
,
00010000
00001000
00010000
00000000
00001000
00010000
00001000
00000000
,
00000100
00000001
00000100
00000000
00000010
00001000
00000010
00000000
,
00001010
00001100
00000011
00000101
,
00000010
00001000
00000010
00000000
00010000
00001000
00010000
00000000
,
02000000
23000000
30200000
00320000
,
00032000
00003020
00000032
00000003
,
00000011
00000101
00001010
00001100
,
00000010
00000001
00000010
00000000
00000100
00010000
00000100
00000000
,
00000000
00010100
00000000
01001000
,
00000000
00022000
00000000
00033000
,
00010000
01000000
10000000
00100000
,
01000000
00000000
00001000
00000000
00010000
00001000
00010000
00000000
,
01000000
10000000
00010000
01000000
,
00001000
00000000
00010000
00000000
00000010
00000100
00000010
00000000
,
00000100
00000001
00000010
00000100
,
00010000
00000000
00001000
00000000
00000010
00000001
00000010
00000000
,
00000100
00001000
00000001
00000100
,
00000010
00000000
00010000
00000000
00001000
00010000
00001000
00000000
,
00000100
00000000
00000001
00000000
00000010
00000000
00000100
00001000
,
00000100
00000000
00000010
00000000
00000001
00000000
00000100
00000010
,
00000100
00000000
00001000
00000000
00010000
00000000
01000000
00100000
,
01000000
00000000
10000000
00000000
00100000
00000000
01000000
00001000
,
01000000
00010000
00000000
00100000
00000000
00001000
00010000
00001000
,
00010000
00001000
00000000
00000100
00000000
00000001
00000010
00000001
,
00000010
00000001
00000000
00001000
00000000
00000100
00000010
00000100
,
00000010
00000100
00001000
00000000
00001001
00000000
00000110
00000000
,
00001001
00010100
01001000
10010000
,
00100000
00010000
00001000
00000000
00010000
00001000
00000010
00000000
,
00000002
00000203
00002300
00023000
,
02030000
23000000
30200000
00300000
,
10010000
00101000
00010010
00001001
,
00000010
00000001
00000100
00000000
00001000
00010000
01000000
00000000
,
10000000
11000000
00010000
01010000
,
00000000
00200000
00000000
00000000
,
01300000
00000000
00000000
00000000
;

//---------------dance-double - ----------------
#NOTES:
     dance-double:
     :
     Hard:
     12:
     0.454286,0.475000,0.210000,0.040000,0.210000,318.000000,297.000000,21.000000,4.000000,0.000000,0.000000,0.454286,0.475000,0.210000,0.040000,0.210000,318.000000,297.000000,21.000000,4.000000,0.000000,0.000000:
00000000
00000000
00000000
00000000
,
00000000
00000000
00000000
00000000
,
00000000
00000000
00000000
00000000
,
00000000
00000000
00000000
00000000
,
00000000
00000000
00000000
00000000
,
00000000
00000000
00000000
00000000
,
00001001
00000000
00000000
00000000
00000000
00000000
00000000
00000000
00000000
00000000
00000001
00000000
00000000
00000001
00000000
00000000
,
00000101
00000000
00000000
00000000
00000000
00000100
00000010
00010000
,
00011000
00000000
10010000
00000000
,
00110000
11000000
10100000
01010000
,
00010000
00000000
00100000
00000000
00001000
00000000
00100000
00000000
00010000
00000000
00100000
00000000
00001000
00010000
00000000
00000100
,
00000000
00001000
00000100
00000000
00000000
00000000
00000010
00000000
00000001
00000000
00000010
00000000
00000000
00000000
00000100
00000000
,
00001000
00000100
00010000
00000000
00001000
00000100
00000001
00000010
,
00000100
00000000
00010000
00001000
00100000
00010000
00100000
01000000
,
00100000
00000000
00010000
00000000
01000000
00000000
00000000
00000000
00100000
00000000
10000000
00000000
00100000
01000000
00000000
00001000
,
00000000
00010000
00001000
00000000
00000000
00000000
00000100
00000000
00000001
00000000
00000100
00000000
00000000
00000000
00000010
00000000
,
00001000
00000010
00000100
00000000
00000001
00000010
00001000
00010000
,
00001000
00000100
00000101
00001100
,
00000001
00000000
00000100
00000000
00000010
00000000
00000100
00000000
00000001
00000000
00000100
00000000
00000010
00010000
00000000
00000000
,
00001000
00010000
00000000
00001000
00000000
01000000
00100000
00000000
10000000
00000000
00010000
00000000
10000000
01000000
00000000
00100000
,
00000000
00000000
01000000
10000000
00100000
00010000
00100000
01000000
,
00001000
00010000
00001000
00010000
00001000
00010000
00001000
00100000
,
01000000
00000000
10000000
00000000
00010000
00000000
10000000
00000000
01000000
00000000
10000000
00000000
00010000
00100000
00000000
00000000
,
00001000
00010000
00000000
00000100
00000000
00000010
00000001
00000000
00000010
00000000
00000100
00000000
00001000
00000010
00000000
00000100
,
00000000
00000001
00000100
00000000
00000001
00000000
00000000
00000010
00000000
00000100
00001000
00000000
00000100
00000000
00000000
00000000
,
00000010
00002002
00000000
00003003
,
00000010
00000001
00000100
00000000
00000010
00010000
00001000
00000000
,
00000010
00000001
00000100
00001000
00010000
00010000
00011000
00000000
,
00001000
00100000
00010000
01000000
10000000
01000000
00100000
00000000
,
10000000
00100000
00010000
00100000
01000000
01000000
01100000
00000000
,
00100000
10000000
00010000
00100000
01000000
10000000
00100000
01000000
,
00001000
00010000
00000010
00010000
00001000
00001000
00001100
00000000
,
00000100
00000001
00000010
00000001
00001000
00000010
00001000
00000100
,
00000010
00000100
00010000
00000000
00001000
00001000
00011000
00000000
,
00011000
00000000
00000000
00000000
00001000
00000000
01000000
00000000
00010000
00000000
00100000
00000000
00010000
10000000
00010000
00000000
,
00000000
00000000
00000000
00000000
01000000
00000000
00001000
00000000
00010000
00000100
00010000
00000000
00000000
00000000
00000000
00000000
,
00000100
00000000
00000010
00000000
00000100
00000000
00001000
00000000
00000001
00000000
00000010
00000000
00000100
00010000
00000100
00000000
,
00000000
00000000
00000000
00000000
00010000
00000000
00001000
00000000
00100000
01000000
00100000
00000000
00000000
00000000
00000000
00000000
,
10010000
00000000
00100000
01000000
00001000
00010000
01000000
00000000
,
10000000
00000000
00100000
00000000
01000000
00000000
00010000
00000000
00100000
01000000
00100000
00000000
00001000
00000000
01000000
00000000
,
00001000
00010000
00001000
00010000
00001000
00010000
00001000
00000100
,
00000001
00000010
00000010
00000000
00001001
00000000
00001001
00000000
,
00000100
00000000
00000010
00000000
00000001
00000000
00000010
00000000
00000100
00000000
00000010
00000000
00000001
00001000
00000000
00000000
,
00000001
00000100
00000000
00000010
00000000
00010000
00001000
00000000
00010000
00000000
01000000
00000000
10000000
00100000
00000000
01000000
,
00000000
00000000
00100000
10000000
01000000
00010000
00001000
00000100
,
00000001
00000010
00000001
00000010
00000001
00000010
00000001
00001000
,
00000100
00000000
00010000
00000000
00000100
00000000
00000010
00000000
00000100
00000000
00010000
00000000
00000100
00001000
00000000
00000000
,
00000001
00000100
00000000
00000010
00000000
00010000
00000100
00000000
00001000
00000000
00000100
00000000
00010000
00001000
00000000
01000000
,
00000000
00010000
00100000
00000000
00010000
00000000
00000000
01000000
00000000
00100000
10000000
00000000
01000000
00000000
00000000
00000000
,
00100000
20020000
00000000
30030000
,
01100000
00000000
00000000
00000000
;

//---------------dance-single - ----------------
#NOTES:
     dance-single:
     :
     Challenge:
     18:
     1.117143,1.314844,0.210000,0.010000,2.170000,782.000000,761.000000,21.000000,1.000000,0.000000,0.000000,1.117143,1.314844,0.210000,0.010000,2.170000,782.000000,761.000000,21.000000,1.000000,0.000000,0.000000:
// measure 0
0000
0000
0000
0000
,  // measure 1
0000
0000
0000
0000
,  // measure 2
0000
0000
0000
0000
,  // measure 3
0000
0000
0000
0000
,  // measure 4
0000
0000
0000
0000
,  // measure 5
0000
0000
0000
0000
,  // measure 6
1000
0001
1000
0000
0001
1000
0001
0000
1000
0001
1000
0000
0001
1000
0001
0000
1000
0001
1000
0000
0001
1000
0001
0000
1000
0000
0100
0000
0010
0000
0001
0000
,  // measure 7
0100
0000
0000
0000
0010
0000
0000
0000
1000
0100
1000
0000
0100
0000
0010
0000
0000
0000
0001
0000
0001
0000
0010
0000
0100
0000
1000
0000
0010
0000
0010
0000
,  // measure 8
0100
0000
0010
0000
0010
0000
0010
0000
0000
0000
0000
0000
0010
0100
0010
0000
0100
0010
0100
0000
0010
0100
0010
0000
0100
0010
0100
0000
0010
0100
0010
0100
,  // measure 9
0010
0110
1001
0110
,  // measure 10
1000
0100
1000
0000
0100
1000
0100
0000
1000
0100
1000
0000
0100
1000
0100
0000
1000
0100
1000
0000
0100
1000
0100
0000
1000
0000
0100
0000
0010
0000
0001
0000
,  // measure 11
0100
0000
0000
0000
0010
0000
0100
0000
0000
0000
0010
0000
0100
0000
0000
0000
0001
0000
0010
0000
0100
0000
1000
0000
0010
0100
0010
0000
0100
0010
0100
0010
,  // measure 12
0100
0000
0010
0000
0100
0000
0010
0000
0000
0000
0000
0000
0010
0100
0010
0000
0100
0010
0100
0000
0010
0100
0010
0000
0100
0010
0100
0010
0100
0010
0100
0010
,  // measure 13
0100
0000
0001
0100
0010
1000
0100
0010
,  // measure 14
0001
0010
0001
0000
0010
0001
0010
0000
0001
0010
0001
0000
0010
0001
0010
0000
0001
0010
0001
0000
0010
0001
0010
0000
0001
0000
0100
0000
0010
0000
1000
0000
,  // measure 15
0100
0000
0010
1000
0000
0010
1000
0010
0000
0000
0010
0010
0010
0010
0010
0010
,  // measure 16
0010
0000
0000
0000
0010
0000
0100
0000
0000
0000
0000
0000
0100
0001
0100
0000
0001
0100
0001
0000
0100
0001
0100
0000
0001
0100
0001
0000
0100
0001
0100
0000
,  // measure 17
1000
0001
1000
0000
0001
1000
0001
0000
1000
0001
1000
0000
0001
1000
0001
0000
1000
0001
1000
0000
0001
1000
0001
0000
1000
0001
1000
0001
1000
0001
1000
0001
,  // measure 18
1000
0001
1000
0000
0001
1000
0001
0000
1000
0001
1000
0000
0001
1000
0001
0000
1000
0001
1000
0000
0001
1000
0001
0000
0010
0000
0001
0000
0100
0000
0010
0000
,  // measure 19
1000
0000
0010
1000
0000
0010
1000
0000
1010
0000
0101
0000
0001
0010
0000
0011
,  // measure 20
0000
0000
0000
0000
0100
0001
1000
0000
0010
1000
0001
0000
0010
0001
0100
0001
,  // measure 21
1000
0000
0010
0000
0100
0000
0001
0000
1000
0100
0000
1001
0000
0100
0001
0000
,  // measure 22
0010
0001
0010
0000
0001
0010
0001
0000
0010
0001
0010
0000
0001
0010
0001
0000
0010
0001
0010
0000
0001
0010
0001
0000
0010
0000
0001
0000
0100
0000
0010
0000
,  // measure 23
1000
0000
0010
0100
0000
1000
0100
0010
0001
0000
0100
0000
0010
1000
0000
1001
,  // measure 24
0000
0001
0100
0000
0110
0000
0000
0100
0000
1000
0100
0000
0110
0000
0010
0001
,  // measure 25
1000
0000
0000
0100
0000
0000
0010
0000
0000
0001
0000
0000
0100
0000
0001
0000
0100
0000
0001
0000
0100
0000
0001
0000
0100
0000
0001
0000
0100
0000
0001
0000
0100
0000
0001
0000
0100
0000
0001
0000
0100
0000
0001
0000
0100
0000
0001
0000
,  // measure 26
0100
0000
0001
0010
0100
1000
0010
0000
0100
0000
1000
0100
0010
0001
0100
0000
,  // measure 27
0010
0000
1000
0010
0100
0001
2000
0000
0000
0000
0000
3001
1000
0000
0100
0000
,  // measure 28
0010
0000
0001
0010
0100
0000
1000
0100
0000
0010
0001
0000
0100
0010
1000
0001
,  // measure 29
0010
0000
0001
0000
0100
0000
0010
1000
0000
0010
1000
0100
0010
0001
0100
0010
,  // measure 30
0100
0010
0100
0000
0010
0000
0000
0000
1001
0000
0000
0000
0001
0000
1000
0000
0100
0000
0000
0000
0010
0000
0001
0000
0000
0000
0100
0000
0010
0000
1000
0000
,  // measure 31
0001
0010
0001
0000
0100
1000
0100
0000
0001
0010
1000
0100
0010
0000
0100
0001
,  // measure 32
1000
0000
0100
1000
0000
0010
1000
0000
0010
0100
0001
1000
0100
0000
0010
0000
,  // measure 33
0001
0010
0001
0000
0010
0100
0010
0000
1000
0000
0100
0000
0010
0000
0001
0000
1000
0000
0001
0000
0100
0000
0010
0000
1000
0000
0100
0000
0010
0000
0001
0000
,  // measure 34
1000
0000
0000
0000
0000
0000
0001
0000
0000
0000
0000
0000
1000
0000
0000
0000
0000
0000
0000
0000
0000
0000
0000
0000
0001
0000
0000
0000
0000
0000
1000
0000
0000
0000
0000
0000
0001
0000
0000
0000
0000
0000
0000
0000
0000
0000
0000
0000
1000
0000
0000
0000
0000
0000
0000
0000
0100
0000
0000
0000
0000
0000
0000
0000
0010
0000
0000
0000
0000
0000
0000
0000
0001
0000
0000
0000
0000
0000
0000
0000
0100
0000
0000
0000
0000
0000
0000
0000
0010
0000
0000
0000
0000
0000
0000
0000
1000
0000
0000
0000
0000
0000
0010
0000
0000
0000
0000
0000
1000
0000
0000
0000
0000
0000
0000
0000
0000
0000
0000
0000
0010
0000
0000
0000
0000
0000
1000
0000
0000
0000
0000
0000
0010
0000
0000
0000
0000
0000
0000
0000
0000
0000
0000
0000
1000
0000
0000
0000
0000
0000
0000
0000
0100
0000
0000
0000
0000
0000
0000
0000
0010
0000
0000
0000
0000
0000
0000
0000
0001
0000
0000
0000
0000
0000
0000
0000
0100
0000
0000
0000
0000
0000
0000
0000
0010
0000
0000
0000
0000
0000
0000
0000
,  // measure 35
1000
0000
0000
0000
0000
0000
0100
0000
0000
0000
0000
0000
1000
0000
0000
0000
0000
0000
0000
0000
0000
0000
0000
0000
0100
0000
0000
0000
0000
0000
1000
0000
0000
0000
0000
0000
0100
0000
0000
0000
0000
0000
0000
0000
0000
0000
0000
0000
1000
0000
0000
0000
0000
0000
0000
0000
0010
0000
0000
0000
0000
0000
0000
0000
0100
0000
0000
0000
0000
0000
0000
0000
0001
0000
0000
0000
0000
0000
0000
0000
0010
0000
0000
0000
0000
0000
0000
0000
0001
0000
0000
0000
0000
0000
0000
0000
0100
0000
0000
0000
0000
0000
0010
0000
0000
0000
0000
0000
0100
0000
0000
0000
0000
0000
0000
0000
0000
0000
0000
0000
0010
0000
0000
0000
0000
0000
0100
0000
0000
0000
0000
0000
0010
0000
0000
0000
0000
0000
0000
0000
0000
0000
0000
0000
0001
0000
0000
0000
0000
0000
0000
0000
0010
0000
0000
0000
0000
0000
0000
0000
0100
0000
0000
0000
0000
0000
0000
0000
1000
0000
0000
0000
0000
0000
0000
0000
0001
0000
0000
0000
0000
0000
0000
0000
0100
0000
0000
0000
0000
0000
0000
0000
,  // measure 36
0010
0000
0000
0000
0000
0000
0001
0000
0000
0000
0000
0000
0010
0000
0000
0000
0000
0000
0000
0000
0000
0000
0000
0000
0001
0000
0000
0000
0000
0000
0010
0000
0000
0000
0000
0000
0001
0000
0000
0000
0000
0000
0000
0000
0000
0000
0000
0000
0100
0000
0000
0000
0000
0000
0000
0000
0010
0000
0000
0000
0000
0000
0000
0000
0001
0000
0000
0000
0000
0000
0000
0000
1000
0000
0000
0000
0000
0000
0000
0000
0010
0000
0000
0000
0000
0000
0000
0000
0100
0000
0000
0000
0000
0000
0000
0000
0001
0000
0000
0000
0000
0000
0010
0000
0000
0000
0000
0000
0001
0000
0000
0000
0000
0000
0000
0000
0000
0000
0000
0000
0010
0000
0000
0000
0000
0000
0001
0000
0000
0000
0000
0000
0010
0000
0000
0000
0000
0000
0000
0000
0000
0000
0000
0000
0100
0000
0000
0000
0000
0000
0000
0000
1000
0000
0000
0000
0000
0000
0000
0000
0010
0000
0000
0000
0000
0000
0000
0000
0100
0000
0000
0000
0000
0000
0000
0000
0001
0000
0000
0000
0000
0000
0000
0000
0010
0000
0000
0000
0000
0000
0000
0000
,  // measure 37
0100
0000
0000
0000
0000
0000
1000
0000
0000
0000
0000
0000
0100
0000
0000
0000
0000
0000
0000
0000
0000
0000
0000
0000
1000
0000
0000
0000
0000
0000
0010
0000
0000
0000
0000
0000
1000
0000
0000
0000
0000
0000
0000
0000
0000
0000
0000
0000
0010
0000
0000
0000
0000
0000
0000
0000
0100
0000
0000
0000
0000
0000
0000
0000
0001
0000
0000
0000
0000
0000
0000
0000
1000
0000
0000
0000
0000
0000
0000
0000
0100
0000
0000
0000
0000
0000
0000
0000
0010
0000
0000
0000
0000
0000
0000
0000
0001
0000
0000
0000
0000
0000
1000
0000
0000
0000
0000
0000
0001
0000
0000
0000
0000
0000
0000
0000
0000
0000
0000
0000
0100
0000
0000
0000
0000
0000
0010
0000
0000
0000
0000
0000
0100
0000
0000
0000
0000
0000
0000
0000
0000
0000
0000
0000
0010
0000
0000
0000
0000
0000
0000
0000
0001
0000
0000
0000
0000
0000
0000
0000
0100
0000
0000
0000
0000
0000
0000
0000
0010
0000
0000
0000
0000
0000
0000
0000
1000
0000
0000
0000
0000
0000
0000
0000
0001
0000
0000
0000
0000
0000
0000
0000
,  // measure 38
0010
0001
0010
0000
0001
0010
0001
0000
0100
0001
0100
0000
0001
0100
0001
0000
1000
0001
1000
0000
0001
1000
0001
0000
1000
0100
0010
0001
0010
0100
1000
0010
,  // measure 39
0100
0000
0010
0001
1000
0000
0010
1000
0001
0000
0100
0000
0010
0000
1000
0000
,  // measure 40
0100
1000
0100
0000
1000
0100
1000
0000
0010
1000
0010
0000
1000
0010
1000
0000
0001
1000
0001
0000
1000
0001
1000
0000
0100
0010
0100
0000
0010
0100
0010
0000
,  // measure 41
1000
0100
1000
0000
0010
0001
0010
0000
1000
0100
1000
0000
0001
0100
0001
0000
1000
0010
1000
0000
0001
0010
0001
0000
0100
0010
0100
0000
0001
1000
0001
0000
,  // measure 42
0100
0010
0100
0010
0100
0000
0010
0000
0100
0010
0100
0010
0100
0000
0010
0000
0100
0010
0100
0010
0100
0000
0010
0000
0100
0000
0001
0000
1000
0000
0010
0000
,  // measure 43
0100
0000
0001
1000
0100
0000
0010
0001
0100
0000
0010
0000
1000
0010
0000
1010
,  // measure 44
0000
0010
1000
0001
1001
0000
1000
0001
0100
0000
0001
1000
0100
0000
0010
0001
,  // measure 45
1000
0010
0100
0001
0010
0001
0100
0010
1000
0001
0000
1001
0000
0010
0001
0000
,  // measure 46
1000
0100
0010
0000
1000
0100
0010
0000
1000
0100
0010
0000
1000
0100
0010
0000
0100
0010
0001
0000
0100
0010
0001
0000
0100
0000
0010
0000
0001
0000
1000
0000
,  // measure 47
0010
0001
1000
0010
0001
0000
0100
0010
1000
0000
1100
0000
0001
1000
0000
1001
,  // measure 48
0000
0000
1000
0000
0100
0010
0100
0000
0110
0000
0000
0000
0000
0000
1010
0000
0000
0000
0100
0000
0010
0001
0010
0000
0011
0000
0000
0000
0001
0000
0100
0000
,  // measure 49
0010
0000
1000
0000
0001
0000
0100
0000
0010
1000
0010
1000
0010
1000
0010
1000
0010
1000
0010
1000
0010
1000
0010
1000
0010
1000
0010
1000
0010
1000
0010
1000
,  // measure 50
0010
0100
0010
0000
0100
0010
0100
0000
0001
0010
0001
0000
0010
0001
0010
0000
0001
0010
0001
0000
0010
0001
0010
0000
1000
0000
0100
0000
0010
0000
0001
0000
,  // measure 51
0100
0000
0010
0100
0000
0010
1001
0000
0100
0011
0000
0000
0000
0000
0000
0000
;
