#VERSION:0.83;
#TITLE:Just Dance;
#SUBTITLE:;
#ARTIST:Lady GaGa;
#TITLETRANSLIT:;
#SUBTITLETRANSLIT:;
#ARTISTTRANSLIT:;
#GENRE:;
#ORIGIN:;
#CREDIT:;
#BANNER:Just Dance.png;
#BACKGROUND:Just Dance-bg.png;
#PREVIEWVID:;
#JACKET:;
#CDIMAGE:;
#DISCIMAGE:;
#LYRICSPATH:;
#CDTITLE:;
#MUSIC:Just Dance.ogg;
#OFFSET:0.000000;
#SAMPLESTART:33.782001;
#SAMPLELENGTH:15.000000;
#SELECTABLE:YES;
#BPMS:0.000=119.000;
#STOPS:;
#DELAYS:;
#WARPS:;
#TIMESIGNATURES:0.000=4=4;
#TICKCOUNTS:0.000=4;
#COMBOS:0.000=1;
#SPEEDS:0.000=1.000=0.000=0;
#SCROLLS:0.000=1.000;
#FAKES:;
#LABELS:0.000=Song Start;
#BGCHANGES:0.000=Just Dance.avi=1.000=0=0=0=StretchNoLoop====,
99999=-nosongbg-=1.000=0=0=0 // don't automatically add -songbackground-
;
#KEYSOUNDS:;
#ATTACKS:
;

//---------------dance-single - ----------------
#NOTEDATA:;
#CHARTNAME:;
#STEPSTYPE:dance-single;
#DESCRIPTION:;
#CHARTSTYLE:;
#DIFFICULTY:Beginner;
#METER:1;
#RADARVALUES:0.098077,0.166867,0.095353,0.000000,0.000000,72.000000,62.000000,10.000000,0.000000,0.000000,0.000000,0.000000,0.000000,0.000000,0.098077,0.166867,0.095353,0.000000,0.000000,72.000000,62.000000,10.000000,0.000000,0.000000,0.000000,0.000000,0.000000,0.000000;
#CREDIT:;
#NOTES:
0000
0000
0000
0000
,
0000
0000
0000
0000
,
0000
0000
0000
0000
,
0000
0000
0000
0000
,
0000
0000
0000
0000
,
1000
0000
0000
0000
,
0001
0000
1000
0000
,
0001
0000
0000
0000
,
0010
0000
0010
0000
,
0000
1000
0000
0001
,
0000
0010
0000
0000
,
1000
0000
0000
0000
,
0001
0000
0000
0000
,
0000
0001
0000
1000
,
1000
0000
0000
0000
,
0001
0000
0000
0000
,
1000
0000
0000
0000
,
1001
0000
0000
0000
,
0100
0100
0000
0000
,
1001
0000
0000
0000
,
0010
0010
0010
0000
,
1001
0000
0000
0000
,
0100
0100
0000
0000
,
1001
0000
0000
0000
,
0010
0000
0000
0000
,
1001
0000
0000
0000
,
1000
0000
0000
0000
,
0100
0000
0000
0000
,
0001
0000
0000
0000
,
0010
0000
0000
0000
,
0001
0000
0000
0000
,
1000
0000
0001
0000
,
1000
0000
0000
0000
,
0010
0000
0010
0000
,
0000
0001
0000
1000
,
0000
0010
0000
0000
,
0001
0000
0000
0000
,
1000
0000
0000
0000
,
0000
1000
0000
0001
,
0001
0000
0000
0000
,
1000
0000
0000
0000
,
0001
0000
0000
0000
,
1001
0000
0000
0000
,
0100
0100
0000
0000
,
1001
0000
0000
0000
,
0010
0010
0010
0000
,
1001
0000
0000
0000
,
0100
0100
0000
0000
,
1001
0000
0000
0000
,
0010
0000
0000
0000
,
1001
0000
0000
0000
;

//---------------dance-single - ----------------
#NOTEDATA:;
#CHARTNAME:;
#STEPSTYPE:dance-single;
#DESCRIPTION:;
#CHARTSTYLE:;
#DIFFICULTY:Easy;
#METER:3;
#RADARVALUES:0.163461,0.241957,0.133494,0.152564,0.000000,120.000000,106.000000,14.000000,16.000000,0.000000,0.000000,0.000000,0.000000,0.000000,0.163461,0.241957,0.133494,0.152564,0.000000,120.000000,106.000000,14.000000,16.000000,0.000000,0.000000,0.000000,0.000000,0.000000;
#CREDIT:;
#NOTES:
0000
0000
0000
0000
,
0000
0000
0000
0000
,
0000
0000
0000
0000
,
0000
0000
0000
0000
,
0000
0000
0000
0000
,
1000
0000
0100
0000
,
0001
0000
1000
0000
,
0001
0001
0100
0000
,
0100
0000
0010
0000
,
0000
2000
3000
0002
,
0003
0200
0300
0000
,
1000
0001
1000
0000
,
0001
0000
0100
0000
,
0000
0002
0003
2000
,
3200
0000
0300
0000
,
0001
1000
0001
0000
,
1000
0000
0100
0000
,
1001
0000
0010
0010
,
0000
0001
0001
1000
,
1001
0000
0001
0001
,
0100
0001
1000
0000
,
1001
0000
0100
0100
,
0000
1000
1000
0001
,
1001
0000
0110
0000
,
0110
0000
1000
0001
,
2002
0000
0000
3003
,
1000
0000
0000
0000
,
0100
0100
0100
0000
,
0001
0000
0000
0000
,
0010
0010
0010
0000
,
0001
0000
0100
0000
,
1000
0000
0001
0000
,
1000
1000
0100
0000
,
0100
0000
0010
0000
,
0000
0002
0003
2000
,
3000
0200
0300
0000
,
0001
1000
0001
0000
,
1000
0000
0100
0000
,
0000
2000
3000
0002
,
0203
0000
0300
0000
,
1000
0001
1000
0000
,
0001
0000
0100
0000
,
1001
0000
0010
0010
,
0000
1000
1000
0001
,
1001
0000
1000
1000
,
0100
1000
0001
0000
,
1001
0000
0100
0100
,
0000
0001
0001
1000
,
1001
0000
0110
0000
,
0110
0000
0001
1000
,
2002
0000
0000
3003
;

//---------------dance-single - ----------------
#NOTEDATA:;
#CHARTNAME:;
#STEPSTYPE:dance-single;
#DESCRIPTION:;
#CHARTSTYLE:;
#DIFFICULTY:Medium;
#METER:6;
#RADARVALUES:0.239743,0.290348,0.133494,0.152564,0.000000,176.000000,162.000000,14.000000,16.000000,0.000000,0.000000,0.000000,0.000000,0.000000,0.239743,0.290348,0.133494,0.152564,0.000000,176.000000,162.000000,14.000000,16.000000,0.000000,0.000000,0.000000,0.000000,0.000000;
#CREDIT:;
#NOTES:
0000
0000
0000
0000
,
0000
0000
0000
0000
,
0000
0000
0000
0000
,
0000
0000
0000
0000
,
0000
0000
0000
0000
,
0010
1000
0100
0000
,
0010
0001
1000
0000
,
0000
0000
0001
0000
0010
0100
0010
0000
,
1000
1000
0000
0001
0001
0000
0000
0000
,
0000
0200
0300
0002
,
0003
0000
0200
0000
0310
1000
0001
0000
,
1000
0001
1000
1000
,
0001
0100
1000
0100
,
0000
0200
0300
2000
,
3100
0000
0200
0000
0310
0001
1000
0000
,
0001
0000
1000
0000
0001
1000
0100
0000
,
0001
0001
0000
0100
0100
0000
0000
0000
,
0101
0000
0100
0000
0010
0100
0010
0000
,
0000
0000
0001
0000
0010
0100
1000
0000
,
1100
0000
0100
0000
0001
0100
0001
0000
,
0000
0100
0000
0001
1000
0000
0000
0000
,
0101
0000
0100
0000
0010
0100
0010
0000
,
0000
0010
0000
1000
0000
0010
0000
0000
,
1010
0000
0101
0000
,
0110
0001
1000
0100
,
2002
0000
0000
3003
,
1000
0000
0100
0000
,
0100
0010
0100
0000
,
0001
0100
0000
0000
,
0010
0100
0010
0000
,
0010
0001
0100
0000
,
0010
1000
0001
0000
,
0000
0000
1000
0000
0010
0100
0010
0000
,
0001
0001
0000
1000
1000
0000
0000
0000
,
0000
0200
0300
2000
,
3000
0000
0200
0000
0310
0001
1000
0000
,
0001
1000
0001
0001
,
1000
0100
0001
0100
,
0000
0200
0300
0002
,
0103
0000
0200
0000
0310
1000
0001
0000
,
1000
0000
0001
0000
1000
0001
0100
0000
,
1000
1000
0000
0100
0100
0000
0000
0000
,
1100
0000
0100
0000
0010
0100
0010
0000
,
0000
0000
1000
0000
0010
0100
0001
0000
,
0101
0000
0100
0000
1000
0100
1000
0000
,
0000
0100
0000
1000
0001
0000
0000
0000
,
1100
0000
0100
0000
0010
0100
0010
0000
,
0000
0010
0000
0001
0000
0010
0000
0000
,
0011
0000
1100
0000
,
0110
1000
0001
0100
,
2002
0000
0000
3003
;

//---------------dance-single - ----------------
#NOTEDATA:;
#CHARTNAME:;
#STEPSTYPE:dance-single;
#DESCRIPTION:;
#CHARTSTYLE:;
#DIFFICULTY:Hard;
#METER:8;
#RADARVALUES:0.321474,0.338740,0.247917,0.247917,0.000000,236.000000,210.000000,26.000000,26.000000,0.000000,0.000000,0.000000,0.000000,0.000000,0.321474,0.338740,0.247917,0.247917,0.000000,236.000000,210.000000,26.000000,26.000000,0.000000,0.000000,0.000000,0.000000,0.000000;
#CREDIT:;
#NOTES:
0000
0000
0000
0000
,
0000
0000
0000
0000
,
0000
0000
0000
0000
,
0000
0000
0000
0000
,
0000
0000
0000
0000
,
1000
1000
0001
0000
1000
0000
0100
0000
,
0010
0010
0001
1000
0100
0000
1000
0000
,
0000
0001
0100
0000
0010
1000
0010
0000
,
1000
0100
0000
0001
0100
0000
0000
0000
,
0000
1200
0300
0012
,
0003
0000
1200
0000
1300
0100
0010
0001
,
1000
0000
0001
0000
1000
0001
1000
0000
,
0001
0000
0010
0100
0010
0100
1000
0000
,
0000
0201
0300
2010
,
3100
0000
0201
0000
0301
0100
0010
1000
,
0001
0000
1000
0000
0001
1000
0100
0000
,
0001
0100
0000
0001
0100
0000
0000
0000
,
2100
0000
3100
0000
0010
0001
0010
0000
,
0000
1000
0001
1000
0010
0100
0001
0000
,
0102
0000
0103
0000
0001
0100
1000
0000
,
0000
0100
1000
0001
0010
0000
1000
0000
,
2100
0000
3100
0000
0010
0001
0010
0000
,
0000
0010
0000
1000
0000
0010
0000
0001
,
0102
0000
0003
1000
2100
0000
3000
0100
,
0110
0000
0001
0000
1000
1000
0100
0000
,
2002
0000
0000
3003
,
1000
0000
0100
0000
1000
0100
0010
0000
,
0100
0000
0010
0000
0100
1000
0001
0000
,
0001
0000
0100
0000
0001
0100
0010
0000
,
0100
0000
0010
0000
0100
0001
1000
0000
,
0001
0001
1000
0000
0001
0000
0100
0000
,
0010
0010
1000
0001
0100
0000
0001
0000
,
0000
1000
0100
0000
0010
0001
0010
0000
,
0001
0100
0000
1000
0100
0000
0000
0000
,
0000
0201
0300
2010
,
3000
0000
0201
0000
0301
0100
0010
1000
,
0001
0000
1000
0000
0001
1000
0001
0000
,
1000
0000
0010
0100
0010
0100
0001
0000
,
0000
1200
0300
0012
,
0103
0000
1200
0000
1300
0100
0010
0001
,
1000
0000
0001
0000
1000
0001
0100
0000
,
1000
0100
0000
1000
0100
0000
0000
0000
,
0102
0000
0103
0000
0010
1000
0010
0000
,
0000
0001
1000
0001
0010
0100
1000
0000
,
2100
0000
3100
0000
1000
0100
0001
0000
,
0000
0100
0001
1000
0010
0000
0001
0000
,
0102
0000
0103
0000
0010
1000
0010
0000
,
0000
0010
0000
0001
0000
0010
0000
1000
,
2100
0000
3000
0001
0102
0000
0003
0100
,
0110
0000
1000
0000
0001
0001
0100
0000
,
2002
0000
0000
3003
;

//---------------dance-double - ----------------
#NOTEDATA:;
#CHARTNAME:;
#STEPSTYPE:dance-double;
#DESCRIPTION:;
#CHARTSTYLE:;
#DIFFICULTY:Easy;
#METER:4;
#RADARVALUES:0.171635,0.266153,0.133494,0.152564,0.000000,126.000000,112.000000,14.000000,16.000000,0.000000,0.000000,0.000000,0.000000,0.000000,0.171635,0.266153,0.133494,0.152564,0.000000,126.000000,112.000000,14.000000,16.000000,0.000000,0.000000,0.000000,0.000000,0.000000;
#CREDIT:;
#NOTES:
00000000
00000000
00000000
00000000
,
00000000
00000000
00000000
00000000
,
00000000
00000000
00000000
00000000
,
00000000
00000000
00000000
00000000
,
00000000
00000000
00000000
00000000
,
10000000
00000000
00100000
00000000
,
01000000
00000000
00001000
00000000
,
00010000
00010000
00000100
00000000
,
00001000
00000001
00000100
00000000
,
00000020
00000030
00002000
00003000
,
00000200
00000000
00000300
00000000
,
00010000
00001000
01000000
00000000
,
00010000
00000000
00100000
00000000
,
00002000
00003000
02000000
03000000
,
00020000
00000000
00030000
00000000
,
10000000
00100000
01000000
00000000
,
00001000
00000000
00010000
00000000
,
00011000
00000000
00010000
00010000
,
00000000
00000100
00000100
00001000
,
00001001
00000000
00000010
00000010
,
00010000
00001000
01000000
00000000
,
10010000
00000000
00010000
00010000
,
00000000
00100000
00100000
00001000
,
00011000
00000000
00101000
00000000
,
00011000
00001000
00010000
00000100
,
00002002
00000000
00000000
00003003
,
00000001
00000000
00000100
00000000
,
00000010
00010000
00001000
00000000
,
01000000
00000000
00010000
00000000
,
00100000
00001000
00000010
00000000
,
00000001
00000000
00000010
00000000
,
00000100
00000000
00010000
00000000
,
00001000
00001000
01000000
00000000
,
00010000
10000000
01000000
00000000
,
00200000
00300000
00020000
00030000
,
02000000
00000000
03000000
00000000
,
00001000
00010000
00000100
00000000
,
00001000
00000000
00000010
00000000
,
00020000
00030000
00000200
00000300
,
00002000
00000000
00003000
00000000
,
00000001
00000010
00000100
00000000
,
00010000
00000000
00001000
00000000
,
00011000
00000000
00001000
00001000
,
00000000
01000000
01000000
00010000
,
10010000
00000000
00100000
00100000
,
00001000
00010000
00000100
00000000
,
00001001
00000000
00001000
00001000
,
00000000
00000010
00000010
00010000
,
00011000
00000000
00010010
00000000
,
00011000
00010000
00001000
01000000
,
20020000
00000000
00000000
30030000
;

//---------------dance-double - ----------------
#NOTEDATA:;
#CHARTNAME:;
#STEPSTYPE:dance-double;
#DESCRIPTION:;
#CHARTSTYLE:;
#DIFFICULTY:Medium;
#METER:6;
#RADARVALUES:0.245192,0.314544,0.133494,0.247917,0.000000,180.000000,166.000000,14.000000,26.000000,0.000000,0.000000,0.000000,0.000000,0.000000,0.245192,0.314544,0.133494,0.247917,0.000000,180.000000,166.000000,14.000000,26.000000,0.000000,0.000000,0.000000,0.000000,0.000000;
#CREDIT:;
#NOTES:
00000000
00000000
00000000
00000000
,
00000000
00000000
00000000
00000000
,
00000000
00000000
00000000
00000000
,
00000000
00000000
00000000
00000000
,
00000000
00000000
00000000
00000000
,
00010000
00100000
00001000
00000000
,
00010000
00000010
00001000
00000000
,
00000001
00000000
00001000
00000000
00000010
00000100
00000010
00000000
,
00010000
00010000
00000000
00001000
00001000
00000000
00000000
00000000
,
02000000
03000000
00020000
00030000
,
20000000
00000000
30000000
00000000
01000000
00010000
00001000
00000000
,
00010000
00000100
00000010
00000010
,
00000001
00000100
00000010
00000010
,
00002000
00003000
00000200
00000300
,
00020000
00000000
00030000
00000000
00001000
00010000
00100000
00000000
,
10000000
01000000
00100000
00001000
,
00010000
00010000
00000000
00000100
00000100
00000000
00000000
00000000
,
00002001
00003000
00000020
00001030
,
00000100
00000000
00000100
00000000
00010000
00001000
01000000
00000000
,
10020000
00030000
00100000
00010000
,
00100000
00001000
00000000
00010000
00000100
00000000
00000000
00000000
,
00001002
00000003
00000200
00000310
,
00000000
00001000
00000000
00000100
00000000
00010000
00000000
00001000
,
00011000
00000000
00000000
01000000
01010000
00000000
00000000
10000000
,
11000000
01000000
00100000
00010000
,
00220000
00000000
00000000
00330000
,
10000000
00000000
00010000
00000000
00100000
01000000
00100000
00000000
,
00001000
00001000
00000000
00010000
00010000
00000000
00000000
00000000
,
00001000
00000000
00010000
00000000
00000100
00001000
00000100
00000000
,
00000010
00000010
00000000
00000000
00000001
00000000
00000100
00000000
,
00001000
00000010
00010000
00000000
,
00001000
00100000
00010000
00000000
,
10000000
00000000
00010000
00000000
00100000
01000000
00100000
00000000
,
00001000
00001000
00000000
00010000
00010000
00000000
00000000
00000000
,
00000200
00000300
00002000
00003000
,
00000002
00000000
00000003
00000000
00000100
00001000
00010000
00000000
,
00001000
01000000
00100000
00100000
,
10000000
01000000
00100000
00100000
,
00020000
00030000
02000000
03000000
,
00002000
00000000
00003000
00000000
00010000
00001000
00000010
00000000
,
00000001
00000100
00000010
00010000
,
00001000
00001000
00000000
01000000
01000000
00000000
00000000
00000000
,
10020000
00030000
00200000
00310000
,
01000000
00000000
01000000
00000000
00001000
00010000
00000100
00000000
,
00002001
00003000
00000010
00001000
,
00000010
00010000
00000000
00001000
01000000
00000000
00000000
00000000
,
20010000
30000000
02000000
03100000
,
00000000
00010000
00000000
01000000
00000000
00001000
00000000
00010000
,
00011000
00000000
00000000
00000100
00001100
00000000
00000000
00000001
,
00000101
00000100
00000010
00001000
,
00002020
00000000
00000000
00003030
;

//---------------dance-double - ----------------
#NOTEDATA:;
#CHARTNAME:;
#STEPSTYPE:dance-double;
#DESCRIPTION:;
#CHARTSTYLE:;
#DIFFICULTY:Hard;
#METER:8;
#RADARVALUES:0.320112,0.387131,0.171635,0.286058,0.000000,235.000000,217.000000,18.000000,30.000000,0.000000,0.000000,0.000000,0.000000,0.000000,0.320112,0.387131,0.171635,0.286058,0.000000,235.000000,217.000000,18.000000,30.000000,0.000000,0.000000,0.000000,0.000000,0.000000;
#CREDIT:;
#NOTES:
00000000
00000000
00000000
00000000
,
00000000
00000000
00000000
00000000
,
00000000
00000000
00000000
00000000
,
00000000
00000000
00000000
00000000
,
00000000
00000000
00000000
00000000
,
00000001
00000000
00000100
00000010
00010000
00000000
00001000
00100000
,
00010000
00000000
10000000
01000000
00000000
01000000
00100000
00010000
,
10000000
00000000
00000000
00010000
01000000
00000000
00000000
00001000
,
00010000
00000000
00000000
00000100
00000010
00000000
00000000
00000000
,
00000001
00000200
00000310
00002000
,
00003100
00000000
00020000
00000000
00031000
00010000
01000000
00100000
,
00010000
00000000
10000000
00000000
01000000
00010000
00001000
00000000
,
00010000
00000000
00000100
00000010
00000001
00000100
00000010
00000000
,
00001000
00000200
00010300
00002000
,
01003000
00000000
00020000
00000000
00130000
00010000
00001000
00000010
,
00001000
00000000
00000001
00000000
00000100
00000010
00001000
00000000
,
00000100
00010000
00000000
00001000
01000000
00000000
00000000
00000000
,
20010000
30010000
00201000
00301000
,
00010000
00001000
00010000
00000100
00000010
00000001
00001000
00000000
,
00000102
00000000
00000103
00000000
00001000
00000010
00001000
00000000
,
00000100
00010000
00000000
00001000
00100000
00010000
10000000
00000000
,
20010000
30010000
02001000
03001000
,
00000000
00010000
00000000
00001000
00000000
00010000
00000000
00000100
,
00002100
00000000
00003000
00000001
00000201
00000000
00000300
00000010
,
00001010
00000000
00001000
00001000
00000100
00000100
00010000
00001000
,
02020000
00000000
00000000
03030000
,
10000000
00000000
00000000
00010000
01000000
00000000
00000000
00001000
,
00010000
00000000
00000000
00000100
00000010
00000000
00000000
00000000
,
00000001
00000000
00000000
00001000
00000100
00000000
00000000
00010000
,
00001000
01000000
00100000
10000000
,
10000000
00000000
01000000
00100000
00001000
00000000
00010000
00000010
,
00001000
00000000
00000001
00000100
00000000
00000100
00000010
00001000
,
00000001
00000000
00000000
00001000
00000100
00000000
00000000
00010000
,
00001000
00000000
00000000
01000000
00100000
00000000
00000000
00000000
,
10000000
02000000
03100000
00020000
,
01030000
00000000
00002000
00000000
00013000
00001000
00000100
00000010
,
00001000
00000000
00000001
00000000
00000100
00001000
00010000
00000000
,
00001000
00000000
01000000
00100000
10000000
01000000
00100000
00000000
,
00010000
02000000
03001000
00020000
,
00030100
00000000
00002000
00000000
00003010
00001000
00010000
00100000
,
00010000
00000000
10000000
00000000
01000000
00100000
00010000
00000000
,
01000000
00001000
00000000
00010000
00000100
00000000
00000000
00000000
,
00001002
00001003
00010020
00010030
,
00001000
00010000
00001000
01000000
00100000
10000000
00010000
00000000
,
21000000
00000000
31000000
00000000
00010000
00100000
00010000
00000000
,
01000000
00001000
00000000
00010000
00000010
00001000
00000001
00000000
,
00001002
00001003
00010200
00010300
,
00000000
00001000
00000000
00010000
00000000
00001000
00000000
01000000
,
01020000
00000000
00030000
10000000
12000000
00000000
03000000
00100000
,
00110000
00000000
00010000
00010000
01000000
01000000
00001000
00010000
,
00002200
00000000
00000000
00003300
;

//---------------dance-single - ----------------
#NOTEDATA:;
#CHARTNAME:;
#STEPSTYPE:dance-single;
#DESCRIPTION:;
#CHARTSTYLE:;
#DIFFICULTY:Challenge;
#METER:14;
#RADARVALUES:0.735577,0.851021,0.314663,0.228846,0.781891,540.000000,507.000000,33.000000,24.000000,0.000000,0.000000,0.000000,0.000000,0.000000,0.735577,0.851021,0.314663,0.228846,0.781891,540.000000,507.000000,33.000000,24.000000,0.000000,0.000000,0.000000,0.000000,0.000000;
#CREDIT:;
#NOTES:
// measure 0
0000
0000
0000
0000
,  // measure 1
0000
0000
0000
0000
,  // measure 2
0000
0000
0000
0000
,  // measure 3
0000
0000
0000
0000
,  // measure 4
0000
0000
0000
0000
,  // measure 5
0001
0000
0010
0001
0100
0000
1000
0000
0200
0000
0010
0000
0310
0001
1000
0100
,  // measure 6
0010
0000
0001
0010
0100
0000
1000
0000
0020
0000
1000
0000
1030
0010
0100
0001
,  // measure 7
1000
0000
0100
1000
0010
0000
0001
0000
2000
0000
0001
0000
3001
0010
0100
1000
,  // measure 8
0010
0000
0001
0000
1000
0100
0010
0001
1000
0000
0100
0001
1000
0000
0010
1000
,  // measure 9
0001
0100
0010
0000
1000
0010
1010
0000
1000
0000
0100
0000
0010
0001
0011
0000
,  // measure 10
0001
0000
0010
0000
0100
0010
0110
0000
0010
0000
1000
0000
0001
1000
1001
1000
,  // measure 11
0001
2000
0010
0010
0100
0100
0001
3001
,  // measure 12
0200
0001
0001
0010
0010
0001
0001
0310
,  // measure 13
0100
0010
1000
0001
0010
0001
1001
0000
0100
0000
0001
0000
1000
0100
1100
0000
,  // measure 14
0100
1000
1010
0010
0200
0000
0001
0000
0001
0000
0010
0000
0010
0000
1000
0000
,  // measure 15
1300
0010
1000
0001
0100
0010
1000
0100
,  // measure 16
0020
0000
0130
0000
0010
0000
0100
0010
1000
0001
0010
0000
0220
0000
0330
0000
,  // measure 17
1000
0100
0010
0001
0100
0000
0001
0010
0100
1000
0010
0000
1000
0010
0100
0000
,  // measure 18
0011
0000
0010
0001
1000
0000
0001
0100
1000
0000
1001
0000
0001
1000
0100
0010
,  // measure 19
0001
0000
0000
0000
0000
0000
0000
0000
0000
0000
0000
0000
0000
0000
0000
0000
0000
0000
0000
0000
0000
0000
0000
0000
0000
0000
0000
0000
0000
0000
0000
0000
0000
0000
0000
0000
0001
0000
0000
0000
0000
0000
0010
0000
0000
0000
0000
0000
0100
0000
0000
0000
0000
0000
0000
0000
0000
0000
0000
0000
0010
0000
0000
0000
0000
0000
0000
0000
0000
0000
0000
0000
1000
0000
0000
0000
0000
0000
0000
0000
0000
0000
0000
0000
0100
0000
0000
0000
0000
0000
0000
0000
0000
0000
0000
0000
0010
0000
0000
0000
0000
0000
0000
0000
0001
0000
0000
0000
0000
0000
0000
0000
0000
0000
0000
0000
0000
0000
0000
0000
0010
0000
0000
0000
0000
0000
0000
0000
0001
0000
0000
0000
0000
0000
0000
0000
0000
0000
0000
0000
0000
0000
0000
0000
0100
0000
0000
0000
0000
0000
0000
0000
0000
0000
0000
0000
0010
0000
0000
0000
0000
0000
0000
0000
0000
0000
0000
0000
1000
0000
0000
0000
0000
0000
0000
0000
0000
0000
0000
0000
0001
0000
0000
0000
0000
0000
0000
0000
0000
0000
0000
0000
,  // measure 20
0010
0000
0100
0001
1000
0000
0010
0100
0001
0000
1001
0000
0100
1000
0010
0100
,  // measure 21
0001
0000
0010
0001
1000
0000
0001
0100
0010
1000
0100
0000
0010
0100
0001
1000
,  // measure 22
0100
0000
0010
0001
1000
0000
0100
0001
1000
0000
0010
0001
1000
0000
0100
0001
,  // measure 23
1000
0001
0020
0000
0031
0000
0100
1000
0010
1000
0200
0000
0301
0000
1000
0100
,  // measure 24
0010
0100
2000
0000
3010
0000
0001
0010
0100
0010
0002
0000
0103
0000
0000
0000
,  // measure 25
2002
0000
0000
3003
,  // measure 26
1001
0000
0001
0100
1000
0000
1000
0100
0001
0000
0001
0010
0100
1000
0010
0100
,  // measure 27
0001
0010
0100
1000
0010
0000
1000
0010
0100
0000
0010
0100
0001
0000
1000
0100
,  // measure 28
0010
0000
0001
0100
1000
0000
1000
0100
0010
0000
0010
0100
0001
0100
1000
0010
,  // measure 29
0100
0001
1000
0000
0001
0010
0100
0000
1200
0000
0000
0000
0301
0000
0000
0000
,  // measure 30
0011
0000
0001
0010
0100
0000
0010
0100
1000
0100
1100
0000
1010
0000
0000
0000
,  // measure 31
0010
0000
0000
1000
0000
0000
1010
0000
0000
0000
0000
0000
0010
0000
0000
0000
0000
0000
1000
0000
0000
0100
0000
0000
0010
0000
0000
0000
0000
0000
0000
0000
0022
0000
0000
0000
0000
0000
0000
0000
0000
0000
0000
0000
0033
0000
0000
0000
,  // measure 32
0011
0000
0001
0010
0100
0000
0010
0100
1000
0000
1000
0100
0010
0001
1000
0010
,  // measure 33
0200
0000
0301
1000
0010
0000
0100
0001
1000
0000
0010
0001
0100
0000
1000
0100
,  // measure 34
0010
0000
0001
0000
0001
0010
0011
0001
0010
0000
0100
0000
0010
1000
1010
0010
,  // measure 35
1000
0000
0100
0000
0010
0100
0110
0010
0100
0000
0010
0000
0001
0010
0011
0001
,  // measure 36
1000
0020
1000
0001
1000
0001
0100
0100
,  // measure 37
0032
0010
0010
1000
1000
0100
0100
0013
,  // measure 38
0011
0000
0001
0000
1000
0001
1001
0001
0100
0000
0010
0000
1000
0010
1010
0010
,  // measure 39
0100
0000
0010
0000
0001
1000
1001
0001
0100
0000
0010
0000
0100
0010
0110
0010
,  // measure 40
0100
0002
0010
0100
0010
1000
0100
1003
,  // measure 41
0010
0001
1000
0001
0100
0000
0100
1000
0001
1000
0010
0000
0100
0001
1000
0000
,  // measure 42
0001
0010
0100
1000
0010
0000
0001
0100
0010
1000
0100
0000
1000
0100
0010
0001
,  // measure 43
0100
0000
0010
0001
0100
0000
0010
1000
0100
0000
0100
0010
1000
0001
0010
0100
,  // measure 44
1000
0000
0000
0000
0000
0000
0000
0000
0000
0000
0000
0000
0000
0000
0000
0000
0000
0000
0000
0000
0000
0000
0000
0000
0000
0000
0000
0000
0000
0000
0000
0000
0000
0000
0000
0000
1000
0000
0000
0000
0000
0000
0100
0000
0000
0000
0000
0000
0010
0000
0000
0000
0000
0000
0000
0000
0000
0000
0000
0000
0001
0000
0000
0000
0000
0000
0000
0000
0000
0000
0000
0000
0100
0000
0000
0000
0000
0000
0000
0000
0000
0000
0000
0000
0010
0000
0000
0000
0000
0000
0000
0000
0000
0000
0000
0000
1000
0000
0000
0000
0000
0000
0000
0000
0001
0000
0000
0000
0000
0000
0000
0000
0000
0000
0000
0000
0000
0000
0000
0000
1000
0000
0000
0000
0000
0000
0000
0000
0001
0000
0000
0000
0000
0000
0000
0000
0000
0000
0000
0000
0000
0000
0000
0000
1000
0000
0000
0000
0000
0000
0000
0000
0000
0000
0000
0000
0100
0000
0000
0000
0000
0000
0000
0000
0000
0000
0000
0000
0010
0000
0000
0000
0000
0000
0000
0000
0000
0000
0000
0000
0001
0000
0000
0000
0000
0000
0000
0000
0000
0000
0000
0000
,  // measure 45
1000
0000
0001
0100
1000
0000
1000
0010
0001
0000
0001
0010
1000
0100
0001
1000
,  // measure 46
0010
0001
1000
0010
0100
0000
0010
0001
1000
0001
0100
0000
0001
0010
0100
1000
,  // measure 47
0010
0000
0100
0001
1000
0000
0010
1000
0001
0000
0100
0001
1000
0001
0100
0010
,  // measure 48
0001
0010
0011
0001
0100
0001
1000
0001
0010
1000
1010
0010
0100
0001
1000
0100
,  // measure 49
0010
0100
0110
0010
0100
0001
1000
0100
0010
0000
0010
0000
0010
0000
0000
0000
,  // measure 50
2002
0000
0000
0000
,  // measure 51
3003
0000
0000
0000
;
