#TITLE:Just A Girl (Radio Edit);
#SUBTITLE:;
#ARTIST:Ian Van Dahl;
#TITLETRANSLIT:;
#SUBTITLETRANSLIT:;
#ARTISTTRANSLIT:;
#GENRE:;
#CREDIT:;
#BANNER:Just A Girl (Radio Edit).png;
#BACKGROUND:Just A Girl (Radio Edit)-bg.png;
#LYRICSPATH:;
#CDTITLE:;
#MUSIC:Just A Girl (Radio Edit).ogg;
#OFFSET:0.000000;
#SAMPLESTART:69.216003;
#SAMPLELENGTH:15.000000;
#SELECTABLE:YES;
#BPMS:0.000000=130.000000
;
#STOPS:
;
#BGCHANGES:;
#KEYSOUNDS:;
#ATTACKS:;

//---------------dance-single - ----------------
#NOTES:
     dance-single:
     :
     Beginner:
     2:
     0.109962,0.151096,0.019006,0.000000,0.000000,81.000000,79.000000,2.000000,0.000000,0.000000,0.000000,0.109962,0.151096,0.019006,0.000000,0.000000,81.000000,79.000000,2.000000,0.000000,0.000000,0.000000:
0000
0000
0000
0000
,
0000
0000
0000
0000
,
0000
0000
0000
0000
,
1000
0000
0000
0000
,
0001
0000
0000
0000
,
1000
0000
1000
0000
,
0001
0000
0001
0000
,
0010
0000
0100
0000
,
0100
0000
0100
0000
,
1000
0000
0000
0001
,
0001
0000
0000
0100
,
0100
0000
0100
0000
,
0010
0000
0010
0000
,
1000
0000
0000
0001
,
0001
0000
0000
1000
,
1000
0000
1000
0000
,
0010
0000
0010
0000
,
0100
0000
0000
0000
,
0010
0000
0000
0000
,
0100
0000
0010
0000
,
0100
0000
0010
0000
,
1000
0000
0000
0000
,
0100
0000
0000
0000
,
1000
0000
0001
0000
,
1000
0000
0001
0000
,
0100
0000
0000
0000
,
1000
0000
0000
0000
,
0010
0000
0000
0000
,
0000
0000
0000
0000
,
1001
0000
0000
0000
,
1000
0000
1000
0000
,
0100
0000
0000
0000
,
1000
0000
0001
0000
,
0100
0000
0000
0000
,
0010
0000
0010
0000
,
0100
0000
0000
0000
,
0001
0000
1000
0000
,
0100
0000
0000
0000
,
1000
0000
0000
0000
,
0001
0001
0000
0000
,
0010
0000
0100
0000
,
1000
0000
0000
0000
,
0001
0001
0000
0000
,
0100
0000
0010
0000
,
0010
0000
0010
0000
,
0001
0000
0000
0000
,
1000
0000
0000
0000
,
0100
0000
0010
0000
,
0100
0000
0010
0000
,
0001
0000
0000
0000
,
1000
0000
0000
0000
,
0010
0000
0100
0000
,
0010
0000
0100
0000
,
0110
0000
0000
0000
;

//---------------dance-single - ----------------
#NOTES:
     dance-single:
     :
     Easy:
     5:
     0.172410,0.201462,0.038012,0.171052,0.000000,127.000000,123.000000,4.000000,18.000000,0.000000,0.000000,0.172410,0.201462,0.038012,0.171052,0.000000,127.000000,123.000000,4.000000,18.000000,0.000000,0.000000:
0000
0000
0000
0000
,
0000
0000
0000
0000
,
0000
0000
0000
0000
,
1000
0001
0000
0100
,
0000
1000
0000
0100
,
0010
0000
0100
0000
,
0001
1000
0001
0000
,
0010
0100
0100
0000
,
0100
0000
0100
0000
,
1001
0000
0001
0000
,
1000
0000
1000
0001
,
0100
0100
0010
0000
,
1000
0000
0001
0000
,
0010
0000
0100
1000
,
0001
0001
0000
0010
,
0100
0000
1000
0000
,
0001
0000
1000
0000
,
0001
0100
0001
0000
,
1000
0100
1000
0000
,
0001
0010
1000
0000
,
1000
0100
0001
0000
,
0220
0000
0330
0000
,
0100
0000
0001
0000
,
0020
0000
0030
0000
,
0200
0000
0300
0000
,
1000
0000
0010
0000
,
0100
0000
0001
0000
,
2000
0000
3000
0000
,
0002
0000
0003
0000
,
1001
0000
0100
0000
,
1000
0010
1000
0010
,
2000
3000
0001
0000
,
0020
0030
0100
0000
,
1000
0000
0001
0000
,
0100
0010
0100
0010
,
0200
0300
0001
0000
,
0020
0030
0100
0000
,
1000
0100
1000
0000
,
0001
0100
0001
0000
,
0020
0030
0200
0300
,
0010
0001
1000
0000
,
0010
0000
0100
0000
,
0010
0100
0001
0000
,
2000
3000
0002
0003
,
1000
0001
1000
0001
,
1000
0010
1000
0000
,
0001
0010
0001
0000
,
0200
0300
0020
0030
,
0100
0001
1000
0000
,
0100
0000
0010
0000
,
0100
0010
0001
0000
,
2000
3000
0002
0003
,
1000
0001
1000
0001
,
1001
0000
0000
0000
;

//---------------dance-single - ----------------
#NOTES:
     dance-single:
     :
     Medium:
     7:
     0.294590,0.302192,0.095029,0.199561,0.000000,217.000000,207.000000,10.000000,21.000000,0.000000,0.000000,0.294590,0.302192,0.095029,0.199561,0.000000,217.000000,207.000000,10.000000,21.000000,0.000000,0.000000:
0000
0000
0000
0000
,
0000
0000
0000
0000
,
0000
0000
0000
0000
,
1001
0000
1001
0000
0001
0010
0000
0100
,
1000
0001
1000
0001
,
0100
0000
0100
0000
0010
1000
0010
0000
,
0100
0110
0001
1000
,
0100
0010
0100
0000
2000
0000
0000
0000
,
3020
0000
0230
0000
,
0301
0000
0001
0000
0010
0001
0100
0000
,
0010
0000
0010
0000
1000
0100
0010
0000
,
0001
0000
1000
0000
0001
0100
0000
1000
,
0100
0002
1000
1003
,
0001
0000
0010
0000
0100
1000
0100
0000
,
1000
0000
0001
0000
1000
0000
0001
0100
,
0010
1000
0200
0000
,
0320
0000
0032
0000
,
1003
0000
0010
0000
0100
0000
0010
1000
,
0010
0000
0100
0000
0001
0000
0010
0001
,
0010
0000
0100
0000
0010
0000
0001
1000
,
0002
0100
0100
0103
,
0120
0000
1000
0000
,
0230
0000
1000
0000
,
0302
0000
0010
0000
,
2003
0000
3010
1000
,
2002
0000
0003
0000
,
0200
3000
0000
0000
,
0020
0300
0000
0000
,
0002
0030
0000
0003
,
0100
0001
0010
0000
0100
0000
1000
0000
,
0100
1000
0010
0000
0100
0000
0001
0000
,
0010
1000
0001
0000
1000
0000
0100
0000
,
0010
1000
0001
1000
0000
0000
0110
0000
,
0010
1000
0100
0000
0010
0000
0001
0000
,
0010
0001
0100
0000
0010
0000
1000
0000
,
0100
0001
1000
0000
0001
0000
0010
0000
,
0100
0001
1000
0001
0000
0000
0110
0000
,
0010
0000
0001
0100
0010
0000
0001
0000
,
1000
0000
0100
0010
0000
0001
1000
0000
,
0001
0000
1000
0000
1000
0010
0001
0000
,
1000
0010
2020
3030
,
0100
0000
1000
0010
0100
0000
1000
0000
,
0001
0000
0010
0100
0000
1000
0001
0000
,
1000
0000
0001
0000
0001
0100
1000
0000
,
0001
0100
0202
0303
,
0100
0000
0001
0000
1000
0010
0100
0000
,
0001
0000
0100
0000
0010
0100
0001
0000
,
0010
0000
1000
0010
0000
0100
0001
0000
,
0001
1000
0000
0010
0000
0100
0001
0000
,
0010
0000
1000
0000
0001
0100
0010
0000
,
1000
0000
0010
0000
0100
0010
1000
0000
,
0100
0000
0001
0100
0000
0010
1000
0000
,
1000
0001
0000
0100
0000
0010
1000
0000
,
1001
0000
0000
0000
;

//---------------dance-single - ----------------
#NOTES:
     dance-single:
     :
     Hard:
     11:
     0.416770,0.384868,0.142544,0.199561,0.185307,307.000000,292.000000,15.000000,21.000000,0.000000,0.000000,0.416770,0.384868,0.142544,0.199561,0.185307,307.000000,292.000000,15.000000,21.000000,0.000000,0.000000:
0000
0000
0000
0000
,
0000
0000
0000
0000
,
0000
0000
0000
0000
,
1010
0000
0101
0000
1000
0100
1000
0002
,
0000
0100
0100
0103
,
0011
0000
1100
0000
0001
1000
0010
0100
,
0002
2003
3001
1000
,
0010
0100
0001
0000
0010
0100
1000
0000
,
0010
1000
0001
0000
0100
0001
1000
0000
,
2001
0000
3100
0000
1000
0100
0010
0002
,
1000
0000
0103
0000
0001
1000
0100
1000
,
1010
0000
0101
0000
0100
0001
1000
0200
,
0010
0000
0001
0000
0010
0000
1300
0001
,
0100
0000
1000
0000
0010
1000
0100
0010
,
0011
0000
1100
0000
1000
0001
0100
0020
,
1000
0100
0001
0130
,
0001
0100
0010
0000
1000
0100
0010
0000
,
0001
0000
0000
0100
0000
0000
1000
0000
0100
0000
0001
0000
0010
0000
0000
0000
,
1000
0000
0000
0010
0000
0000
0001
0000
1000
0000
0100
0000
0001
0000
0100
0000
,
0010
0000
0000
0001
0000
0000
0100
0000
1000
0000
0100
0000
0010
0000
0000
0000
,
0100
0000
0000
0001
0000
0000
0010
0000
0001
0000
0100
0000
0010
0000
1000
0000
,
0002
0000
0100
0000
0000
0100
0000
0000
0100
0000
0000
0103
0000
0000
0020
0000
,
0000
0000
1000
0000
0000
1000
0000
0000
1000
0000
1030
0000
0001
0000
0200
0000
,
0000
0000
1000
0000
0000
1000
0000
0000
1000
0000
0000
1300
0000
0000
0020
0000
,
0000
0000
0001
0000
0000
0001
0000
0000
0001
0000
0001
0000
0031
0000
0000
0000
,
0000
0000
1000
0000
0000
1000
0000
0000
1000
0000
0000
1000
0000
0000
0000
0000
,
0000
0000
0100
0000
0000
0100
0000
0000
0100
0000
0000
0100
0000
0000
0000
0000
,
0000
0000
0001
0000
0000
0001
0000
0000
0001
0000
0000
0001
0000
0000
0000
0000
,
2002
0000
0000
3003
,
1000
0000
0010
0000
0100
0000
0000
0001
0000
0000
1000
0000
0010
0000
0000
0100
,
0000
0000
0001
0000
1000
0000
0000
0010
0000
0000
0100
0000
0001
0000
1000
0000
,
0001
0000
0010
0000
0100
0000
0000
1000
0000
0000
0001
0000
0010
0000
0000
0100
,
0000
0000
1000
0000
0001
0000
0000
0010
0000
0000
0100
0000
1000
0000
0010
0000
,
0001
0000
0010
0000
0100
0000
0000
0001
0000
0000
0010
0000
0001
0000
0000
1000
,
0000
0000
0010
0000
1000
0000
0000
0001
0000
0000
0100
0000
0001
0000
0010
0000
,
0100
0000
1000
0000
0010
0000
0000
0100
0000
0000
0001
0000
1000
0000
0000
0100
,
0000
0000
0010
0000
0001
0000
0000
1000
0000
0000
0010
0000
0100
0000
0001
0000
,
1001
0000
0100
0000
0010
1000
0100
2000
,
0010
0000
3001
0000
0100
0010
0100
0001
,
0011
0000
1100
0000
0001
1000
0010
2000
,
0100
0000
0000
0000
3001
0000
0000
0000
0010
0000
0001
0000
0010
0100
0000
0000
,
1000
0000
0001
0000
0100
0010
1000
0100
,
0011
0000
1100
0000
0100
1000
0010
0200
,
0001
0000
0010
0000
1300
0100
0001
1000
,
0001
0000
0000
0000
1000
0000
0000
0000
0100
0000
0001
0000
0100
1000
0000
0000
,
0010
0000
0100
0000
0000
0100
0000
0000
0100
0000
0010
0000
0001
0000
0010
0000
,
1000
0000
0100
0000
0000
0100
0000
0000
0100
0000
0010
0000
0100
0000
0000
0000
,
0001
0000
0010
0000
0000
0010
0000
0000
0010
0000
1000
0000
0010
0000
0001
0000
,
0100
0000
0010
0000
0000
0010
0000
0000
0010
0000
1000
0000
0100
0000
0000
0000
,
0002
0000
0010
0000
0000
0010
0000
0000
0013
0000
0100
0000
1000
0000
0001
0000
,
0200
0000
0010
0000
0000
0010
0000
0000
0310
0000
0001
0000
0010
0000
1000
0000
,
0200
0000
0010
0000
0000
0010
0000
0000
0310
0000
0001
0000
0100
0000
1000
0000
,
0200
0000
0010
0000
0000
0010
0000
0000
0310
0000
1000
0000
0001
0010
0000
0000
,
0200
0000
0000
0000
,
0300
0000
0000
0000
;

//---------------dance-double - ----------------
#NOTES:
     dance-double:
     :
     Easy:
     3:
     0.157477,0.201462,0.057017,0.123538,0.000000,116.000000,110.000000,6.000000,13.000000,0.000000,0.000000,0.157477,0.201462,0.057017,0.123538,0.000000,116.000000,110.000000,6.000000,13.000000,0.000000,0.000000:
00000000
00000000
00000000
00000000
,
00000000
00000000
00000000
00000000
,
01000000
00000000
00100000
00000000
,
00001000
00000000
00010000
00000000
,
00022000
00000000
00033000
00000000
,
00000100
00000000
00000001
00000000
,
00000010
00000000
00000100
00000000
,
00001000
00000000
00000100
00000000
,
00010000
00000000
00010000
00000000
,
01100000
00000000
01000000
00000000
,
10000000
00000000
00010000
00000000
,
01000000
00000000
00010000
00000000
,
00001000
00000000
00000010
00000000
,
00000110
00000000
00000100
00000000
,
00000001
00000000
00001000
00000000
,
00000010
00000000
00010000
00000000
,
00001000
00000000
01000000
00000000
,
00010000
10000000
10000000
00000000
,
10000000
01000000
01000000
00000000
,
00100000
00010000
00010000
00000000
,
00010000
00001000
00001000
00000000
,
00001000
00000000
00000100
00000000
,
00000020
00000000
00000000
00000030
,
00000001
00000000
00000100
00000000
,
00002000
00000000
00000000
00003000
,
00010000
00000000
00100000
00000000
,
20000000
00000000
00000000
30000000
,
01000000
00000000
00100000
00000000
,
00010000
00000000
00000000
00000000
,
01000000
00010000
00100000
00000000
,
00100000
00001000
00010000
00000000
,
00010000
00000100
00001000
00000000
,
00001000
00000010
00000100
00000000
,
00001000
00000002
00000000
00000003
,
00000010
00000200
00000000
00000300
,
00010000
00002000
00000000
00003000
,
00100000
00020000
00000000
00030000
,
00010000
20000000
00000000
30000000
,
01000000
00200000
00000000
00300000
,
00001000
00020000
00000000
00030000
,
00000100
00000000
00000000
00000000
00000000
00000000
00000000
00000000
00000000
00000000
00000000
00000000
00000000
00000000
00000000
00000000
00002000
00000000
00000000
00000000
00000000
00000000
00000000
00000000
00000000
00000000
00000000
00000000
00000000
00000000
00000000
00000000
00000000
00000000
00000000
00000000
00000000
00000000
00000000
00000000
00000000
00000000
00000000
00000000
00000000
00000000
00000000
00003000
00000000
00000000
00000000
00000000
00000000
00000000
00000000
00000000
00000000
00000000
00000000
00000000
00000000
00000000
00000000
00000000
,
00000110
00000000
00000010
00000000
,
00000001
00000000
00001000
00000000
,
00000010
00000000
00001000
00000000
,
00010000
00000000
01000000
00000000
,
01100000
00000000
01000000
00000000
,
10000000
00000000
00010000
00000000
,
01000000
00000000
00001000
00000000
,
00010000
00000000
00000010
00000000
,
00000100
00000010
00000010
00000000
,
00001000
00000001
00000001
00000000
,
00010000
00001000
00001000
00000000
,
01000000
00100000
00100000
00000000
,
10010000
00000000
00000000
00000000
;

//---------------dance-double - ----------------
#NOTES:
     dance-double:
     :
     Medium:
     6:
     0.331244,0.359210,0.019006,0.190058,0.000000,244.000000,242.000000,2.000000,20.000000,0.000000,0.000000,0.331244,0.359210,0.019006,0.190058,0.000000,244.000000,242.000000,2.000000,20.000000,0.000000,0.000000:
00000000
00000000
00000000
00000000
,
00000000
00000000
00000000
00000000
,
00000000
00000000
00000000
00000000
,
00000010
00000001
00001000
00000010
,
00010000
00000000
00001000
00100000
00000000
00010000
01000000
00000000
,
00100000
00000000
10000000
00000000
00100000
00010000
00000000
00000000
,
01000000
00100000
00010000
00000000
00001000
00010000
00001000
00000000
,
00000010
00000000
00001000
00000000
00001000
00000010
00000100
00000000
,
00000001
00000100
00000010
00000000
00001000
00000100
00010000
00000000
,
00002000
00000000
00013000
00010000
00001000
01000000
00010000
00000000
,
10000000
01000000
00100000
00001000
,
00020000
00000000
00031000
00001000
00010000
00000010
00001000
00000000
,
00000001
00000010
00000100
00001000
,
00000010
00000100
00001000
00000000
00010000
00000000
00001000
00000000
,
00100000
01000000
00010000
00000000
01000000
00000000
10000000
00000000
,
00010000
01000000
00100000
00000000
00010000
00000000
00001000
00000000
,
00000100
00000010
00000100
00000000
00001000
00000000
00010000
00000000
,
02000000
00000000
00100000
00000000
03100000
00000000
10000000
00010000
,
00200000
00000000
00001000
00000000
00301000
00000000
00100000
00001000
,
00020000
00000000
00001000
00000000
00031000
00000000
00010000
00000010
,
00002000
00000000
00000001
00000000
00003001
00000100
00000010
00000000
,
00000200
00000000
00000010
00000000
00000310
00000000
00001000
00000001
,
00000200
00000000
00001000
00000000
00001300
00000000
00001000
00010000
,
00002000
00000000
00010000
00000000
00013000
00000000
00001000
01000000
,
00020000
00000000
10000000
00000000
10030000
01000000
00100000
00000000
,
00200000
00300000
20000000
30000000
,
02000000
03000000
00020000
00030000
,
00002000
00003000
00000020
00000030
,
00002002
00000000
00003003
00000000
,
00001000
00000010
00000000
00000100
00000001
00000000
00000010
00000000
,
00000010
00000001
00000000
00001000
00000010
00000000
00000100
00000100
,
00001000
00010000
00000000
00001000
00100000
00000000
00010000
00000000
,
10000000
00100000
00000000
01000000
00010000
00000000
00100000
00100000
,
00001000
00010000
00000000
00000100
00001000
00000000
00000010
00000000
,
00000100
00000001
00000000
00001000
00000100
00000000
00000010
00000000
,
00000100
00010000
00001000
00000000
00010000
00001000
01000000
00000000
,
00100000
00000000
01000000
00000000
00000000
00010000
00010000
00000000
,
10000000
00010000
00100000
00000000
00100000
00001000
00000000
00000000
,
00010000
00000100
00001000
00000000
00000100
00000010
00001000
00000000
,
00000010
00000001
00000100
00000000
00000100
00001000
00000000
00000000
,
00000000
00010000
01000000
00000000
00000000
10000000
00100000
00000000
,
00100000
01000000
10000000
00000000
10000000
01000000
00000000
00000000
,
00010000
00100000
00010000
00000000
00001000
00010000
00001000
00000000
,
00000100
00000010
00000100
00000000
00000010
00000001
00000000
00000000
,
00000000
00000001
00000100
00000000
00000000
00000100
00001000
00000000
,
00010000
00000000
00001000
00000000
00010000
01000000
10000000
00000000
,
00010000
00000000
10000000
00000000
00100000
01000000
00100000
00000000
,
00010000
00000000
00001000
00000000
00010000
00001000
00000100
00000000
,
00000010
00000100
00000001
00000000
00001000
00000000
00000001
00000000
,
00000010
00000100
00000010
00000000
00001000
00000000
00010000
00000000
,
00001000
00010000
00100000
00000000
10000000
00000000
00100000
00000000
,
10000000
01000000
00100000
00000000
00100000
01000000
10000000
00000000
,
10000000
00010000
01000000
00000000
00001000
00010000
00001000
00000000
,
00022000
00000000
00000000
00000000
,
00033000
00000000
00000000
00000000
;

//---------------dance-double - ----------------
#NOTES:
     dance-double:
     :
     Hard:
     8:
     0.355680,0.359210,0.076023,0.237573,0.104532,262.000000,254.000000,8.000000,25.000000,0.000000,0.000000,0.355680,0.359210,0.076023,0.237573,0.104532,262.000000,254.000000,8.000000,25.000000,0.000000,0.000000:
00000000
00000000
00000000
00000000
,
00000000
00000000
00000000
00000000
,
00000000
00000000
00000000
00000000
,
00001100
00000000
00011000
00000000
00100000
00010000
00000000
20000000
,
00000000
01000000
01000000
31000000
,
00100000
00001000
00010000
00000000
00001000
00010000
00000010
00000000
,
00000001
00001000
00000100
00000000
00000010
00000100
00010000
00001000
,
00010000
00000000
01000000
10000000
01000000
00100000
00000000
00010000
,
00100000
00001000
00000000
00010000
00001000
00000010
00000000
00000000
,
00002000
00000000
00003010
00000000
00000010
00000100
00000001
00001000
,
00000200
00000000
00010300
00000000
00010000
00001000
01000000
00000000
,
00020000
00000000
10030000
00000000
01000000
10000000
00100000
00000000
,
01000000
00001000
00000000
00010000
00000000
00000100
00001000
00000000
,
00000001
00000000
00000010
00010000
00000100
00000000
00010000
00001000
,
00100000
00000000
00010000
10000000
01000000
00000000
10000000
01000000
,
00010000
00000000
00001000
00000000
00000100
00000000
00000001
00000100
,
00000010
00000000
00001000
00000000
00010000
01000000
00000000
10000000
,
00200000
00000000
00000000
00010000
00000000
00000000
00001000
00000000
00000000
00000000
00301000
00000000
00010000
00000000
00000000
00000000
,
00000020
00000000
00000000
00001000
00000000
00000000
00000001
00000000
00000000
00000000
00000031
00000000
00000010
00000000
00000000
00000000
,
00020000
00000000
00000000
00001000
00000000
00000000
00001000
00000000
00000000
00000000
00031000
00000000
01000000
00000000
00000000
00000000
,
20000000
00000000
00100000
00000000
30010000
00100000
01000000
00000000
,
01010000
00000000
00001000
00000000
00000000
00010000
00000000
00000000
00001000
00000000
00000000
00000100
00000000
00000000
00000001
00000000
,
00000000
00000000
00000100
00000000
00000000
00001000
00000000
00000000
00020000
00000000
00000000
00000000
00000000
00000000
00000000
00000000
,
00030000
00000000
00001000
00000000
00000000
00010000
00000000
00000000
00001000
00000000
00000000
00100000
00000000
00000000
00010000
00000000
,
02000000
00000000
10000000
13000000
,
00200000
00300000
00020000
00030000
,
00002000
00003000
00020000
00030000
,
00000200
00000300
00000020
00000030
,
00000202
00000000
00000303
00000000
,
00000010
00000000
00001000
00000000
00000001
00000000
00000000
00000010
00000000
00000000
00001000
00000000
00000100
00000000
00000000
00010000
,
00000000
00000000
00001000
00000000
00010000
00000000
00000000
00001000
00000000
00000000
00100000
00000000
00010000
00000000
00000000
00000000
,
01000000
00000000
00010000
00000000
10000000
00000000
00000000
01000000
00000000
00000000
00010000
00000000
00100000
00000000
00000000
00001000
,
00000000
00000000
00010000
00000000
00001000
00000000
00000000
00010000
00000000
00000000
00000100
00000000
00001000
00000000
00000000
00000010
,
00000001
00000000
00001000
00000000
00000010
00000000
00000000
00010000
00000000
00000000
00010000
00000000
00001000
00000000
00000000
01000000
,
00000000
00000000
01000000
00000000
00010000
00000000
00000000
00010000
00000000
00000000
00100000
00000000
00010000
00000000
00000000
10000000
,
01000000
00000000
00010000
00000000
01000000
00000000
00000000
00001000
00000000
00000000
00001000
00000000
00010000
00000000
00000000
00000010
,
00000000
00000000
00000010
00000000
00001000
00000000
00000000
00001000
00000000
00000000
00000100
00000000
00001000
00000000
00000000
00000000
,
00020000
00000000
01030000
00000000
00100000
01000000
10000000
00010000
,
02000000
00000000
03001000
00000000
00010000
00001000
00000010
00000000
,
00000002
00000000
00001003
00000000
00000100
00000001
00000010
00000000
,
00000100
00001000
00000000
00010000
00000000
01000000
00100000
00000000
,
10000000
00000000
00100000
00010000
00001000
00010000
00001000
00000000
,
00000100
00000000
00000010
00001000
00000010
00000000
00000001
00000100
,
00001000
00000000
00010000
00000000
01000000
00010000
00000000
00010000
,
10000000
01000000
00000000
01000000
00100000
00000000
01010000
00000000
,
00001000
00010000
00000000
00010000
00001000
00000000
00001010
00000000
,
00001000
00000000
00000100
00001000
00000001
00000010
00000100
00000000
,
00000010
00000000
00000010
00001000
00000100
00000000
00010000
00000000
,
00002000
00100000
00000000
01000000
00000000
00013000
00100000
00000000
,
00100000
01000000
00000000
10000000
00010000
00000000
00110000
00000000
,
00001000
00000000
00000010
00001000
00000001
00000000
00000100
00000000
,
00001000
00000000
00000001
00000100
00001000
00000000
00010000
00000000
,
00020000
00100000
00000000
01000000
00000000
10030000
01000000
00000000
,
22000000
00000000
00000000
00000000
,
33000000
00000000
00000000
00000000
;

//---------------dance-single - ----------------
#NOTES:
     dance-single:
     :
     Challenge:
     16:
     0.790099,0.783989,0.427631,0.218567,0.845758,582.000000,537.000000,45.000000,23.000000,0.000000,0.000000,0.790099,0.783989,0.427631,0.218567,0.845758,582.000000,537.000000,45.000000,23.000000,0.000000,0.000000:
// measure 0
0000
0000
0000
0000
,  // measure 1
0000
0000
0000
0000
,  // measure 2
0000
0000
0000
0000
,  // measure 3
0010
0001
0100
0000
0010
1000
0100
0000
0010
0001
1000
0100
0010
0001
0010
0200
,  // measure 4
1000
0000
0000
0000
0001
0000
0000
0000
0301
0000
0010
0000
1000
0100
0000
1000
,  // measure 5
0100
0010
0001
0000
0101
0000
1000
0100
0010
0000
0001
0000
1000
0000
0001
0020
,  // measure 6
1000
0000
0000
0000
0100
0000
0000
0000
1030
0000
0000
0000
1010
0000
1000
0100
,  // measure 7
0010
0000
0001
0000
1001
0000
0000
0000
1100
0000
0101
0000
0001
1000
0100
0010
,  // measure 8
0001
0000
0101
0000
1000
0100
0010
0001
0100
0000
0101
0000
1000
0010
0100
0001
,  // measure 9
0010
0000
0100
0010
0100
0000
1000
0001
1000
0000
0100
0000
0010
0001
1000
0020
,  // measure 10
0100
0000
0001
0000
0130
0010
0001
1000
,  // measure 11
0010
0001
0100
0000
0010
1000
0100
0000
0010
0001
1000
0100
0010
0001
1000
0100
,  // measure 12
0010
0001
0010
0001
0010
0001
0010
0001
0010
0001
0010
0000
0010
0001
0000
0001
,  // measure 13
0100
0010
1000
0000
1010
0000
0010
1000
0100
0000
0010
0000
0001
1000
0001
0000
,  // measure 14
1001
0000
0000
0000
1010
0000
1100
0000
1001
0000
0000
0000
0101
0000
1000
0100
,  // measure 15
0010
0000
0011
0000
0011
0000
0000
0000
1000
0100
0010
0001
0100
0000
0101
0000
,  // measure 16
0100
0010
0001
0010
0100
0000
1100
0000
1000
0010
0100
0001
1000
0000
1001
0000
,  // measure 17
1000
0000
0100
1000
0000
1000
0100
0000
0110
0000
0011
0000
0110
0000
0000
0000
,  // measure 18
0001
0000
0001
0010
0000
0010
0100
0000
0110
0000
1100
0000
0110
0000
0000
0000
,  // measure 19
1000
0000
0010
1000
0000
1000
0100
0000
1100
0000
0110
0000
1100
0000
0000
0000
,  // measure 20
0010
0000
0100
0001
0000
0001
0010
0000
0011
0000
0110
0000
0011
0001
1000
0100
,  // measure 21
0020
0000
0001
0000
0031
0010
0100
1000
0100
0000
1000
0100
0000
1000
0100
0010
,  // measure 22
0002
0000
0100
0000
0000
0103
0000
0000
0100
0001
1000
0100
0010
0001
0100
0010
,  // measure 23
2000
0000
0010
0000
0000
3010
0000
1000
0010
0100
0001
1000
0100
0010
0001
0010
,  // measure 24
0200
0000
1000
0000
0000
0301
0000
0010
0001
0100
0010
1000
0001
0100
0010
0100
,  // measure 25
0020
0000
1000
0000
0000
0001
0000
0000
1000
0000
0031
0000
0100
0010
1000
0001
,  // measure 26
0200
0000
1000
0000
0000
0001
0000
0000
1000
0000
0301
0000
1000
0100
0010
0001
,  // measure 27
2000
0000
0010
0000
0000
0001
0000
0000
0100
0000
3010
0000
1000
0100
0010
0002
,  // measure 28
0100
0000
0000
0000
0013
0000
0000
0000
0011
0000
0000
0101
0000
0000
1010
0000
,  // measure 29
1000
0000
0100
1000
0001
1000
0100
0000
0010
0000
0001
0010
1000
0010
0001
0000
,  // measure 30
0100
0000
1000
0010
0100
0001
0010
0000
0002
0000
0023
0000
0230
0000
1300
0000
,  // measure 31
0010
0000
1000
0010
0001
0010
1000
0000
0100
0000
0001
1000
0100
0010
1000
0000
,  // measure 32
0010
0000
1000
0100
0010
0001
0010
0000
2000
0000
3020
0000
0032
0000
0103
0000
,  // measure 33
0010
0000
1000
0010
0001
0100
1000
0000
0010
0000
1000
0100
0001
0010
0100
0000
,  // measure 34
0010
0000
0001
0100
0010
1000
0100
0000
0020
0000
0230
0000
0302
0000
1003
0000
,  // measure 35
0010
0000
1000
0100
0010
0001
0100
0000
0010
0000
0001
0010
1000
0100
0010
0000
,  // measure 36
0200
0000
0000
0000
0301
0000
0000
0000
1100
0000
1100
0000
1000
0001
0000
0000
,  // measure 37
1001
0000
0001
1000
0100
0000
0010
0001
1000
0000
0010
0000
0100
0001
0010
0001
,  // measure 38
0100
0010
1000
0010
0100
0000
1000
0001
0010
0000
0100
0000
1000
0010
0100
0001
,  // measure 39
0010
0000
0100
1000
0010
0000
0100
0001
0010
0000
0100
0000
1000
0000
1000
0100
,  // measure 40
1000
0100
1000
0100
1000
0100
1000
0100
1000
0100
1000
0000
1000
0100
0000
0100
,  // measure 41
1000
0000
0010
1000
0100
0000
0010
0001
1000
0000
0100
0000
0010
0100
0001
0000
,  // measure 42
0010
0001
0100
0000
0010
1000
0100
0000
1000
0100
0010
0001
0100
0000
0010
1000
,  // measure 43
0100
0010
0001
0000
0101
0000
0001
0000
0100
0010
1000
0001
0010
0000
0110
0000
,  // measure 44
0010
1000
0100
0001
0010
0000
0110
0000
0100
1000
0010
0001
0100
0000
0110
0000
,  // measure 45
0010
0000
1000
0010
0100
0000
0001
1000
0100
0000
0010
0000
0001
1000
0100
0010
,  // measure 46
0001
0010
0100
1000
0010
0000
1000
0100
0010
0000
0001
0100
0010
0000
1000
0000
,  // measure 47
0010
0001
0100
0000
0010
1000
0100
0000
1000
0100
0010
0001
0010
0000
0001
0100
,  // measure 48
0001
0100
0001
0100
0001
0100
0001
0100
0001
0100
0001
0000
0001
0100
0000
0100
,  // measure 49
0001
0000
1000
0100
0010
0000
0001
1000
0100
0000
0010
0000
0001
0100
0010
1000
,  // measure 50
0100
0000
0010
1000
0100
0000
0010
0001
1000
0000
0010
0000
0100
0000
1000
0010
,  // measure 51
0001
0100
1000
0000
1100
0000
1000
0000
0100
0001
1000
0001
0010
0000
0011
0000
,  // measure 52
0010
0001
1000
0001
0010
0000
0011
0000
1000
0010
0100
0001
0010
0000
0011
0000
,  // measure 53
0202
0000
0000
0000
,  // measure 54
0000
0000
0000
0000
,  // measure 55
0303
0000
0000
0000
;
