#TITLE:JERK IT OUT;
#SUBTITLE:;
#ARTIST:CAESARS;
#TITLETRANSLIT:;
#SUBTITLETRANSLIT:;
#ARTISTTRANSLIT:;
#GENRE:;
#CREDIT:;
#BANNER:JERK IT OUT.png;
#BACKGROUND:JERK IT OUT-bg.png;
#LYRICSPATH:;
#CDTITLE:;
#MUSIC:JERK IT OUT.ogg;
#OFFSET:0.000000;
#SAMPLESTART:7.520000;
#SAMPLELENGTH:15.000000;
#SELECTABLE:YES;
#DISPLAYBPM:134.000000;
#BPMS:0.000000=111.800003
,4.000000=134.000000
,80.000000=133.500000
,84.000000=134.000000
,101.000000=133.500000
,104.000000=134.000000
,140.000000=134.300003
,144.000000=134.000000
,204.000000=134.500000
;
#STOPS:
;
#BGCHANGES:;
#KEYSOUNDS:;
#ATTACKS:;

//---------------dance-single - ----------------
#NOTES:
     dance-single:
     :
     Beginner:
     4:
     0.137925,0.184965,0.050815,0.000000,0.000000,95.000000,90.000000,5.000000,0.000000,0.000000,0.000000,0.137925,0.184965,0.050815,0.000000,0.000000,95.000000,90.000000,5.000000,0.000000,0.000000,0.000000:
0000
0000
0000
0000
,
0000
0000
0000
0000
,
1001
0000
1000
0000
,
0001
0000
1000
0000
,
1001
0000
0001
0000
,
1000
0000
0001
0000
,
0110
0000
1000
0000
,
0010
0000
0100
0000
,
0110
0000
0100
0000
,
0100
0000
0100
0000
,
0100
0000
0100
0000
,
0100
0000
0010
0010
,
0000
0100
0000
0100
,
0000
0100
0000
0100
,
0000
0100
0000
0010
,
0000
0100
0000
1000
,
0000
1000
0000
0100
,
0000
0010
0000
1000
,
0000
0100
0000
0100
,
0000
0100
0000
0100
,
0000
0010
0000
0000
,
0100
0100
0000
0000
,
0100
0000
1000
0000
,
0100
0100
0000
1000
,
0000
0100
0000
0010
,
0000
0010
0000
0000
,
0010
0000
0000
0000
,
0100
0000
0000
0000
,
0010
0000
1000
0000
,
1000
0000
0100
0000
,
0010
0000
1000
0000
,
1000
0000
0100
0000
,
0010
0000
1000
0000
,
0010
0010
0000
1000
,
0000
0001
0000
0100
,
0000
0000
0000
0000
,
1000
0000
0100
0000
,
0100
0100
0000
0000
,
0100
0000
1000
0000
,
0100
0100
0000
0000
,
0100
0000
0100
0000
,
1000
0000
1000
0000
,
0010
0000
0000
0000
,
0100
0000
1000
0000
,
0010
0000
0000
0000
,
0001
0000
1000
0000
,
0100
0000
0000
0000
,
1000
0000
0000
0000
,
0010
0000
0000
0000
,
1000
0000
0001
0000
,
0010
0000
0000
0000
,
0000
0000
0000
0000
,
1001
0000
0000
0000
;

//---------------dance-single - ----------------
#NOTES:
     dance-single:
     :
     Easy:
     6:
     0.248265,0.290659,0.081303,0.152444,0.000000,171.000000,163.000000,8.000000,15.000000,0.000000,0.000000,0.248265,0.290659,0.081303,0.152444,0.000000,171.000000,163.000000,8.000000,15.000000,0.000000,0.000000:
0000
0000
0000
0000
,
0000
0000
0000
0000
,
1001
0100
1000
0100
,
0001
0100
1000
0100
,
1001
0100
0001
0100
,
1000
0100
0001
0100
,
0110
0010
1000
0100
,
0010
0001
0100
0010
,
0110
1000
0100
0001
,
0100
1000
0100
0001
,
0100
1000
0100
0010
,
0100
0001
0010
0010
,
1001
0100
1000
0100
,
0001
0100
1000
0100
,
0001
0100
0010
0010
,
0001
0100
0010
1000
,
0001
1000
0100
0100
,
1000
0010
0100
1000
,
1001
0100
0001
0100
,
1000
0000
0100
0000
0001
0000
0100
0001
,
1000
0010
0100
0000
,
0100
0100
0010
0000
,
0100
0001
1000
0010
,
0100
0000
0100
0000
0010
0000
1000
0100
,
0010
0000
0100
0000
0000
0000
0010
0001
,
0100
0010
0002
0000
,
0020
0000
0000
0000
0000
0000
0000
0033
,
0100
0000
0000
0000
,
0010
0001
1000
0010
,
1000
0100
0100
0010
,
0010
0001
1000
0010
,
1000
0100
0100
0010
,
0010
0001
1000
0100
,
0010
0010
0001
1000
,
0010
0001
1000
0100
,
0220
0000
0000
0330
,
1000
0000
0100
0000
,
0100
0100
0010
0000
,
0100
0001
1000
0010
,
0100
0000
0100
0000
0010
0000
0000
1000
,
0100
0000
0010
0000
0100
0000
0010
0001
,
1000
0100
2000
0000
,
0020
0000
0000
0000
0000
0000
0000
3030
,
0100
0000
0000
0000
1000
0010
0100
0001
,
0020
0000
0000
0030
,
0002
0003
2000
3000
,
0200
0000
0000
0300
,
2000
0000
0000
3000
,
0020
0000
0000
0030
,
2000
3000
0002
0003
,
0020
0000
0000
0000
,
0000
0000
0000
0030
,
1001
0000
0000
0000
;

//---------------dance-single - ----------------
#NOTES:
     dance-single:
     :
     Medium:
     9:
     0.355702,0.369930,0.071140,0.243910,0.005081,245.000000,238.000000,7.000000,24.000000,0.000000,0.000000,0.355702,0.369930,0.071140,0.243910,0.005081,245.000000,238.000000,7.000000,24.000000,0.000000,0.000000:
0000
0000
0000
0000
,
0000
0000
0000
0000
,
1001
0000
2000
0000
3100
1000
0100
0000
,
0010
0000
0002
0000
0103
0001
0100
0000
,
0010
0000
2000
0000
3100
1000
0100
0000
,
0010
0000
0002
0000
0103
0001
0100
0000
,
0110
0010
1000
0100
,
0010
0001
0100
0010
,
1001
0000
2000
0000
3100
1000
0100
0000
,
0010
0000
0002
0000
0103
0001
0100
0000
,
0010
0000
0000
0000
1000
0000
0000
0100
0010
0000
0000
0000
0100
0000
0000
0000
,
0010
0001
1000
0001
,
1001
0000
0002
0000
0103
0001
0100
0000
,
0010
0000
2000
0000
3100
1000
0100
0000
,
1000
0000
0001
0000
0010
0100
0010
0000
,
0001
0000
0100
0000
0010
1000
0001
0000
,
1000
0000
0001
0000
0100
0010
0100
0000
,
0001
0010
0100
1000
,
1010
0000
0100
0000
0001
0010
0100
0000
,
1100
0000
0010
0100
0001
0000
0010
0001
,
1000
0010
0100
0000
0001
0000
0010
0100
,
0000
1000
0000
0200
0010
0000
0010
0300
,
0010
0000
0001
0000
1000
0000
0010
1000
,
0100
0010
0001
0100
0010
0000
0010
1000
,
0100
0010
0001
0000
0100
0000
0010
0100
,
0001
1000
0100
2000
0010
0000
0010
0000
,
0020
0000
0000
0000
0000
0000
0000
3030
,
0100
0000
0001
1000
0010
0100
0010
0000
,
0000
0001
1000
0010
,
0100
0000
0100
0000
0100
0010
0100
0000
,
0010
0001
1000
0010
,
1000
0000
0100
0000
1000
0100
0010
0001
,
0100
0000
0001
0000
1000
0010
0100
0000
,
0001
0000
0010
0100
1000
0100
0010
0000
,
0001
0000
1000
0000
0001
0100
0010
0000
,
2000
0000
0000
0000
0000
3000
0010
1000
,
0001
0000
0100
0000
0001
0000
0010
0100
,
1000
0010
0100
0020
0000
0000
0000
0030
,
0100
0000
0001
0000
1000
0000
0010
1000
,
0100
1000
0100
0010
0001
1000
0100
0010
,
0001
0000
1000
0000
0010
0000
0100
0001
,
1000
0010
0100
0002
0010
0000
0010
0000
,
0020
0000
0000
0000
0000
0000
0000
0033
,
1000
0010
1000
0100
1000
0010
0100
0001
,
0020
0000
0000
0031
,
2000
3100
0002
0103
,
0020
1030
0200
0301
,
2000
0001
0001
3001
,
2000
3100
0002
0103
,
1000
0100
1000
0000
0001
0100
0001
0000
,
0020
0000
0000
0000
,
0030
0000
0001
0010
0100
1000
0001
0000
,
1001
0000
0000
0000
;

//---------------dance-single - ----------------
#NOTES:
     dance-single:
     :
     Hard:
     10:
     0.425390,0.449201,0.284562,0.294724,0.050815,293.000000,265.000000,28.000000,29.000000,0.000000,0.000000,0.425390,0.449201,0.284562,0.294724,0.050815,293.000000,265.000000,28.000000,29.000000,0.000000,0.000000:
0000
0000
0000
0000
,
0000
0000
0000
0000
,
1001
0000
0000
0000
0100
0000
0000
1000
0001
0000
0100
0000
0010
0000
0000
0000
,
0110
0000
0000
0000
0001
0000
0000
1000
0010
0000
0100
0000
0001
0000
0000
0000
,
1100
0000
0000
0000
0001
0000
0000
1000
0010
0000
0100
0000
0001
0000
0000
0000
,
0101
0000
0000
0000
0001
0000
0000
1000
0010
0000
0100
0000
0001
0000
0000
0000
,
1010
1000
0100
0000
0010
0001
0100
0000
,
0010
1000
0100
0010
0001
0000
0100
0101
,
0000
0000
0000
0000
1000
0000
0000
0100
0010
0000
0001
0000
0100
0000
0000
0000
,
0101
0000
0000
0000
0001
0000
0000
0010
0100
0000
1000
0000
0100
0000
0000
0000
,
0010
0100
0001
1000
0010
1000
0100
0010
,
0000
0001
0010
0100
1000
0001
0000
0010
,
0000
0000
0001
0000
1000
0000
0000
0001
0100
0000
0010
0000
1000
0000
0000
0000
,
1010
0000
1000
0000
0010
0000
0000
1000
0100
0000
0010
0000
0001
0000
0010
0000
,
0100
1000
0001
0000
0010
0100
1000
0001
,
0010
0000
0100
0100
0000
0000
1000
0001
,
1000
0001
1000
0000
0100
0010
0001
1000
,
0001
0000
0100
0020
0000
0000
0030
0100
,
0101
0000
0000
0000
0001
0000
0000
0010
0100
0000
1000
0000
0001
0000
0000
0000
,
0110
0000
0000
0000
0001
0000
0000
1000
0100
0000
1000
0000
0001
0000
0010
0000
,
0001
0000
0100
0000
0000
0000
0100
0010
,
0000
0100
0010
0020
0000
0000
0000
0030
,
0100
0000
0001
0000
1000
0000
0010
1000
,
0100
1000
0100
1100
0000
0000
1000
0100
,
0010
0000
0001
0000
1000
0000
0100
0010
,
0001
0000
0010
0002
0000
0023
0000
0000
,
0230
0000
2300
0000
3020
0000
0130
0001
,
1000
0000
1000
0100
0010
0001
0100
0000
,
0210
0301
0012
0013
,
2010
3100
0012
0013
,
0100
1000
0001
0000
0100
0001
1000
0000
,
0001
1000
0100
0000
1000
0100
0010
0001
,
0210
0000
0301
0000
1020
0000
1000
0030
,
1002
0000
0100
0000
0010
0010
0010
0003
,
1000
0001
1000
0100
,
2002
0000
0000
0000
0000
3003
0010
0001
,
1000
0000
0100
0000
0010
0000
0001
0010
,
0100
1000
0100
0020
0000
0000
0030
0001
,
0100
0000
0001
0000
1000
0000
0010
1000
,
0100
1000
0100
0010
0001
1000
0100
0010
,
0001
0010
0100
1000
0100
0010
0001
1000
,
0100
0010
0001
0002
0000
0000
0023
0000
,
0200
0000
0030
0000
0000
0000
0000
1300
,
0000
0000
1000
0100
0010
0001
0100
0001
,
0020
0001
0001
0031
,
2010
3010
0102
0103
,
1200
1000
1000
1300
,
0012
0010
0010
0013
,
0021
0001
0001
0031
,
2001
3001
0012
0013
,
0120
0100
0001
0100
,
0030
0000
1000
0100
0010
0001
0100
0000
,
1001
0000
0000
0000
;

//---------------dance-double - ----------------
#NOTES:
     dance-double:
     :
     Easy:
     6:
     0.246814,0.290659,0.071140,0.152444,0.000000,170.000000,163.000000,7.000000,15.000000,0.000000,0.000000,0.246814,0.290659,0.071140,0.152444,0.000000,170.000000,163.000000,7.000000,15.000000,0.000000,0.000000:
00000000
00000000
00000000
00000000
,
00000000
00000000
00000000
00000000
,
10010000
01000000
10000000
01000000
,
00010000
01000000
10000000
01000000
,
00100000
00001000
00010000
00000100
,
00000001
00000100
00001000
00000100
,
00011000
00100000
00010000
00100000
,
01000000
10000000
01000000
00100000
,
01100000
10000000
01000000
00010000
,
01000000
10000000
01000000
00010000
,
01000000
10000000
01000000
00100000
,
00010000
00100000
00001000
00010000
,
00011000
00000100
00001000
00000100
,
00000001
00000100
00001000
00000100
,
00000001
00000100
00000010
00000010
,
00000001
00000100
00000010
00001000
,
00000001
00001000
00000100
00000100
,
00001000
00000010
00000100
00001000
,
00001001
00000100
00000001
00000100
,
00000010
00000000
00010000
00000000
00001000
00000000
01000000
00010000
,
10000000
00100000
01000000
00000000
,
01000000
01000000
00100000
00000000
,
01000000
00010000
10000000
00100000
,
01000000
00000000
01000000
00000000
00100000
00000000
10000000
01000000
,
00100000
00000000
00001000
00000000
00000000
00000000
00010000
00000100
,
00000010
00000010
00000002
00000000
,
00000020
00000000
00000000
00000000
00000000
00000000
00000000
00000033
,
00000100
00000000
00000000
00000000
,
00000010
00000001
00001000
00000010
,
00001000
00000100
00000100
00000010
,
00000010
00000001
00001000
00000010
,
00001000
00000100
00000010
00000001
,
00000010
00000100
00010000
00001000
,
00100000
01000000
10000000
00010000
,
00100000
00010000
10000000
01000000
,
02200000
00000000
00000000
03300000
,
10000000
00000000
01000000
00000000
,
01000000
01000000
00100000
00000000
,
00001000
00010000
00000100
00001000
,
00000100
00000000
00000100
00000000
00000010
00000000
00000000
00001000
,
00000100
00000000
00000010
00000000
00000100
00000000
00000010
00000001
,
00001000
00000100
00002000
00000000
,
00000020
00000000
00000000
00000000
00000000
00000000
00000000
00003030
,
00000100
00000000
00000000
00000000
00001000
00000010
00000100
00000001
,
00000020
00000000
00000000
00000030
,
00000200
00000300
00020000
00030000
,
00002000
00000000
00000000
00003000
,
02000000
00000000
00000000
03000000
,
00200000
00000000
00000000
00300000
,
20000000
30000000
00020000
00030000
,
00200000
00000000
00000000
00000000
,
00000000
00000000
00000000
00300000
,
10010000
00000000
00000000
00000000
;

//---------------dance-double - ----------------
#NOTES:
     dance-double:
     :
     Medium:
     9:
     0.357154,0.369930,0.060977,0.243910,0.005081,246.000000,240.000000,6.000000,24.000000,0.000000,0.000000,0.357154,0.369930,0.060977,0.243910,0.005081,246.000000,240.000000,6.000000,24.000000,0.000000,0.000000:
00000000
00000000
00000000
00000000
,
00000000
00000000
00000000
00000000
,
10010000
00000000
20000000
00000000
31000000
10000000
01000000
00000000
,
00100000
00000000
00020000
00000000
01030000
00010000
01000000
00000000
,
00100000
00000000
00002000
00000000
00013000
00001000
00010000
00000000
,
00000010
00000000
00002000
00000000
00003100
00001000
00000100
00000000
,
00000110
00000010
00001000
00000100
,
00000010
00000001
00000100
00000010
,
00001001
00000000
00002000
00000000
00003100
00001000
00000100
00000000
,
00010000
00000000
00002000
00000000
00013000
00001000
00010000
00000000
,
00001000
00000000
00000000
00000000
00100000
00000000
00000000
01000000
00100000
00000000
00000000
00000000
01000000
00000000
00000000
00000000
,
00100000
00001000
00010000
00000100
,
00001000
00000000
00000002
00000000
00000103
00000001
00000100
00000000
,
00000010
00000000
00002000
00000000
00003100
00001000
00000100
00000000
,
00001000
00000000
00000001
00000000
00000010
00000100
00000010
00000000
,
00000001
00000000
00000100
00000000
00000010
00001000
00000001
00000000
,
00000100
00000000
00010000
00000000
00001000
00010000
00001000
00000000
,
01000000
00100000
01000000
10000000
,
10100000
00000000
01000000
00000000
00010000
00100000
01000000
00000000
,
11000000
00000000
00100000
00010000
01000000
00000000
00001000
00010000
,
00000100
00000010
00000100
00000000
00000001
00000000
00000010
00000100
,
00000000
00001000
00000001
00000200
00000010
00000000
00000010
00000300
,
00000010
00000000
00000001
00000000
00001000
00000000
00000100
00010000
,
00001000
00100000
00010000
01000000
00100000
00000000
00100000
10000000
,
01000000
00100000
00010000
00000000
01000000
00000000
00100000
01000000
,
00010000
10000000
01000000
20000000
00100000
00000000
00100000
00000000
,
00200000
00000000
00000000
00000000
00000000
00000000
00000000
30300000
,
01000000
00000000
00010000
00100000
00001000
00010000
00000010
00000000
,
00001000
00000001
00001000
00000010
,
00000100
00000000
00000100
00000000
00000100
00000010
00000100
00000000
,
00000010
00000001
00001000
00000010
,
00001000
00000000
00000100
00000000
00001000
00000100
00000010
00000001
,
00000100
00000000
00000001
00000000
00001000
00000010
00000100
00000000
,
00000001
00000000
00000010
00000100
00001000
00000100
00000010
00000000
,
00000001
00000000
00001000
00000000
00000001
00000100
00000010
00000000
,
00002000
00000000
00000000
00000000
00000000
00003000
00000010
00010000
,
00001000
00000000
00100000
00000000
00010000
00000000
00100000
01000000
,
10000000
00100000
01000000
00200000
00000000
00000000
00000000
00300000
,
01000000
00000000
00010000
00000000
10000000
00000000
00100000
10000000
,
01000000
10000000
01000000
00100000
00010000
10000000
01000000
00100000
,
00001000
00000000
00010000
00000000
00000010
00000000
00001000
00000001
,
00001000
00000010
00000100
00000002
00000010
00000000
00000010
00000000
,
00000020
00000000
00000000
00000000
00000000
00000000
00000000
00000033
,
00001000
00000010
00001000
00000100
00001000
00000010
00000100
00000001
,
00000020
00000000
00000000
00000031
,
00000200
00001300
00020000
00031000
,
00200000
00310000
02000000
03100000
,
20000000
00010000
00010000
30010000
,
20000000
31000000
00020000
01030000
,
10000000
01000000
10000000
00000000
00010000
01000000
00010000
00000000
,
00200000
00000000
00000000
00000000
,
00300000
00000000
00010000
00100000
01000000
10000000
00010000
00000000
,
10010000
00000000
00000000
00000000
;

//---------------dance-double - ----------------
#NOTES:
     dance-double:
     :
     Hard:
     10:
     0.416679,0.449201,0.233747,0.294724,0.050815,287.000000,264.000000,23.000000,29.000000,0.000000,0.000000,0.416679,0.449201,0.233747,0.294724,0.050815,287.000000,264.000000,23.000000,29.000000,0.000000,0.000000:
00000000
00000000
00000000
00000000
,
00000000
00000000
00000000
00000000
,
10010000
00000000
00000000
00000000
01000000
00000000
00000000
10000000
00010000
00000000
01000000
00000000
00100000
00000000
00000000
00000000
,
01000000
00000000
00000000
00000000
00001000
00000000
00000000
00010000
00000010
00000000
00000100
00000000
00000001
00000000
00000000
00000000
,
00001100
00000000
00000000
00000000
00000001
00000000
00000000
00001000
00000010
00000000
00000100
00000000
00000001
00000000
00000000
00000000
,
00000101
00000000
00000000
00000000
00000001
00000000
00000000
00001000
00000010
00000000
00010000
00000000
00001000
00000000
00000000
00000000
,
00100000
00010000
01000000
00000000
00100000
10000000
01000000
00000000
,
10000000
10000000
01000000
00100000
00010000
00000000
01000000
01010000
,
00000000
00000000
00000000
00000000
10000000
00000000
00000000
01000000
00100000
00000000
00010000
00000000
01000000
00000000
00000000
00000000
,
01010000
00000000
00000000
00000000
00010000
00000000
00000000
00100000
01000000
00000000
10000000
00000000
01000000
00000000
00000000
00000000
,
00100000
00001000
00010000
00000100
00001000
00000001
00000100
00000010
,
00000000
00001000
00000010
00000100
00000001
00001000
00000000
00000010
,
00000000
00000000
00000001
00000000
00001000
00000000
00000000
00000001
00000100
00000000
00000010
00000000
00001000
00000000
00000000
00000000
,
00001010
00000000
00001000
00000000
00000010
00000000
00000000
00001000
00000100
00000000
00000010
00000000
00000001
00000000
00000010
00000000
,
00000100
00010000
00001000
00000000
00100000
01000000
10000000
00010000
,
00100000
00000000
01000000
01000000
00000000
00000000
10000000
00010000
,
00000000
00010000
10000000
00000000
01000000
00100000
00010000
10000000
,
00010000
00000000
01000000
00200000
00000000
00000000
00300000
01000000
,
00010000
00000000
00000000
00000000
00100000
00000000
00000000
00001000
00010000
00000000
00001000
00000000
00010000
00000000
00000000
00000000
,
00000010
00000000
00000000
00000000
00001000
00000000
00000000
00000001
00000100
00000000
00000001
00000000
00001000
00000000
00000010
00000000
,
00001000
00000000
00000100
00000000
00000000
00000000
00010000
00001000
,
00000000
01000000
00100000
00200000
00000000
00000000
00000000
00300000
,
01000000
00000000
00010000
00000000
10000000
00000000
00100000
10000000
,
01000000
10000000
01000000
11000000
00000000
00000000
10000000
01000000
,
00100000
00000000
00010000
00000000
10000000
00000000
01000000
00100000
,
00010000
00000000
00100000
00020000
00000000
00230000
00000000
00000000
,
02300000
00000000
23000000
00000000
30200000
00000000
01300000
00010000
,
10000000
00000000
00010000
01000000
00001000
00010000
00000100
00000000
,
00000210
00001300
00000012
00000013
,
00002010
00003100
00000012
00000013
,
00000100
00000001
00001000
00000000
00000100
00010000
00001000
00000000
,
00100000
00010000
10000000
00000000
00100000
01000000
00100000
10000000
,
02000000
00000000
13000000
00000000
10200000
00000000
10000000
00300000
,
10020000
00000000
01000000
00000000
00100000
00100000
00100000
00030000
,
01000000
00001000
00010000
00000100
,
00002002
00000000
00000000
00000000
00000000
00003003
00000010
00000001
,
00001000
00000000
00000100
00000000
00000010
00000000
00000001
00000010
,
00000100
00001000
00000100
00000020
00000000
00000000
00000030
00000001
,
00000100
00000000
00000010
00000000
00010000
00000000
00001000
00010000
,
00001000
00100000
01000000
00100000
00010000
10000000
01000000
00100000
,
00010000
00100000
01000000
10000000
01000000
00100000
00010000
10000000
,
01000000
00100000
00010000
00020000
00000000
00000000
00230000
00000000
,
02000000
00000000
00300000
00000000
00000000
00000000
00000000
13000000
,
00000000
00000000
10000000
01000000
00100000
00010000
01000000
00010000
,
00200000
00010000
00010000
00310000
,
20100000
30100000
01020000
01030000
,
02010000
00010000
00010000
03010000
,
00012000
00010000
00010000
00013000
,
00001020
00001000
00001000
00001030
,
00002001
00003001
00000012
00000013
,
00000120
00000100
00000001
00000100
,
00000030
00000000
00001000
00000100
00000010
00000001
00000100
00000000
,
00001001
00000000
00000000
00000000
;

//---------------dance-single - ----------------
#NOTES:
     dance-single:
     :
     Challenge:
     14:
     0.631552,0.850636,0.518308,0.355702,0.426842,435.000000,384.000000,51.000000,35.000000,0.000000,0.000000,0.631552,0.850636,0.518308,0.355702,0.426842,435.000000,384.000000,51.000000,35.000000,0.000000,0.000000:
// measure 0
0000
0000
0000
0000
,  // measure 1
0000
0000
0000
0000
,  // measure 2
1100
0000
0000
0000
1001
0000
0000
0001
0200
0000
0010
0000
0310
0000
0000
0000
,  // measure 3
1010
0000
0000
0000
1001
0000
0000
0001
2000
0000
0100
0000
3100
0000
0000
0000
,  // measure 4
1010
0000
0000
0000
0101
0000
0000
0001
0020
0000
0100
0000
0130
0000
0000
0000
,  // measure 5
1100
0000
0000
0000
0110
0000
0000
0010
0002
0000
1000
0000
1003
0000
0000
0000
,  // measure 6
1000
0001
0100
0000
0001
1000
0100
0000
,  // measure 7
1000
0000
0100
0001
1000
0000
0100
1000
0001
0000
0010
0000
0001
0000
0100
0000
,  // measure 8
0110
0000
0000
0000
1001
0000
0000
0001
0200
0000
1000
0000
1300
0000
0000
0000
,  // measure 9
1010
0000
0000
0000
0101
0000
0000
0001
2000
0000
0001
0000
3001
0000
0000
0000
,  // measure 10
1000
0010
0001
0010
1000
0100
0001
0010
,  // measure 11
1000
0010
0100
0001
1000
0100
0001
0100
,  // measure 12
1100
0000
0000
0000
1001
0000
0000
1000
0002
0000
0010
0000
0013
0000
0000
0000
,  // measure 13
0101
0000
0000
0000
1010
0000
0000
1000
0020
0000
0100
0000
0130
0000
0010
0000
,  // measure 14
1000
0001
0100
0001
1000
0001
0010
0001
,  // measure 15
0100
0010
1000
0001
0000
0001
1000
1000
,  // measure 16
0010
0010
0100
0100
1000
0001
1000
0001
,  // measure 17
0200
0000
0310
0100
0000
0100
0010
0100
,  // measure 18
0101
0000
0000
0000
1010
0000
0000
1000
0002
0000
0100
0000
0103
0000
0000
0000
,  // measure 19
1010
0000
0000
0000
0101
0000
0000
0001
0200
0000
0010
0000
0310
1000
0100
0010
,  // measure 20
0002
0000
0010
0000
0103
0000
1000
0100
,  // measure 21
0010
0000
0001
0100
0001
0000
0010
0000
0100
0000
0000
0000
0110
0000
0000
0010
,  // measure 22
0200
0000
1000
0000
0301
0000
1000
0100
,  // measure 23
0010
0001
0100
0010
0000
0010
0100
0010
,  // measure 24
1000
0000
0001
1000
0001
0000
0100
0000
0010
0000
1000
0001
1000
0000
0100
0000
,  // measure 25
0010
0000
0000
0000
0001
0000
1000
0100
0010
0001
1000
0100
0010
0001
1000
0010
,  // measure 26
0100
0001
1000
0010
0100
0001
1000
0010
0100
0001
0010
0100
1000
0100
0010
0001
,  // measure 27
0100
0000
0000
0100
0010
0000
0100
0000
0110
0000
0010
0000
1001
0000
0000
0000
,  // measure 28
2100
0000
0000
0000
3001
0000
0000
0001
0100
0000
0100
0000
0110
0000
0000
0000
,  // measure 29
1020
0000
0000
0000
0130
0000
0000
0100
0010
0000
0010
0000
0110
0000
0000
0000
,  // measure 30
1001
0000
0000
0001
1000
0000
0000
1000
0200
0000
0010
0000
0310
0000
0000
0000
,  // measure 31
1010
0000
0000
0010
0100
0000
0010
0000
0001
0010
0100
1000
0100
0010
0001
0000
,  // measure 32
0012
0000
0000
0000
0103
0000
0000
0100
1000
0000
1000
0000
1001
0000
0000
0000
,  // measure 33
1200
0000
0000
0000
0310
0000
0000
0010
0001
0000
1000
0000
1001
0000
0000
0000
,  // measure 34
1100
0000
0000
1000
0001
0000
0100
0000
0010
1000
0010
0000
0001
0000
0010
0000
,  // measure 35
0220
0000
0030
0000
0001
0000
0000
0000
1300
0000
0000
0000
0100
0010
0100
0000
,  // measure 36
0102
0000
0000
0000
1000
0000
0000
0000
0103
0000
0000
0000
0010
0001
0010
0000
,  // measure 37
0100
0000
0010
0001
0100
0010
1000
0000
0001
0000
1000
0000
1001
0000
0001
1000
,  // measure 38
0002
0000
0203
0000
0320
0000
1030
0001
,  // measure 39
0100
0000
0100
0000
0010
0000
0010
0000
1000
0000
0001
1000
0001
0000
0100
0000
,  // measure 40
0010
0000
0000
0001
1000
0000
0100
0000
0010
0000
0000
0100
0001
0000
1000
0000
,  // measure 41
0001
0000
1000
0001
1000
0000
0010
0100
0001
0010
0100
1000
0010
0100
0001
0010
,  // measure 42
0100
1000
0100
0010
0001
1000
0010
0100
0001
1000
0010
0100
0001
0010
0100
1000
,  // measure 43
0010
0000
0000
0010
0100
0000
0010
0000
0011
0000
0001
0000
1001
0000
0000
0000
,  // measure 44
2100
0000
0000
3100
0010
0000
0000
0010
0001
0000
0000
0001
0100
0000
0000
0000
,  // measure 45
1020
0130
0021
0130
,  // measure 46
1200
0000
0000
1300
0100
0000
0000
0100
0010
0000
0000
0010
0001
0000
0000
0000
,  // measure 47
0012
0000
0000
0103
0001
0000
0000
0001
0100
0000
0000
0100
0010
0000
0000
0000
,  // measure 48
2010
3100
0012
0103
,  // measure 49
0201
1300
1020
0031
,  // measure 50
0001
0010
0100
1000
0001
0100
0010
1000
0010
0001
0100
0010
1000
0100
0010
0000
,  // measure 51
0011
0000
0000
0001
0100
0000
0010
0000
1000
0000
0001
0000
1001
0000
0000
0000
,  // measure 52
2020
0000
0000
0000
,  // measure 53
0000
0000
0000
0000
,  // measure 54
3030
0000
0000
0000
;
