#TITLE:Inspiration;
#SUBTITLE:;
#ARTIST:DKC Crew;
#TITLETRANSLIT:;
#SUBTITLETRANSLIT:;
#ARTISTTRANSLIT:;
#GENRE:;
#CREDIT:;
#BANNER:Inspiration.png;
#BACKGROUND:Inspiration-bg.png;
#LYRICSPATH:;
#CDTITLE:;
#MUSIC:Inspiration.ogg;
#OFFSET:0.000000;
#SAMPLESTART:14.690000;
#SAMPLELENGTH:15.000000;
#SELECTABLE:YES;
#DISPLAYBPM:147.000000;
#BPMS:0.000000=147.541000
,4.000000=146.988998
;
#STOPS:
;
#BGCHANGES:;
#KEYSOUNDS:;
#ATTACKS:;

//---------------dance-single - ----------------
#NOTES:
     dance-single:
     :
     Beginner:
     3:
     0.116326,0.221020,0.019388,0.000000,0.000000,84.000000,82.000000,2.000000,0.000000,0.000000,0.000000,0.116326,0.221020,0.019388,0.000000,0.000000,84.000000,82.000000,2.000000,0.000000,0.000000,0.000000:
0000
0000
0000
0000
,
0000
0000
0000
0000
,
0000
0000
0000
0000
,
0000
0000
0000
0000
,
0000
0000
0000
0000
,
0001
0000
0000
0000
,
0001
0000
0000
0000
,
1000
0000
0000
0000
,
1000
0000
0000
0000
,
0001
0000
0001
0000
,
0001
0000
0000
0000
,
1000
0000
1000
0000
,
1000
0000
0000
0000
,
0010
0000
0010
0000
,
0010
0000
0000
0000
,
0100
0000
0100
0000
,
0100
0000
0000
0000
,
0001
0000
0000
0000
,
0100
0000
0000
0000
,
1000
0000
0000
0000
,
0100
0000
0000
0000
,
0001
0000
0000
0000
,
0010
0000
0000
0000
,
1000
0000
0000
0000
,
0010
0000
0000
0000
,
1000
1000
0000
0000
,
0100
0100
0000
0000
,
0001
0001
0000
0000
,
0100
0100
0000
0000
,
1000
1000
0000
0000
,
0010
0010
0000
0000
,
0001
0000
0000
0000
,
1000
0000
0000
0000
,
0001
0000
0000
0000
,
0010
0000
0010
0000
,
1000
0000
0000
0000
,
0001
0000
0001
0000
,
1000
0000
0000
0000
,
0100
0000
0100
0000
,
0010
0000
0000
0000
,
1001
0000
0000
0000
,
0001
0000
0100
0000
,
1000
0000
1000
0000
,
0001
0000
0010
0000
,
1000
0000
1000
0000
,
0001
0000
0100
0000
,
1000
0000
1000
0000
,
0001
0000
0000
0000
,
1000
0000
0000
0000
,
0010
0000
1000
0000
,
0100
0000
0000
0010
,
0010
0000
0001
0000
,
0100
0000
0000
0010
,
0010
0000
1000
0000
,
0100
0000
0000
0010
,
0010
0010
0010
0000
,
0100
0100
0100
0000
,
1001
0000
0000
0000
,
0000
0000
0000
0000
;

//---------------dance-single - ----------------
#NOTES:
     dance-single:
     :
     Easy:
     5:
     0.204956,0.221020,0.087245,0.058163,0.000000,148.000000,139.000000,9.000000,6.000000,0.000000,0.000000,0.204956,0.221020,0.087245,0.058163,0.000000,148.000000,139.000000,9.000000,6.000000,0.000000,0.000000:
0000
0000
0000
0000
,
0000
0000
0000
0000
,
0000
0000
0000
0000
,
0000
0000
0000
0000
,
0000
0000
0000
0000
,
0001
0000
0100
0000
,
1000
0000
0100
0000
,
0002
0000
0000
0003
,
2000
0000
0000
3000
,
0000
1000
0100
0001
,
0010
0000
0010
0000
,
0000
0001
0100
1000
,
0010
0000
0010
0000
,
0000
1000
0100
0001
,
0010
0000
0010
0000
,
1000
0000
0001
0000
,
2002
0000
0000
3003
,
0010
0000
1000
0000
,
0100
0000
1000
0001
,
1001
0000
0010
0000
,
0100
0000
0001
1000
,
1001
0000
0100
0000
,
0010
0000
1000
0001
,
1001
0000
0010
0000
,
0100
0000
0100
0000
,
0001
0100
0001
0000
,
1000
0100
1000
0000
,
0001
0010
0001
0000
,
1000
0010
1000
0000
,
0001
1000
0001
0000
,
0010
0100
0010
0000
,
1000
0000
0001
0000
,
2002
0000
0000
3003
,
0000
0001
0100
1000
,
0010
0010
0100
0100
,
0000
1000
0100
0001
,
0010
0010
0100
0100
,
0000
0001
0100
1000
,
0010
0010
0100
0100
,
0000
1000
0100
0001
,
1000
0000
0001
0000
,
0000
1000
0100
0001
,
0010
0100
0010
0100
,
0000
0001
0100
1000
,
0010
0100
0010
0100
,
0000
1000
0100
0001
,
0010
0100
0010
0100
,
1000
0000
0001
0000
,
1000
0001
1000
0001
,
1001
0000
0100
0000
,
0010
0000
0100
1000
,
1001
0000
0100
0000
,
0010
0000
0100
0001
,
1001
0000
0100
0000
,
0010
0000
0100
1000
,
1001
0000
0100
0000
,
0001
0001
1000
1000
,
0010
0000
0000
0000
,
0000
0000
0000
0000
;

//---------------dance-single - ----------------
#NOTES:
     dance-single:
     :
     Medium:
     7:
     0.300510,0.331530,0.281122,0.116326,0.000000,217.000000,188.000000,29.000000,12.000000,0.000000,0.000000,0.300510,0.331530,0.281122,0.116326,0.000000,217.000000,188.000000,29.000000,12.000000,0.000000,0.000000:
0000
0000
0000
0000
,
0000
0000
0000
0000
,
0000
0000
0000
0000
,
0000
0000
0000
0000
,
0000
0000
0000
0000
,
1000
0010
1000
0010
,
0001
0010
0001
0010
,
2000
0100
0001
3100
,
0002
0100
0000
0103
,
0000
0000
0001
0000
0010
0100
1000
0000
,
0001
0101
1000
1100
,
0000
0000
1000
0000
0010
0100
0001
0000
,
1000
1100
0001
0101
,
0000
0000
0001
0000
0010
0100
1000
0000
,
0001
0101
1000
1100
,
0000
0001
0010
0100
,
2002
0000
0000
3003
,
0100
0000
0010
0000
,
0010
1000
0001
0110
,
1001
0000
0001
0000
,
1000
0010
0001
0110
,
1001
0000
1000
0000
,
0001
0010
1000
0110
,
1001
0000
0001
0000
,
1000
0010
0001
0100
,
1000
0010
1000
0010
,
0001
0010
0001
0010
,
1000
0100
1000
0100
,
0001
0100
0001
0100
,
1000
0100
0001
0100
,
0010
0001
0100
1000
,
0001
0001
1000
1000
,
2002
0000
0000
3003
,
0000
0000
1000
0000
0010
0100
0001
0000
,
1000
1100
0001
0101
,
0000
0000
0001
0000
0010
0100
1000
0000
,
0001
0101
1000
1100
,
0000
0000
1000
0000
0010
0100
0001
0000
,
1000
1100
0001
0101
,
0000
0000
0001
0000
0010
0100
1000
0000
,
0001
0001
1000
1000
,
0000
0000
0001
0000
0010
0100
1000
0000
,
0002
0013
2000
3010
,
0000
0000
1000
0000
0010
0100
0001
0000
,
2000
3010
0002
0013
,
0000
0000
0001
0000
0010
0100
1000
0000
,
0002
0013
2000
3010
,
0000
0000
1000
0000
0100
0010
0100
0000
,
1000
1000
0001
0001
,
1001
0000
0010
1000
,
0100
0001
0010
0110
,
1001
0000
0010
0001
,
0100
1000
0010
0110
,
1001
0000
0010
1000
,
0100
0001
0010
0110
,
1001
0000
0010
0000
,
1000
1100
0001
0101
,
0010
0000
0000
0000
,
0000
0000
0000
0000
;

//---------------dance-single - ----------------
#NOTES:
     dance-single:
     :
     Hard:
     8:
     0.415451,0.442040,0.436224,0.155102,0.000000,300.000000,255.000000,45.000000,16.000000,0.000000,0.000000,0.415451,0.442040,0.436224,0.155102,0.000000,300.000000,255.000000,45.000000,16.000000,0.000000,0.000000:
0000
0000
0000
0000
,
0000
0000
0000
0000
,
0000
0000
0000
0000
,
0000
0000
0000
0000
,
0000
0000
0000
0000
,
0001
0100
0001
0100
,
1000
0100
1000
0100
,
0002
0010
1000
0013
,
2000
0010
0000
3010
,
0010
0000
1000
0100
0010
0001
0100
0000
,
1010
0101
0011
1100
,
0010
0000
0001
0100
0010
1000
0100
0000
,
0011
1100
1010
0101
,
0010
0000
1000
0100
0010
0001
0100
0000
,
1010
0101
0011
1100
,
0010
0000
0001
0100
0010
1000
0100
0000
,
2002
0000
0000
3003
,
0010
0010
0100
0100
,
0001
0010
1000
0010
0001
0000
0110
0000
,
1001
1000
0001
0001
,
0100
1000
0010
1000
0100
0000
0110
0000
,
1001
0001
1000
1000
,
0010
0001
0100
0001
0010
0000
0110
0000
,
1001
0010
0100
0100
,
0010
0101
0010
1100
,
0001
0100
1000
0000
0100
0000
0001
0000
,
1000
0100
0001
0000
0001
0100
1000
0000
,
1000
0010
0001
0000
0010
0000
1000
0000
,
0001
0010
1000
0000
1000
0010
0001
0000
,
0001
0010
0100
0000
1000
0000
0010
0000
,
0100
0001
0010
0000
0100
0000
1000
0000
,
0010
1000
0010
0000
0010
0001
0010
0000
,
2002
0000
0000
3003
,
0010
0000
0001
0100
0010
1000
0100
0000
,
0011
1100
1010
0101
,
0010
0000
1000
0100
0010
0001
0100
0000
,
1010
0101
0011
1100
,
0010
0000
0001
0100
0010
1000
0100
0000
,
0011
1100
1010
0101
,
0010
0000
1000
0100
0010
0001
0100
0000
,
2000
3100
0002
0103
,
1000
0000
0100
0010
0001
0100
0010
0000
,
2000
0100
3100
0000
0020
0100
0130
0000
,
0001
0000
0100
0010
1000
0100
0010
0000
,
0002
0100
0103
0000
0020
0100
0130
0000
,
1000
0000
0100
0010
0001
0100
0010
0000
,
2000
0100
3100
0000
0020
0100
0130
0000
,
0002
0013
2000
3010
,
0100
0110
0010
0110
,
1001
0000
0100
0000
0001
0100
1000
0000
,
0001
0010
0100
0010
0001
0000
0110
0000
,
1001
0000
0100
0000
1000
0100
0001
0000
,
1000
0010
0100
0010
1000
0000
0110
0000
,
1001
0000
0100
0000
0001
0100
1000
0000
,
0001
0010
0100
0010
0001
0000
0110
0000
,
1001
0001
1000
1000
,
0001
0011
1000
1010
,
0100
0000
0000
0000
,
0000
0000
0000
0000
;

//---------------dance-double - ----------------
#NOTES:
     dance-double:
     :
     Easy:
     4:
     0.192493,0.248648,0.067857,0.058163,0.000000,139.000000,132.000000,7.000000,6.000000,0.000000,0.000000,0.192493,0.248648,0.067857,0.058163,0.000000,139.000000,132.000000,7.000000,6.000000,0.000000,0.000000:
00000000
00000000
00000000
00000000
,
00000000
00000000
00000000
00000000
,
00000000
00000000
00000000
00000000
,
00000000
00000000
00000000
00000000
,
00000000
00000000
00000000
00000000
,
00000001
00000000
00000100
00000000
,
00001000
00000000
00000100
00000000
,
00002000
00000000
00000000
00003000
,
00020000
00000000
00000000
00030000
,
00000000
00010000
01000000
10000000
,
01000000
00000000
00010000
00000000
,
00000000
00001000
00000100
00000001
,
00000100
00000000
00001000
00000000
,
00000000
00010000
00100000
10000000
,
00100000
00000000
00010000
00000000
,
00001000
00000000
00000001
00000000
,
00002002
00000000
00000000
00003003
,
00000010
00000000
00001000
00000000
,
00000100
00000000
00010000
00001000
,
00010000
00000000
00100000
00000000
,
01000000
00000000
10000000
00010000
,
10000000
00000000
00100000
00000000
,
01000000
00000000
00001000
00010000
,
00001000
00000000
00000010
00000000
,
00000100
00000000
00000100
00000000
,
00000001
00000100
00000001
00000000
,
00001000
00000100
00001000
00000000
,
00010000
00001000
00010000
00000000
,
00100000
01000000
00100000
00000000
,
00100000
01000000
10000000
00000000
,
00100000
01000000
00010000
00000000
,
00001000
00000000
00010000
00000000
,
00022000
00000000
00000000
00033000
,
00000000
00001000
00000100
00000001
,
00000100
00000000
00001000
00000000
,
00000000
00010000
00100000
10000000
,
00100000
00000000
00010000
00000000
,
00000000
00001000
00000010
00000001
,
00000010
00000000
00001000
00000000
,
00000000
00010000
01000000
10000000
,
01000000
00100000
01100000
00000000
,
00000000
00001000
00000010
00000001
,
00000100
00000100
00001000
00001000
,
00000000
00010000
00100000
10000000
,
01000000
01000000
00010000
00010000
,
00000000
00001000
00000010
00000001
,
00000100
00000100
00001000
00001000
,
00000000
00010000
01000000
10000000
,
00010000
00010000
10000000
10000000
,
10010000
00000000
01000000
00000000
,
00001000
00000000
00010000
00000000
,
00011000
00000000
00000100
00000000
,
00000001
00000000
00001000
00000000
,
00001001
00000000
00000010
00000000
,
00010000
00000000
00001000
00000000
,
00011000
00000000
00100000
00000000
,
10000000
10000000
00010000
00010000
,
01000000
00000000
00000000
00000000
,
00000000
00000000
00000000
00000000
;

//---------------dance-double - ----------------
#NOTES:
     dance-double:
     :
     Medium:
     6:
     0.279737,0.303903,0.184183,0.145408,0.000000,202.000000,183.000000,19.000000,15.000000,0.000000,0.000000,0.279737,0.303903,0.184183,0.145408,0.000000,202.000000,183.000000,19.000000,15.000000,0.000000,0.000000:
00000000
00000000
00000000
00000000
,
00000000
00000000
00000000
00000000
,
00000000
00000000
00000000
00000000
,
00000000
00000000
00000000
00000000
,
00000000
00000000
00000000
00000000
,
00010000
01000000
00010000
00000000
,
10000000
01000000
10000000
00000000
,
00020000
00001000
00001000
00031000
,
00002000
00010000
00000000
00013000
,
00000000
00000000
00000100
00000000
00000001
00000010
00000100
00000000
,
00001000
00010000
00100000
10000000
,
00000000
00000000
00100000
00000000
10000000
01000000
00100000
00000000
,
00010000
00001000
00000100
00000001
,
00000000
00000000
00000100
00000000
00000001
00000010
00000100
00000000
,
00010000
00001000
01000000
00100000
,
00000000
01000000
00001000
00010000
,
00022000
00000000
00000000
00033000
,
00000010
00000000
00000100
00000000
,
00000010
00000001
00000100
00001100
,
00011000
00000000
01000000
00000000
,
00100000
10000000
01000000
01010000
,
00011000
00000000
00000100
00000000
,
00000010
00000001
00000100
00001100
,
00011000
00000000
01000000
00000000
,
00010000
01000000
10000000
00100000
,
00010000
01000000
00010000
01000000
,
00100000
00010000
00001000
00000010
,
00001000
00000100
00001000
00000100
,
00000010
00001000
00010000
00100000
,
00010000
00100000
10010000
00000000
,
01000000
10000000
01100000
00000000
,
10000000
01000000
00010000
00001000
,
00022000
00000000
00000000
00033000
,
00000000
00000000
01000000
00000000
10000000
00100000
01000000
00000000
,
00010000
00001000
00000010
00000001
,
00000000
00000000
00000010
00000000
00000001
00000100
00000010
00000000
,
00001000
00010000
01000000
10000000
,
00000000
00000000
01000000
00000000
10000000
00100000
01000000
00000000
,
00001000
00010000
00000100
00000010
,
00000000
00000001
00000100
00001000
,
00010000
00010000
00001000
00001000
,
00000000
00000000
00010000
00000000
00100000
00001000
01000000
00000000
,
00200000
20300000
32000000
03010000
,
00000000
00000000
00001000
00000000
00000010
00010000
00000100
00000000
,
00000020
00000032
00000203
00001300
,
00000000
00000000
00010000
00000000
00100000
00001000
01000000
00000000
,
00200000
20300000
32000000
03010000
,
00000000
00000000
00001000
00000000
00000010
00010000
00000100
00000000
,
00001000
00001000
00000001
00000001
,
00001001
00000000
00000100
00000001
,
00000010
00001000
00010000
00011000
,
00110000
00000000
01000000
10000000
,
00100000
00010000
00001000
00011000
,
00001100
00000000
00000010
00000001
,
00000100
00001000
00010000
00011000
,
00110000
00000000
01000000
00000000
,
10000000
11000000
00010000
01010000
,
00100000
00000000
00000000
00000000
,
00000000
00000000
00000000
00000000
;

//---------------dance-double - ----------------
#NOTES:
     dance-double:
     :
     Hard:
     9:
     0.398833,0.414413,0.261734,0.116326,0.000000,288.000000,261.000000,27.000000,12.000000,0.000000,0.000000,0.398833,0.414413,0.261734,0.116326,0.000000,288.000000,261.000000,27.000000,12.000000,0.000000,0.000000:
00000000
00000000
00000000
00000000
,
00000000
00000000
00000000
00000000
,
00000000
00000000
00000000
00000000
,
00000000
00000000
00000000
00000000
,
00000000
00000000
00000000
00000000
,
00001000
00000010
00001000
00000010
,
00010000
00100000
00010000
00100000
,
00002000
00000100
00010000
00003100
,
00020000
01000000
00000000
01030000
,
00100000
00000000
10000000
00010000
01000000
00001000
00010000
00000000
,
00000100
00000010
00000001
00000000
00000100
00000010
00001000
00000000
,
00000001
00000000
00000010
00001000
00010000
00100000
10000000
00000000
,
00010000
01000000
10000000
00000000
00001000
00010000
00100000
00000000
,
01000000
00000000
00010000
00100000
00001000
00010000
00000100
00000000
,
00000010
00000001
00001000
00000000
00000010
00000100
00000001
00000000
,
00001000
00000000
00010000
00100000
01000000
10000000
00100000
00000000
,
20020000
00000000
00000000
30030000
,
00100000
00100000
01000000
01000000
,
00100000
00010000
00001000
00000100
00000001
00000000
00000011
00000000
,
00001100
00001000
00000001
00000001
,
00000100
00000010
00010000
00001000
01000000
00000000
01100000
00000000
,
10010000
10000000
00010000
00010000
,
00100000
00001000
01000000
00010000
00100000
00000000
00101000
00000000
,
00010100
00000100
00000010
00000010
,
00000100
00001001
00000010
00001001
,
00000001
00000100
00001000
00000000
00010000
00000000
01000000
00000000
,
10000000
00100000
00010000
00000000
00001000
00000010
00000001
00000000
,
00000001
00000100
00001000
00000000
00010000
00000000
00100000
00000000
,
10000000
00100000
00010000
00000000
00001000
00000100
00000001
00000000
,
00001000
00000010
00000100
00000000
00000001
00000000
00000010
00000000
,
00000100
00010000
00100000
00000000
01000000
00000000
00010000
00000000
,
00001000
00000010
00001000
00000000
00010000
00100000
00010000
00000000
,
00022000
00000000
00000000
00033000
,
00000010
00000000
00000001
00001000
00000100
00010000
00001000
00000000
,
01000000
00100000
10000000
00000000
01000000
00100000
00010000
00000000
,
10000000
00000000
00100000
00010000
00001000
00000010
00000001
00000000
,
00001000
00000100
00000001
00000000
00010000
00001000
00000010
00000000
,
00000100
00000000
00001000
00000010
00010000
00001000
01000000
00000000
,
00100000
10000000
00010000
00000000
00100000
01000000
10000000
00000000
,
00010000
00000000
00001000
00000010
00000100
00000001
00000010
00000000
,
00001000
00001000
00000001
00000001
,
00000110
00000000
00000001
00000010
00001000
00000010
00000001
00000000
,
00020100
00030010
01002000
00103000
,
11000000
00000000
00100000
01000000
10000000
00100000
00010000
00000000
,
00012000
01003000
00010020
00001030
,
00000001
00000000
00000100
00000010
00001000
00000100
00000010
00000000
,
00000021
00000130
00012000
00103000
,
00010000
00100000
10000000
01000000
,
00100000
00100000
01000000
01000000
,
00011000
00000000
00000010
00000000
00000001
00000100
00001000
00000000
,
00010000
00100000
10000000
01000000
00010000
00000000
00001000
00000000
,
00011000
00000000
01000000
00000000
10000000
00100000
00010000
00000000
,
00001000
00000100
00000001
00000010
00001000
00000000
00010000
00000000
,
00011000
00000000
00000010
00000000
00000001
00000100
00001000
00000000
,
00010000
00100000
10000000
01000000
00010000
00000000
00001000
00000000
,
00011000
00001000
00010000
00011000
,
00101000
00011000
00010010
00011000
,
00000100
00000000
00000000
00000000
,
00000000
00000000
00000000
00000000
;

//---------------dance-single - ----------------
#NOTES:
     dance-single:
     :
     Challenge:
     16:
     0.781049,1.000892,0.222959,0.213265,0.906377,564.000000,541.000000,23.000000,22.000000,0.000000,0.000000,0.781049,1.000892,0.222959,0.213265,0.906377,564.000000,541.000000,23.000000,22.000000,0.000000,0.000000:
// measure 0
0000
0000
0000
0000
,  // measure 1
0000
0000
0000
0000
,  // measure 2
0000
0000
0000
0000
,  // measure 3
0000
0000
0000
0000
,  // measure 4
0000
0000
0000
0000
,  // measure 5
1000
0100
1000
0000
0001
0100
0001
0000
,  // measure 6
1000
0100
0001
0100
1000
0100
0001
0000
,  // measure 7
0010
0001
0100
0000
0010
1000
0100
0000
,  // measure 8
0200
0000
0000
0000
0010
0000
0000
0000
0000
0000
0000
0000
0310
0001
0100
0010
,  // measure 9
1000
0000
0100
0010
0001
0000
0100
0010
0001
0000
1000
0100
0010
0000
1000
0100
,  // measure 10
0010
0000
0000
0010
0001
0000
0000
0001
0100
0000
0010
0000
0001
0010
0100
1000
,  // measure 11
0010
0000
1000
0100
0010
0000
1000
0100
0010
0000
0100
0010
0001
0000
0100
0010
,  // measure 12
0001
0000
0000
0001
0010
0000
0000
0010
0100
0000
0010
0000
1000
0100
0010
0001
,  // measure 13
0100
0000
0010
0100
1000
0000
0010
0100
1000
0000
0100
0010
0001
0000
0100
0010
,  // measure 14
0001
0000
0000
0001
0010
0000
0000
0010
0100
0000
0001
0000
1000
0010
0001
0100
,  // measure 15
0010
1000
0010
1000
0100
1000
0100
1000
0001
1000
0001
1000
0100
0010
0001
0100
,  // measure 16
0020
0001
1030
1001
,  // measure 17
0200
0301
2000
3100
,  // measure 18
0000
0100
1000
0010
0100
0000
0101
0000
,  // measure 19
0020
0031
2000
3100
,  // measure 20
0002
0000
0103
0000
0000
0001
1000
0100
,  // measure 21
0020
0031
0200
0310
,  // measure 22
1000
0000
0000
1000
0100
0000
0000
0100
0010
0000
0100
0000
0001
0010
0100
1000
,  // measure 23
0200
0000
1000
1300
2000
0000
0001
0001
,  // measure 24
3002
0000
0010
0020
0003
0000
0130
0000
,  // measure 25
0110
0000
1000
0010
0100
0000
0001
0100
0010
0000
1000
0010
0100
0000
0001
0100
,  // measure 26
0010
0000
0000
0010
0100
0000
0000
0100
1000
0000
0001
0000
0010
0001
0100
0010
,  // measure 27
1000
0100
1000
0100
1000
0000
0100
0000
0010
0001
0010
0001
0010
0000
0001
0000
,  // measure 28
0100
0010
0100
0000
0010
0100
0010
0000
1001
0000
0001
0010
0100
1000
0100
0010
,  // measure 29
0001
0100
0001
0000
0010
1000
0010
0000
0001
0100
0010
1000
0200
0000
0310
0000
,  // measure 30
0110
0000
0000
0000
1100
0000
0000
0000
1000
0100
0010
0001
0100
0010
1000
0001
,  // measure 31
0010
0001
0010
0000
0001
0000
0100
0000
0010
1000
0010
0000
1000
0000
0100
0000
0010
0001
0010
0000
0001
0000
0100
0000
0010
0100
0010
0000
0100
0000
0002
0000
,  // measure 32
2000
0000
0000
3003
,  // measure 33
1100
0000
1000
0100
0010
0000
0001
0010
0100
0000
1000
0010
0100
0000
0010
0001
,  // measure 34
1000
0000
0001
0100
0010
0000
0001
0100
0010
0000
1000
0000
0010
0100
0001
1000
,  // measure 35
0100
0000
0010
0001
0100
0000
0010
1000
0001
0000
0100
0001
1000
0000
0100
1000
,  // measure 36
0010
0000
1000
0100
0010
0000
1000
0100
0010
0000
0001
0000
0010
0100
1000
0100
,  // measure 37
0010
0000
0001
0010
0100
0000
0001
0010
1000
0000
0100
0001
1000
0000
0100
0010
,  // measure 38
0001
0000
0010
1000
0100
0000
0010
1000
0100
0000
1000
0000
0100
1000
0010
1000
,  // measure 39
0100
0010
0100
0010
0001
0100
0001
0100
0010
0100
0010
0100
1000
0010
1000
0010
,  // measure 40
0200
0001
1300
1001
,  // measure 41
1010
0000
0010
0001
0100
0000
0010
1000
0100
0000
0100
0001
1000
0000
0010
0100
,  // measure 42
0001
0000
0010
0100
1000
0000
0010
0100
1000
0000
0100
0000
1000
0100
0010
0100
,  // measure 43
1000
0000
0010
0100
0001
0000
0100
0010
1000
0000
0010
0100
0001
0000
0100
0010
,  // measure 44
1000
0000
0001
0010
1000
0000
0001
0010
1000
0000
0100
0000
1000
0010
0001
0010
,  // measure 45
1000
0000
0100
0010
0001
0000
0100
0010
1000
0000
0001
0010
0100
0000
0100
0010
,  // measure 46
1000
0000
0100
0010
0001
0000
0100
0010
0001
0000
1000
0000
0001
0010
0100
0010
,  // measure 47
0001
0101
0011
0110
0101
1001
1100
1001
,  // measure 48
1010
1010
0101
0101
,  // measure 49
1000
0100
1000
0000
0100
0000
0010
0000
0001
0010
0001
0000
0010
0000
0100
0000
1000
0010
1000
0000
0010
0000
1000
0000
0100
0010
0100
0000
0010
0000
0100
0000
,  // measure 50
0001
0000
0010
0001
0100
0000
0010
1000
0100
0000
0101
0000
0001
0010
0100
1000
,  // measure 51
0010
0100
0010
0000
0100
0000
0010
0000
0001
0010
0001
0000
0010
0000
0100
0000
1000
0010
1000
0000
0010
0000
1000
0000
0100
0010
0100
0000
0010
0000
0100
0000
,  // measure 52
0001
0000
0010
0100
1000
0000
0010
0100
1000
0000
1100
0000
1000
0010
0001
0100
,  // measure 53
1000
0100
1000
0000
0100
0000
0010
0000
0001
0100
0001
0000
0100
0000
0010
0000
0100
0010
0100
0000
0010
0000
1000
0000
0010
0100
0010
0000
0100
0000
0001
0000
,  // measure 54
1000
0000
0010
0100
0001
0000
0100
0010
1000
0000
1001
0000
0001
0010
1000
0100
,  // measure 55
0001
0000
0000
0001
0010
0000
0000
0010
0100
0000
0010
0000
1000
0100
0010
0001
,  // measure 56
0200
0000
0000
0301
0020
0000
0000
0130
2000
0000
0000
3100
0002
0000
0000
0013
,  // measure 57
0200
0001
1000
0001
,  // measure 58
1000
0001
1000
0001
,  // measure 59
0300
0000
0000
0000
;
