#VERSION:0.83;
#TITLE:Innocent;
#SUBTITLE:(Taylor's Version);
#ARTIST:Taylor Swift;
#TITLETRANSLIT:;
#SUBTITLETRANSLIT:;
#ARTISTTRANSLIT:;
#GENRE:;
#ORIGIN:;
#CREDIT:;
#BANNER:;
#BACKGROUND:Innocent (Taylor's Version)-bg.png;
#PREVIEWVID:;
#JACKET:Innocent (Taylor's Version)-jacket.png;
#CDIMAGE:;
#DISCIMAGE:;
#LYRICSPATH:;
#CDTITLE:;
#MUSIC:Innocent (Taylor's Version).mp3;
#OFFSET:0.000000;
#SAMPLESTART:100.000000;
#SAMPLELENGTH:12.000000;
#SELECTABLE:YES;
#BPMS:0.000=145.000,
4.000=134.000,
457.000=136.000,
465.000=134.000;
#STOPS:;
#DELAYS:;
#WARPS:;
#TIMESIGNATURES:0.000=4=4;
#TICKCOUNTS:0.000=4;
#COMBOS:0.000=1;
#SPEEDS:0.000=1.000=0.000=0;
#SCROLLS:0.000=1.000;
#FAKES:;
#LABELS:0.000=Song Start;
#BGCHANGES:0.000=Innocent (Taylor's Version).mp4=1.000=0=0=0=StretchNoLoop====,
681.000=Innocent (Taylor's Version)-bg.png=1.000=0=0=1=====,
99999=-nosongbg-=1.000=0=0=0 // don't automatically add -songbackground-
;
#KEYSOUNDS:;
#ATTACKS:
;

//---------------dance-single - ----------------
#NOTEDATA:;
#CHARTNAME:;
#STEPSTYPE:dance-single;
#DESCRIPTION:;
#CHARTSTYLE:;
#DIFFICULTY:Hard;
#METER:12;
#RADARVALUES:0.260127,0.468510,0.170606,0.206696,0.003281,555.000000,503.000000,52.000000,63.000000,0.000000,0.000000,0.000000,0.000000,0.000000,0.260127,0.468510,0.170606,0.206696,0.003281,555.000000,503.000000,52.000000,63.000000,0.000000,0.000000,0.000000,0.000000,0.000000;
#CREDIT:;
#NOTES:
// measure 0
0000
0000
0000
0000
,  // measure 1
0000
0000
0000
0000
,  // measure 2
0000
0000
0000
0000
,  // measure 3
0000
0000
0000
0000
,  // measure 4
0000
0000
0000
0000
,  // measure 5
0000
0000
0000
0000
,  // measure 6
0000
0000
0000
0000
,  // measure 7
0000
0000
0000
0000
,  // measure 8
0000
0000
0000
0000
,  // measure 9
0001
1000
0100
0010
0001
0100
0010
0000
,  // measure 10
2000
0000
0000
3000
,  // measure 11
0000
0000
0000
0000
,  // measure 12
0000
0000
0000
0000
,  // measure 13
1000
0001
1000
0000
0100
0010
0200
0000
,  // measure 14
0302
0000
0000
0000
,  // measure 15
0003
0000
0000
0000
,  // measure 16
0000
0000
0000
0000
,  // measure 17
0001
0100
0001
1000
0100
1000
0010
0000
,  // measure 18
0200
0000
0000
0300
,  // measure 19
0000
0000
0000
0000
,  // measure 20
0000
0000
0000
0000
,  // measure 21
1000
0001
1000
0000
0100
0010
1000
0100
,  // measure 22
0020
0000
0000
0000
,  // measure 23
0030
0000
0000
0000
,  // measure 24
0000
0000
0000
0000
0000
0000
0001
0010
,  // measure 25
0001
0200
0000
0000
0000
0320
0000
0000
,  // measure 26
0000
1030
0000
0000
0001
1000
0002
0000
,  // measure 27
0203
0320
0000
0030
,  // measure 28
0000
0000
0000
0000
0000
0000
1000
0001
,  // measure 29
1000
0002
0000
0000
0000
0203
0000
0000
,  // measure 30
0000
0320
0000
0000
0000
1030
0010
0100
,  // measure 31
0000
0002
0000
0000
0000
0000
0000
0003
,  // measure 32
0000
0000
0000
0000
0000
0000
1000
0001
,  // measure 33
1000
0200
0000
0000
0000
0320
0000
0000
,  // measure 34
0000
1030
0000
1000
0001
0100
0010
0000
,  // measure 35
0110
0000
1001
1000
0010
0001
0200
0000
,  // measure 36
0000
0000
0300
0000
0010
0100
0010
1000
,  // measure 37
0001
2000
0000
0000
0000
3020
0000
0000
,  // measure 38
0000
0032
0000
0000
0000
0003
0000
0000
,  // measure 39
0000
0000
0000
0000
,  // measure 40
0000
0200
0010
0310
,  // measure 41
0000
1000
0000
0001
0000
0100
0010
0000
,  // measure 42
0011
0000
0000
0000
1000
0001
0100
0000
,  // measure 43
0000
0010
0000
0010
0000
0100
0010
0000
,  // measure 44
0110
0000
0000
0000
1000
0100
0010
0000
,  // measure 45
0001
0010
0000
0100
0001
0000
0220
0000
,  // measure 46
0000
0000
0000
0330
,  // measure 47
0000
0000
0000
0100
0010
1000
0001
0010
,  // measure 48
0200
0000
0000
0300
,  // measure 49
0000
0000
0000
0000
,  // measure 50
0000
0000
0000
0000
,  // measure 51
0000
0000
0000
1000
0001
0100
0010
1000
,  // measure 52
0200
0000
0000
0300
,  // measure 53
0000
0000
0000
0000
,  // measure 54
0000
0000
0000
0000
,  // measure 55
0000
0000
0000
0000
,  // measure 56
0000
0000
0000
0000
0000
0000
0000
1000
,  // measure 57
0001
0100
0000
0010
0100
0001
1000
0000
,  // measure 58
2002
0000
0000
3003
,  // measure 59
0000
0000
0000
0000
,  // measure 60
0000
0000
0000
0000
0000
0000
0000
0010
,  // measure 61
0000
0100
0000
1000
0010
0100
0001
1000
,  // measure 62
0002
0000
0000
0000
,  // measure 63
0000
0003
0000
0000
,  // measure 64
0000
0000
0000
0000
0000
0010
0100
0000
,  // measure 65
0110
0000
0100
0010
0001
0010
1000
0000
,  // measure 66
2200
0000
0000
3300
,  // measure 67
0000
0000
0000
0000
,  // measure 68
0000
0000
0000
0000
0000
1000
0010
0100
,  // measure 69
0001
1000
0001
0000
1001
1000
0100
0010
,  // measure 70
0002
0000
2003
0000
,  // measure 71
0000
0000
3000
0000
,  // measure 72
0000
0000
0000
0000
0000
0000
0010
0100
,  // measure 73
0010
1000
0000
0000
0000
1100
0000
0000
,  // measure 74
0000
1001
0000
0000
0001
0010
0001
0000
,  // measure 75
0101
0000
0010
0100
1000
0010
2020
0000
,  // measure 76
0000
0000
3030
0000
0000
1000
0001
1000
,  // measure 77
0100
0010
0000
0000
0000
0110
0000
0000
,  // measure 78
0000
1001
0000
0000
0001
0100
0010
1000
,  // measure 79
0100
0110
1010
0202
,  // measure 80
0000
0000
0303
0000
0000
0000
1000
0001
,  // measure 81
0100
0010
0000
0000
0000
1010
0000
0000
,  // measure 82
0000
0011
0000
0000
1001
0000
0100
0010
,  // measure 83
0001
1010
1100
0220
,  // measure 84
0330
0000
0000
0000
0000
0000
0001
0000
0100
0000
0001
0000
1000
0000
0000
1000
,  // measure 85
0000
1000
0200
0000
0000
0000
0320
0000
,  // measure 86
0000
0000
0000
0031
,  // measure 87
0000
0000
0000
0000
,  // measure 88
0000
0000
1000
0001
1000
0000
1001
0000
,  // measure 89
0000
0010
0000
0100
0000
0010
0100
0000
,  // measure 90
0110
0000
0000
0010
1000
0100
0010
0000
,  // measure 91
0001
1000
0000
1000
0001
1000
0100
0000
,  // measure 92
0110
0000
0000
0010
1000
0010
0001
0000
,  // measure 93
0010
0001
0000
0001
0100
0000
2001
0000
,  // measure 94
0000
0100
0010
0001
,  // measure 95
3010
0100
0000
0100
0010
0001
1000
0001
,  // measure 96
1001
0000
0000
0001
1000
0000
1001
0000
,  // measure 97
0200
0010
0000
0010
0000
0310
0100
0000
,  // measure 98
0110
0000
0000
0000
0100
0010
0100
0000
,  // measure 99
2000
0001
0000
0001
0000
3001
1000
0000
,  // measure 100
1001
0000
0000
0000
0010
0100
0010
0000
,  // measure 101
1000
0001
0000
0001
1000
0000
0020
0000
,  // measure 102
0001
0100
1000
0100
,  // measure 103
0031
0100
0000
0010
1000
0100
0010
0001
,  // measure 104
2000
0000
0000
0000
,  // measure 105
3000
0000
0000
0000
,  // measure 106
0000
0000
0000
0000
,  // measure 107
0000
0000
0000
0000
,  // measure 108
0000
0100
0000
0100
,  // measure 109
0000
0000
0010
0000
0010
0100
0000
0100
,  // measure 110
0000
1000
0000
1000
,  // measure 111
0000
0000
0001
0000
1000
0001
0000
0001
,  // measure 112
0000
0000
1001
0000
0010
0100
0000
0000
,  // measure 113
0010
0100
0000
0000
0100
0010
0000
1001
,  // measure 114
0000
0020
0000
0030
,  // measure 115
0000
0000
0001
1000
0001
1000
0100
0010
,  // measure 116
0100
0010
1000
0000
0000
0000
1001
0000
,  // measure 117
0000
0000
0010
0000
0100
0010
0000
0110
,  // measure 118
0000
0020
0100
0130
,  // measure 119
0000
0000
1001
0000
0001
1000
0000
1001
,  // measure 120
0000
0000
0110
0000
0010
0100
0000
0000
,  // measure 121
1000
0100
0000
0000
0001
0100
0000
0010
,  // measure 122
0000
0000
2000
0000
,  // measure 123
0000
0000
0000
0000
0000
0000
0000
0000
3000
0000
0000
0000
0001
0000
0000
0200
,  // measure 124
0000
0000
0320
0000
,  // measure 125
0000
0000
0000
0000
,  // measure 126
0000
0000
0000
0000
,  // measure 127
0000
0000
0030
0001
,  // measure 128
1000
0200
0000
0000
,  // measure 129
0000
0000
0000
0000
,  // measure 130
0000
0000
0000
0000
,  // measure 131
0000
0000
0000
0300
,  // measure 132
0000
0120
0230
0310
,  // measure 133
0000
0001
0000
1000
0000
0001
1000
0000
,  // measure 134
1001
0000
0000
0000
0010
1000
0100
0000
,  // measure 135
0010
0001
0000
0100
0000
0010
1000
0000
,  // measure 136
1001
0000
1000
0100
0010
0001
0100
0000
,  // measure 137
0010
0100
0000
0100
0010
0000
0001
0010
,  // measure 138
0100
1000
0100
0001
0100
1000
0100
0001
,  // measure 139
0100
0010
1000
0100
0010
0001
0100
0010
,  // measure 140
1000
0000
0001
1000
0001
0000
1001
0000
,  // measure 141
0100
0010
0000
1010
0000
0010
0100
0000
,  // measure 142
1001
0000
1000
0001
0100
0001
0010
0000
,  // measure 143
0001
0100
0000
0101
0000
0100
0010
0000
,  // measure 144
1001
0000
1000
0010
0100
0001
1000
0000
,  // measure 145
0001
0010
0000
0100
0010
0000
1000
0010
,  // measure 146
0001
0010
1000
0100
0001
0100
1000
0010
,  // measure 147
0100
0001
0000
0001
0100
0010
1000
0001
,  // measure 148
1001
0200
0001
1300
,  // measure 149
0010
0100
0020
0000
0001
0000
1030
0000
,  // measure 150
0100
0010
2000
0000
0001
0000
3100
0000
,  // measure 151
0010
0100
0001
1000
0010
0001
0100
0010
,  // measure 152
1000
0100
0002
0000
0010
0000
1003
0000
,  // measure 153
0010
0001
0200
0000
0010
0000
1300
0000
,  // measure 154
0010
1000
0020
0000
0100
0000
0031
0000
,  // measure 155
1000
0000
0001
0000
0100
0000
0010
1000
,  // measure 156
0100
0010
0002
0000
0000
0000
0003
0000
,  // measure 157
1000
0001
1000
0100
0010
0001
0100
0000
,  // measure 158
0201
0001
0010
0301
,  // measure 159
1000
0001
0200
0000
1000
0000
0310
0000
,  // measure 160
1000
0010
0110
0000
0101
0000
1100
0000
,  // measure 161
1000
0001
0100
0001
0010
0001
0100
0010
,  // measure 162
2000
0000
0000
0000
,  // measure 163
0000
0000
0000
0000
,  // measure 164
0000
0000
0000
0000
,  // measure 165
0000
0000
0000
0000
,  // measure 166
0000
0000
0000
0000
,  // measure 167
0000
0000
0000
0000
,  // measure 168
3000
0000
0000
0000
;

//---------------dance-single - ----------------
#NOTEDATA:;
#CHARTNAME:;
#STEPSTYPE:dance-single;
#DESCRIPTION:;
#CHARTSTYLE:;
#DIFFICULTY:Medium;
#METER:10;
#RADARVALUES:0.233411,0.440951,0.177168,0.177168,0.000000,498.000000,444.000000,54.000000,54.000000,0.000000,0.000000,0.000000,0.000000,0.000000,0.233411,0.440951,0.177168,0.177168,0.000000,498.000000,444.000000,54.000000,54.000000,0.000000,0.000000,0.000000,0.000000,0.000000;
#CREDIT:;
#NOTES:
0000
0000
0000
0000
,
0000
0000
0000
0000
,
0000
0000
0000
0000
,
0000
0000
0000
0000
,
0000
0000
0000
0000
,
0000
0000
0000
0000
,
0000
0000
0000
0000
,
0000
0000
0000
0000
,
0000
0000
0000
0000
,
0010
0001
0010
0000
0001
1000
0001
0000
,
0020
0000
0000
0000
,
0030
0000
0000
0000
,
0000
0000
0000
0000
,
0100
0010
0100
0000
0010
1000
0010
0000
,
2000
0000
0000
0000
,
3000
0000
0000
0000
,
0000
0000
0000
0000
,
0100
0010
0100
0000
0001
1000
0001
0000
,
0200
0000
0000
0000
,
0300
0000
0000
0000
,
0000
0000
0000
0000
,
1000
0010
1000
0000
0100
0010
0100
0000
,
0002
0000
0000
0000
,
0003
0000
0000
0000
,
0000
0000
0000
0000
0000
0000
1000
0001
,
1000
0002
0000
0000
0000
1003
0000
0000
,
0000
1001
0000
0000
0010
0100
0020
0000
,
0230
0302
0000
0003
,
0000
0000
0000
0000
0000
0000
0100
0010
,
0100
0020
0000
0000
0000
0130
0000
0000
,
0000
0110
0000
0000
0000
1000
0001
1000
,
0000
0020
0000
0000
0000
0000
0000
0000
,
0000
0030
0000
0000
0000
0000
0001
0010
,
0001
2000
0000
0000
0000
3001
0000
0000
,
0000
1001
0000
0000
1000
0010
1000
0000
,
0100
0110
0001
2001
,
0000
0000
3100
0000
1000
0100
0010
0001
,
0100
0020
0000
0000
0000
0130
0000
0000
,
0000
2002
0000
0000
0000
0000
0000
0000
,
0000
3003
0000
0000
0000
0000
0000
0000
,
0000
0110
0110
0110
,
0000
1000
0000
0001
0000
1000
0001
0000
,
1001
0000
0000
0000
0100
0010
0100
0000
,
0000
0010
0000
0100
0000
0010
0100
0000
,
1001
0000
0000
0000
1000
0001
1000
0000
,
0000
0010
0000
0100
0001
0000
1000
0000
,
0100
0010
0002
0000
0010
0000
1000
0000
,
0103
0001
0000
0001
0100
0000
1001
0000
,
0110
2000
0000
3000
,
0000
0000
0000
0000
,
0000
0000
0000
0000
,
0000
0000
0000
0000
0010
0001
0010
0000
,
0110
0200
0000
0300
,
0000
0000
0000
0000
,
0000
0000
0000
0000
,
0000
0000
0000
0000
,
0000
0000
0000
0000
0000
0000
0000
1000
,
0001
1000
0000
0100
0010
0100
0010
0000
,
0002
0000
0000
0000
,
0003
0000
0000
0000
,
0000
0000
0000
0000
0000
0000
0000
0001
,
0010
0001
0000
0100
0010
0100
0010
0000
,
2000
0000
0000
0000
,
3000
0000
0000
0000
,
0000
0000
0000
0000
0000
1000
0001
1000
,
0100
0001
0010
0001
0100
0000
0110
0000
,
1010
2000
0000
0000
,
0000
3000
0000
0000
,
0000
0000
0000
0000
0000
0000
0001
1000
,
0001
0000
0100
0000
0010
0000
1000
0001
,
1000
0100
0220
0000
,
0000
0000
0330
0000
,
0000
0000
0000
0000
0000
0000
0010
0001
,
0010
0002
0000
0000
0000
1003
0000
0000
,
0000
1001
0000
0000
0100
0010
0100
0000
,
0110
0010
1000
2002
,
0000
0000
3003
0000
0000
0000
0010
0100
,
0010
2000
0000
0000
0000
3001
0000
0000
,
0000
1001
0000
0000
0100
0010
0100
0000
,
0010
0001
0100
2000
,
0000
0000
3000
0000
0000
0000
1000
0010
,
0001
0200
0000
0000
0000
0310
0000
0000
,
0000
1010
0000
0000
1000
0100
1000
0000
,
0110
0000
0100
0001
0100
0000
2002
0000
,
3003
0000
1000
0001
1000
0000
0100
0010
,
0100
0110
1001
0110
,
1001
0210
0000
0020
,
0000
0000
0330
0110
,
0110
0011
0101
1010
,
0000
1000
0000
0001
0000
1000
0001
0000
,
1001
0000
0000
0000
0010
0100
0010
0000
,
0000
0001
0000
1000
0000
0001
1000
0000
,
1001
0000
0000
0000
0001
0100
0001
0000
,
1000
0001
0000
0001
1000
0000
0020
0000
,
1000
0100
0001
0100
,
1030
0001
0000
0001
0010
0000
0110
0000
,
1001
0000
0001
0010
0001
0000
1001
0000
,
0000
0100
0000
0010
0000
0100
0010
0000
,
0110
0000
0000
0000
0010
0100
0010
0000
,
0000
1000
0000
0001
0000
1000
0001
0000
,
1001
0000
0000
0000
1000
0100
1000
0000
,
0001
1000
0000
0001
1000
0000
2001
0000
,
0100
0001
0100
0010
,
3001
1000
0000
1000
0010
0000
0110
0000
,
1001
0002
0000
0000
,
0000
0003
0000
0000
,
0000
0000
0000
0000
,
0000
0000
0000
0000
,
0000
0020
0030
0020
,
0030
0000
0200
0000
0310
0100
0000
0100
,
0000
2000
3000
2000
,
3000
0000
0002
0000
1003
0001
0000
0001
,
0000
0000
0100
0000
0010
0100
0010
0000
,
1000
0010
1000
0000
0100
0010
0100
0000
,
0010
0002
0000
0000
,
0000
0000
0000
0003
,
0000
1000
0000
1001
,
0000
0000
0010
0000
0100
0010
0100
0000
,
0010
1000
0001
1001
,
1000
0010
1000
0000
0100
0010
0100
0000
,
0001
0000
1000
0000
0100
0010
0100
0000
,
0001
1000
0001
0000
0010
0100
0010
0000
,
1000
0001
1000
0000
0200
0000
0000
0000
,
0000
0000
0300
0010
,
0100
0000
0020
0000
,
0000
0000
0000
0000
,
0000
0000
0000
0000
,
0000
0000
0030
1000
,
0001
0200
0000
0000
,
0000
0000
0000
0000
,
0000
0000
0000
0000
,
0000
0300
0000
0000
,
0000
0000
0100
0000
0010
0100
0010
0000
,
0000
1000
0000
0001
0000
1000
0001
0000
,
0101
0000
1010
0000
1000
0001
1000
0000
,
0000
0100
0000
0010
0000
0100
0010
0000
,
0110
0000
1001
0000
0001
0010
0001
0000
,
0100
0010
0000
0100
0010
0000
1000
0010
,
0200
0001
0010
1000
,
0310
0000
0001
0010
0001
0000
0100
0010
,
0100
0000
1000
0001
1000
0000
1001
0000
,
0000
0001
0000
1000
0000
0010
0100
0000
,
0110
0000
0000
0000
0100
0010
0100
0000
,
0000
1000
0000
0001
0000
0010
0100
0000
,
1001
0000
0000
0000
1000
0100
1000
0000
,
0100
0010
0000
0100
0001
0000
0010
0001
,
0200
0010
1000
0010
,
0301
0000
0010
0001
0010
0000
0100
0010
,
0200
0000
0000
0000
,
0300
0000
0000
0000
,
0000
1000
0010
0100
,
0001
0000
0010
0000
0001
0010
0001
0000
,
0100
0020
0000
0000
,
0000
0030
0000
0000
,
0000
1000
0010
0001
,
0100
2000
0000
0000
,
0000
3000
0000
0000
,
1000
0001
1000
0000
0010
0100
0010
0000
,
0220
0000
0000
0330
,
0100
0001
0010
0001
,
1000
0000
0001
0000
,
0100
0001
0100
0000
0010
0001
0010
0000
,
2000
0000
0000
0000
,
0000
0000
0000
0000
,
0000
0000
0000
0000
,
0000
0000
0000
0000
,
0000
0000
0000
0000
,
0000
0000
0000
0000
,
3000
0000
0000
0000
;

//---------------dance-single - ----------------
#NOTEDATA:;
#CHARTNAME:;
#STEPSTYPE:dance-single;
#DESCRIPTION:;
#CHARTSTYLE:;
#DIFFICULTY:Easy;
#METER:6;
#RADARVALUES:0.149046,0.330713,0.082022,0.180449,0.000000,318.000000,293.000000,25.000000,55.000000,0.000000,0.000000,0.000000,0.000000,0.000000,0.149046,0.330713,0.082022,0.180449,0.000000,318.000000,293.000000,25.000000,55.000000,0.000000,0.000000,0.000000,0.000000,0.000000;
#CREDIT:;
#NOTES:
0000
0000
0000
0000
,
0000
0000
0000
0000
,
0000
0000
0000
0000
,
0000
0000
0000
0000
,
0000
0000
0000
0000
,
0000
0000
0000
0000
,
0000
0000
0000
0000
,
0000
0000
0000
0000
,
0000
0000
0000
0000
,
1000
0010
0100
0001
,
2000
0000
0000
0000
,
3000
0000
0000
0000
,
0000
0000
0000
0000
,
0010
0001
0100
0010
,
2000
0000
0000
0000
,
3000
0000
0000
0000
,
0000
0000
0000
0000
,
1000
0100
0010
0001
,
0200
0000
0000
0000
,
0300
0000
0000
0000
,
0000
0000
0000
0000
,
0001
0010
0100
1000
,
0002
0000
0000
0000
,
0003
0000
0000
0000
,
0000
0000
0000
1000
,
0100
0020
0030
0200
,
0300
0010
0001
1000
,
0001
0200
0000
0300
,
0000
0000
0000
0100
,
0010
2000
3000
0002
,
0003
0010
0000
0100
,
0010
2000
0000
3000
,
0000
0000
0000
1000
,
0010
0200
0300
0020
,
0030
0001
0010
1000
,
0001
1000
0010
0200
,
0300
0000
0010
0001
,
0100
0020
0030
2000
,
3000
0002
0000
0000
,
0000
0003
0000
0000
,
0000
0200
0010
0310
,
0000
2000
0001
3001
,
0000
0002
1000
1003
,
0000
0020
0100
0130
,
0000
0000
0010
0100
,
0000
0010
0001
0200
,
0000
0000
0000
0300
,
0000
0000
1000
0100
,
0110
0000
0000
0000
,
0000
0000
0000
0000
,
0000
0000
0000
0000
,
0000
0000
0001
0010
,
0110
0000
0000
0000
,
0000
0000
0000
0000
,
0000
0000
0000
0000
,
0000
0000
0000
0000
,
0000
0000
0000
0000
,
1000
1000
0001
0100
,
0020
0000
0000
0000
,
0030
0000
0000
0000
,
0000
0000
0000
0000
,
1000
0001
0100
0010
,
2000
0000
0000
0000
,
3000
0000
0000
0000
,
0000
0000
0000
1000
,
0010
0001
0010
1000
,
0002
0000
0000
0000
,
0003
0000
0000
0000
,
0000
0000
0000
0100
,
0010
0100
0001
1000
,
0002
0003
0200
0000
,
0000
0000
0300
0000
,
0000
0000
0000
0010
,
0001
2000
3000
0002
,
0003
0100
0010
1000
,
0001
0010
0001
2000
,
0000
3000
0000
0100
,
0010
0200
0300
0020
,
0030
0100
0010
0001
,
1000
0010
0100
0002
,
0000
0003
0000
0001
,
1000
0020
0030
0200
,
0300
0010
0000
1000
,
0001
1000
0100
0020
,
0030
0000
0010
0001
,
0100
0010
1000
0002
,
0000
0000
0003
0200
,
0000
0000
0300
0000
,
0000
0020
0100
0130
,
0000
0002
1000
1003
,
0000
2000
0001
3001
,
0000
0200
0010
0310
,
0000
1000
0100
0010
,
0001
0010
0100
2000
,
0000
0000
0000
3000
,
0000
0000
1010
0000
,
0101
0001
0010
0002
,
0003
0100
0010
0200
,
0310
0000
1000
0001
,
1000
0010
0100
0002
,
1003
0000
0001
1000
,
0010
0100
0001
0020
,
0000
0000
0000
0030
,
0000
0001
0010
0110
,
0000
1001
0000
0000
,
0000
0000
0000
0000
,
0000
0000
0000
0000
,
0000
0000
0000
0000
,
0000
0110
0000
0110
,
0000
1000
0001
1001
,
0000
1010
0000
0101
,
0000
1100
1000
1001
,
0011
0001
0100
0010
,
1000
0001
0010
0100
,
1000
0020
0000
0000
,
0000
0000
0000
0030
,
0000
0100
0000
0100
,
0000
0010
0100
0010
,
0000
1000
0000
1000
,
0000
0001
1000
0001
,
0000
0000
0010
0010
,
0000
0100
0100
1000
,
0001
0000
0020
0000
,
0000
0000
0030
0100
,
0010
0000
0200
0000
,
0000
0000
0000
0000
,
0000
0000
0000
0000
,
0000
0000
0300
0010
,
1000
0002
0000
0000
,
0000
0000
0000
0000
,
0000
0003
0000
0000
,
0000
0000
0000
0000
,
0000
1000
0001
1000
,
0000
0010
0100
0010
,
0110
0000
0100
0001
,
1000
0010
0001
0100
,
0110
0000
0010
1000
,
0001
0010
0100
2000
,
0000
0000
0000
3000
,
0000
0000
1100
0000
,
0011
0001
1000
0001
,
0000
0101
0100
0010
,
1000
0000
1001
0001
,
1000
0010
1010
1000
,
0001
0000
0010
0100
,
0010
1000
0100
0020
,
0000
0000
0000
0030
,
0000
0000
0011
0000
,
0101
0000
0000
0000
,
0000
0000
0000
0000
,
0000
0000
0000
0000
,
0000
0000
1010
0000
,
2200
0000
0000
0000
,
3300
0000
0000
0000
,
0000
0000
0000
0000
,
0000
0000
0000
0000
,
0000
0000
0000
0000
,
1000
0100
0010
0001
,
0100
0000
0010
1000
,
0001
0010
0001
0100
,
0010
1000
0100
0010
,
0001
1000
0001
0010
,
0200
0000
0000
0000
,
0000
0000
0000
0000
,
0000
0000
0000
0000
,
0000
0000
0000
0000
,
0000
0000
0000
0000
,
0000
0000
0000
0000
,
0300
0000
0000
0000
;
