#VERSION:0.83;
#TITLE:IT ONLY TAKES A MINUTE (Extended Remix);
#SUBTITLE:;
#ARTIST:TAVARES;
#TITLETRANSLIT:;
#SUBTITLETRANSLIT:;
#ARTISTTRANSLIT:;
#GENRE:;
#ORIGIN:;
#CREDIT:;
#BANNER:IT ONLY TAKES A MINUTE (Extended Remix).png;
#BACKGROUND:IT ONLY TAKES A MINUTE (Extended Remix)-bg.png;
#PREVIEWVID:;
#JACKET:IT ONLY TAKES A MINUTE (Extended Remix)-jacket.png;
#CDIMAGE:;
#DISCIMAGE:;
#LYRICSPATH:;
#CDTITLE:;
#MUSIC:IT ONLY TAKES A MINUTE (Extended Remix).ogg;
#OFFSET:0.000000;
#SAMPLESTART:9.572000;
#SAMPLELENGTH:15.000000;
#SELECTABLE:YES;
#DISPLAYBPM:122.000000;
#BPMS:0.000=122.000,
4.000=122.300,
24.000=122.500,
56.000=122.000,
80.000=121.500,
88.000=121.200,
95.000=121.500,
104.000=122.600,
120.000=122.500,
168.000=123.000;
#STOPS:;
#DELAYS:;
#WARPS:;
#TIMESIGNATURES:0.000=4=4;
#TICKCOUNTS:0.000=4;
#COMBOS:0.000=1;
#SPEEDS:0.000=1.000=0.000=0;
#SCROLLS:0.000=1.000;
#FAKES:;
#LABELS:0.000=Song Start;
#BGCHANGES:;
#KEYSOUNDS:;
#ATTACKS:
;

//---------------dance-single - ----------------
#NOTEDATA:;
#CHARTNAME:;
#STEPSTYPE:dance-single;
#DESCRIPTION:;
#CHARTSTYLE:;
#DIFFICULTY:Easy;
#METER:4;
#RADARVALUES:0.241831,0.273838,0.066385,0.000000,0.000000,153.000000,147.000000,6.000000,0.000000,0.000000,0.000000,0.000000,0.000000,0.000000,0.241831,0.273838,0.066385,0.000000,0.000000,153.000000,147.000000,6.000000,0.000000,0.000000,0.000000,0.000000,0.000000,0.000000;
#CREDIT:;
#DISPLAYBPM:122.000000;
#NOTES:
0000
0000
0000
0000
,
0000
0000
0000
0000
,
0000
0000
0000
0000
,
0000
0000
0000
0000
,
0000
0000
0000
0000
,
0010
0010
0100
0100
,
1000
0001
1000
0001
,
0010
0001
0010
0001
,
0100
1000
0100
1000
,
0010
0010
0100
0100
,
0001
1000
0001
1000
,
0010
1000
0010
1000
,
0100
0001
0100
1001
,
0100
0000
1000
1000
,
0010
0000
0001
0001
,
0100
0000
1000
1000
,
0010
0000
0001
0001
,
1000
1000
0001
0000
,
0001
0001
1000
0000
,
0010
0000
0100
0000
,
0010
0001
0100
1001
,
0100
0000
0001
1000
,
0010
0000
1000
0001
,
0100
0000
0001
1000
,
0010
0000
1000
0001
,
1000
0001
0100
0000
,
0001
1000
0010
0000
,
1000
1000
0001
0001
,
1001
0100
0100
1001
,
0010
0010
1000
0001
,
0100
0100
1000
0001
,
0010
1000
0010
1000
,
0100
0001
0100
0001
,
0010
0010
1000
0001
,
0100
0100
1000
0001
,
0010
1000
0010
1000
,
0100
0001
0100
1001
,
1000
0001
1000
0100
,
0001
1000
0001
0010
,
0100
0001
0100
0001
,
0010
1000
0010
1000
,
0001
1000
0001
0100
,
1000
0001
1000
0010
,
0100
1000
0100
1000
,
0001
0010
1000
0100
,
1001
0000
0000
0000
;

//---------------dance-single - ----------------
#NOTEDATA:;
#CHARTNAME:;
#STEPSTYPE:dance-single;
#DESCRIPTION:;
#CHARTSTYLE:;
#DIFFICULTY:Medium;
#METER:7;
#RADARVALUES:0.314538,0.348521,0.121706,0.000000,0.000000,199.000000,188.000000,11.000000,0.000000,0.000000,0.000000,0.000000,0.000000,0.000000,0.314538,0.348521,0.121706,0.000000,0.000000,199.000000,188.000000,11.000000,0.000000,0.000000,0.000000,0.000000,0.000000,0.000000;
#CREDIT:;
#DISPLAYBPM:122.000000;
#NOTES:
0000
0000
0000
0000
,
0000
0000
0000
0000
,
0000
0000
0000
0000
,
0000
0000
0000
0000
,
0000
0000
0000
0000
,
0001
0000
0001
0000
1000
0001
1000
0000
,
1000
0000
1000
0000
0001
1000
0001
0000
,
0010
0001
0010
0001
,
0100
1000
0100
1000
,
1000
0000
1000
0000
0001
1000
0001
0000
,
0001
0000
0001
0000
1000
0001
1000
0000
,
0010
0001
0010
0001
,
1000
0110
0001
1001
,
0010
0010
0001
0100
,
0010
0010
1000
0100
,
0010
1000
0001
0100
,
0010
0010
0001
1000
,
0001
0001
1000
0100
,
1000
1000
0001
1000
,
0001
0000
0001
1000
0100
0000
0100
0000
,
0010
0110
1000
1001
,
0010
0010
0001
0100
,
0010
0000
1000
0000
1000
0001
0010
0000
,
0010
1000
0001
0100
,
0010
0000
0010
0000
1000
0001
0100
0000
,
0001
0001
1000
0001
,
0001
0001
1000
0100
,
0010
1000
0100
0000
1000
0001
0010
0000
,
1000
0110
0001
0110
,
1000
0000
1000
0000
0001
1000
0001
0000
,
0001
0000
0001
0000
1000
0001
1000
0000
,
0010
0001
0010
0001
,
0100
1000
0100
1000
,
0100
0000
0100
0000
0010
1000
0100
0000
,
0010
0000
0010
0000
0010
0001
0100
0000
,
0010
1000
0010
1000
,
0100
1001
0010
0110
,
1000
1000
0001
0000
0001
0001
1000
0000
,
1000
0001
0001
0000
0001
1000
1000
0000
,
1000
0100
0001
0000
1000
0100
0001
0000
,
0001
0100
1000
0000
0001
0100
1000
0000
,
0010
1000
0001
0000
0010
1000
0001
0000
,
0010
0001
1000
0000
0010
0001
1000
0000
,
0001
0100
1000
0000
1000
0100
0001
0000
,
0010
1010
0001
0101
,
1001
0000
0000
0000
;

//---------------dance-single - ----------------
#NOTEDATA:;
#CHARTNAME:;
#STEPSTYPE:dance-single;
#DESCRIPTION:;
#CHARTSTYLE:;
#DIFFICULTY:Hard;
#METER:8;
#RADARVALUES:0.401471,0.472992,0.376181,0.000000,0.000000,254.000000,220.000000,34.000000,0.000000,0.000000,0.000000,0.000000,0.000000,0.000000,0.401471,0.472992,0.376181,0.000000,0.000000,254.000000,220.000000,34.000000,0.000000,0.000000,0.000000,0.000000,0.000000,0.000000;
#CREDIT:;
#DISPLAYBPM:122.000000;
#NOTES:
0000
0000
0000
0000
,
0000
0000
0000
0000
,
0000
0000
0000
0000
,
0000
0000
0000
0000
,
0000
0000
0000
0000
,
0010
0000
0001
1000
0001
0100
1000
0000
,
1000
1000
0100
0000
0001
0001
0100
0000
,
0010
1000
0010
0000
0101
0000
1001
0000
,
0010
0001
0010
0000
1100
0001
0000
0000
,
0010
0000
0001
1000
0001
0100
1000
0000
,
1000
0100
0001
0000
1000
0100
0001
0000
,
0010
0001
0010
0000
1100
0000
1001
0000
,
1010
0110
0101
1001
,
1000
0001
1000
0000
0100
0001
0001
0000
,
0001
1000
0001
0000
0100
1000
1000
0000
,
0001
0010
0001
0000
0001
1000
0001
0000
,
1010
0000
1100
0000
0001
1000
1000
0000
,
1000
0001
1000
0000
0010
0001
0100
0000
,
1000
0000
1100
0000
1000
0001
0001
0000
,
0001
0010
0001
0000
0010
1000
0100
0000
,
0001
0000
0101
0000
1000
0001
0001
0000
,
1000
1000
0001
0000
0100
0100
1000
0000
,
0010
0000
0010
0000
0100
1000
0001
0000
,
0001
0001
1000
0000
0100
0100
0001
0000
,
1000
0000
0101
0000
1000
0001
0001
0000
,
1000
0001
0100
0000
0001
1000
0100
0000
,
0001
0000
0001
0000
0010
1000
0100
0000
,
0001
1100
0001
1000
,
1000
1000
1000
0000
0100
0000
1001
0000
,
0010
0000
0001
1000
0001
0100
1000
0000
,
1000
1000
0001
0000
0001
0001
1000
0000
,
0010
1000
0010
0000
0101
0000
1001
0000
,
0010
0001
0010
0000
1100
0001
0000
0000
,
0010
0000
1000
0001
1000
0100
0001
0000
,
0001
0001
1000
0000
1000
1000
0001
0000
,
0010
1000
0010
0000
0101
0000
1001
0000
,
0011
0000
0110
0000
1000
0100
0001
0000
,
1001
0110
1000
0010
0001
0100
1001
0000
,
1000
1000
1000
0000
1001
0110
0001
0000
,
0001
0100
1000
0000
0001
0100
1000
0000
,
1000
0100
0001
0000
0101
1000
0000
0000
,
0010
0000
0001
1000
0001
0100
1000
0000
,
0001
0001
0001
0000
1100
0000
0001
0000
,
0010
1000
0010
0000
0101
0000
1000
0000
,
0011
0000
0110
0000
1000
0001
0100
0000
,
1001
0000
0000
0000
;

//---------------dance-double - ----------------
#NOTEDATA:;
#CHARTNAME:;
#STEPSTYPE:dance-double;
#DESCRIPTION:;
#CHARTSTYLE:;
#DIFFICULTY:Easy;
#METER:3;
#RADARVALUES:0.248153,0.273838,0.077449,0.000000,0.000000,157.000000,150.000000,7.000000,0.000000,0.000000,0.000000,0.000000,0.000000,0.000000,0.248153,0.273838,0.077449,0.000000,0.000000,157.000000,150.000000,7.000000,0.000000,0.000000,0.000000,0.000000,0.000000,0.000000;
#CREDIT:;
#DISPLAYBPM:122.000000;
#NOTES:
00000000
00000000
00000000
00000000
,
00000000
00000000
00000000
00000000
,
00000000
00000000
00000000
00000000
,
00000000
00000000
00000000
00000000
,
00000000
00000000
00000000
00000000
,
00001000
00001000
01000000
01000000
,
00100000
00100000
10000000
10000000
,
00010000
00001000
00000100
00000100
,
00001000
00010000
01000000
01000000
,
00100000
00100000
00001000
00001000
,
00000100
00000100
00000001
00000001
,
00001000
00010000
00100000
00100000
,
00010000
00001000
00000100
00001001
,
00001000
00000001
00001000
00000000
,
00010000
01000000
10000000
00000000
,
10000000
00010000
10000000
00000000
,
00010000
01000000
00001000
00000000
,
00010000
00001000
00000100
00000001
,
00001000
00000000
00000010
00000100
,
00001000
00010000
00001000
00000000
,
00000100
00001001
00001000
00011000
,
00001000
00010000
01000000
00000000
,
10000000
00100000
00010000
00000000
,
00001000
00000100
00000001
00000000
,
00000010
00001000
00010000
00000000
,
00010000
10000000
00010000
10000000
,
01000000
00000000
00100000
01000000
,
10000000
01000000
00010000
00001000
,
00000100
00001001
00001000
00011000
,
00001000
00001000
00100000
00100000
,
01000000
01000000
10000000
10000000
,
00010000
00001000
00000100
00000100
,
00001000
00010000
01000000
01000000
,
00001000
00001000
00000100
00000100
,
00000010
00000010
00000001
00000001
,
00000100
00001000
00010000
00010000
,
01000000
10000000
00100000
10010000
,
00001000
00001000
00010000
00010000
,
10000000
10000000
01000000
00001000
,
00000010
00000010
00000100
00010000
,
00100000
00100000
10000000
10000000
,
00010000
00010000
00001000
00001000
,
00000001
00000001
00000100
00010000
,
00100000
00100000
01000000
00001000
,
00000010
00000010
00000001
00000100
,
00001001
00000000
00000000
00000000
;

//---------------dance-double - ----------------
#NOTEDATA:;
#CHARTNAME:;
#STEPSTYPE:dance-double;
#DESCRIPTION:;
#CHARTSTYLE:;
#DIFFICULTY:Medium;
#METER:5;
#RADARVALUES:0.309796,0.348521,0.099577,0.000000,0.000000,196.000000,187.000000,9.000000,0.000000,0.000000,0.000000,0.000000,0.000000,0.000000,0.309796,0.348521,0.099577,0.000000,0.000000,196.000000,187.000000,9.000000,0.000000,0.000000,0.000000,0.000000,0.000000,0.000000;
#CREDIT:;
#DISPLAYBPM:122.000000;
#NOTES:
00000000
00000000
00000000
00000000
,
00000000
00000000
00000000
00000000
,
00000000
00000000
00000000
00000000
,
00000000
00000000
00000000
00000000
,
00000000
00000000
00000000
00000000
,
00100000
00100000
00010000
01000000
,
00001000
00000010
00000001
00001000
,
00000001
00000100
00000001
00000000
00000010
00000000
00001000
00000000
,
00010000
01000000
00010000
00000000
00100000
00000000
00001000
00000000
,
00000010
00000000
00000010
00000000
00000100
00001000
00010000
00000000
,
01000000
00010000
10000000
01000000
,
00001000
00010000
00001000
00000000
00000010
00000000
00000001
00000000
,
00000100
00011000
01000000
10010000
,
00010000
00010000
00001000
00000100
,
00000001
00001000
00000001
00000100
,
00000010
00001000
00010000
01000000
,
10000000
00010000
10000000
01000000
,
00100000
00010000
00001000
00000000
01000000
00000000
10000000
00000000
,
01000000
00010000
00001000
00000100
,
00000010
00000001
00000100
00000000
00001000
00000000
00010000
00000000
,
00000000
10000000
01000000
00000000
00000000
00010000
00001000
00000000
,
00010000
00000100
00001000
00000001
,
00000100
00000000
00000100
00000000
00000010
00001000
00000001
00000000
,
00001000
00000100
00000010
00010000
,
00001000
00000000
00001000
00000000
00001000
00010000
00100000
00000000
,
10000000
10000000
01000000
00010000
,
00001000
00001000
00000010
00000001
,
00000001
00001000
00000100
00000000
00010000
00100000
01000000
00000000
,
00000000
01000000
01000000
00000000
10000000
00010000
00010000
00000000
,
00100000
00000000
00100000
00000000
00010000
00001000
00000100
00000000
,
00001000
00001000
00000001
00001000
,
00000001
00000100
00000001
00000000
00000010
00000000
00001000
00000000
,
00010000
01000000
00010000
00000000
00100000
00000000
00001000
00000000
,
00000010
00000000
00000001
00000000
00000100
00001000
00010000
00000000
,
01000000
00010000
10000000
01000000
,
00001000
00010000
00001000
00000000
00000010
00000000
00000001
00000000
,
00000010
00001100
00010000
01010000
,
00010000
01000000
00010000
00000000
00000100
00001000
00000100
00000000
,
00000001
00001000
00000001
00000000
00001000
00010000
00001000
00000000
,
01100000
10010000
01000000
00010000
,
00000110
00001001
00000010
00001000
,
00001000
00001000
00010000
00000000
01000000
01000000
00010000
00000000
,
01000000
00010000
00001000
00000000
00000100
00001000
00010000
00000000
,
10000000
10000000
00010000
00000000
00010000
00010000
00001000
00000000
,
00000010
00000001
00000100
00001000
,
00011000
00000000
00000000
00000000
;

//---------------dance-double - ----------------
#NOTEDATA:;
#CHARTNAME:;
#STEPSTYPE:dance-double;
#DESCRIPTION:;
#CHARTSTYLE:;
#DIFFICULTY:Hard;
#METER:6;
#RADARVALUES:0.365117,0.373415,0.331924,0.000000,0.000000,231.000000,201.000000,30.000000,0.000000,0.000000,0.000000,0.000000,0.000000,0.000000,0.365117,0.373415,0.331924,0.000000,0.000000,231.000000,201.000000,30.000000,0.000000,0.000000,0.000000,0.000000,0.000000,0.000000;
#CREDIT:;
#DISPLAYBPM:122.000000;
#NOTES:
00000000
00000000
00000000
00000000
,
00000000
00000000
00000000
00000000
,
00000000
00000000
00000000
00000000
,
00000000
00000000
00000000
00000000
,
00000000
00000000
00000000
00000000
,
00010000
00001000
00000010
00000000
00000101
00000000
00001001
00000000
,
00000100
00001000
00010000
10000000
,
10000000
00010000
10000000
00000000
11000000
00000000
00010000
00000000
,
00010000
00001000
00010000
00000000
00001100
00000000
00000001
00000000
,
00001000
00000010
00001000
00000000
00000101
00000000
00001001
00000000
,
00000100
00001000
00010000
10000000
,
10000000
00010000
10000000
00000000
11000000
00000000
00010000
00000000
,
01000000
01100000
10000000
10010000
,
00010000
00001000
00000100
00000000
00000010
00000000
00000101
00000000
,
00001000
00000000
00000001
00000000
00000010
00001000
00000010
00000000
,
00000100
00001000
00010000
00000000
10000000
01000000
10000000
00000000
,
01010000
00001000
00001100
00000001
,
00001000
00000001
00000001
00000000
00000100
00001000
00010000
00000000
,
10000000
11000000
00010000
00001100
,
00010000
00001000
01000000
00000000
00010000
00001000
00000100
00000000
,
00000000
00000001
00000001
00000000
00000000
00000010
00000010
00000000
,
00000010
00001000
00000100
00000000
00000010
00000001
00000100
00000000
,
00001000
00000000
00000001
00000000
00000100
00001000
00010000
00000000
,
01000000
01000000
00010000
00000000
00001000
00001000
00010000
00000000
,
00001000
00000001
00001000
00000100
,
00000001
00000100
00001000
00000000
00010000
00010000
00010000
00000000
,
01010000
10000000
01000000
00011000
,
00000010
00000001
00000100
00000000
00000010
00001000
00000100
00000000
,
00000001
00000011
00000100
00001100
,
00010000
00001000
00000010
00000000
00000101
00000000
00001001
00000000
,
00000100
00001000
00010000
10000000
,
10000000
00010000
10000000
00000000
11000000
00000000
00010000
00000000
,
00010000
00001000
00010000
00000000
00001100
00000000
00000001
00000000
,
00001000
00010000
00100000
00000000
11000000
00000000
10010000
00000000
,
01000000
00010000
00001000
00000001
,
00000001
00001000
00000001
00000000
00000101
00000000
00001000
00000000
,
00000001
00000100
00001000
00011000
,
00010000
01000000
00010000
00100000
00001000
00010000
00001000
00000000
,
00000001
00000001
00000001
00000000
00001000
00001000
00001000
00000000
,
00000010
00001000
00000010
00000000
00001000
00000000
00010000
00000000
,
00100000
10000000
00100000
00000000
11000000
00000000
00010000
00000000
,
00001000
00000100
00001000
00000010
00010000
00001000
00010000
00000000
,
10000000
10000000
10000000
00000000
00010000
00010000
00010000
00000000
,
00100000
00010000
00100000
00000000
00001100
00000000
00000001
00000000
,
00000010
00000110
00000001
00000100
,
00011000
00000000
00000000
00000000
;

//---------------dance-couple - ----------------
#NOTEDATA:;
#CHARTNAME:;
#STEPSTYPE:dance-couple;
#DESCRIPTION:;
#CHARTSTYLE:;
#DIFFICULTY:Challenge;
#METER:6;
#RADARVALUES:0.265540,0.472992,0.265540,0.000000,0.000000,168.000000,144.000000,24.000000,0.000000,0.000000,0.000000,0.000000,0.000000,0.000000,0.265540,0.448098,0.265540,0.000000,0.000000,168.000000,144.000000,24.000000,0.000000,0.000000,0.000000,0.000000,0.000000,0.000000;
#CREDIT:;
#DISPLAYBPM:122.000000;
#NOTES:
00000000
00000000
00000000
00000000
,
00000000
00000000
00000000
00000000
,
00000000
00000000
00000000
00000000
,
00000000
00000000
00000000
00000000
,
00000000
00000000
00000000
00000000
,
00100000
00000000
00010001
10000000
00010000
01000000
10000001
00000000
,
10000000
01000000
00010001
00000000
10000000
01000000
00010001
00000000
,
00100000
00010000
00100001
00000000
11000000
00000000
10010001
00000000
,
10100000
01100001
01010000
10010001
,
00000010
00000000
10001000
00000001
00001000
00000100
10000001
00000000
,
00000001
00000100
10001000
00000000
00000001
00000100
10001000
00000000
,
00000010
00001000
10000010
00000000
00000101
00000000
10001001
00000000
,
00000011
10000110
00001100
10001001
,
10000000
00010000
10000000
00000000
01000000
00010000
00010000
00000000
,
00000001
00001000
00000001
00000000
00000100
00001000
00001000
00000000
,
00000001
00000010
00000001
00000000
00000001
00001000
00000001
00000000
,
00010000
10000000
00010000
00000000
01000000
10000000
10000000
00000000
,
00001000
00000001
00001000
00000000
00000010
00000001
00000100
00000000
,
10000000
00010000
10000000
00000000
00100000
00010000
01000000
00000000
,
00000001
00000001
00000001
00000000
10000000
10000000
10000000
00000000
,
10000001
00000000
11000101
00000000
00011000
10000001
10000001
00000000
,
10000000
10000000
00010000
00000000
01000000
01000000
10000000
00000000
,
00100000
00000000
00100000
00000000
01000000
10000000
00010000
00000000
,
00000001
00000001
00001000
00000000
00000100
00000100
00000001
00000000
,
00000010
00000000
00000010
00000000
00000100
00000001
00001000
00000000
,
00100000
10000000
00100000
10000000
00100000
10000000
01000000
00000000
,
00000010
00000001
00000010
00000001
00000010
00000001
00000100
00000000
,
00100000
00100000
00100000
00000000
00000100
00000100
00000100
00000000
,
10000001
10000001
10000001
00000000
00011000
00000000
01100110
00000000
,
00000010
00000000
01001000
00000001
00001000
00000100
01000001
00000000
,
00000001
00000001
01001000
00000000
00001000
00001000
01000001
00000000
,
00000010
00001000
01000010
00000000
00000101
00000000
01001001
00000000
,
00000011
00000000
01000110
00000000
00001000
00000100
01000001
00000000
,
00100000
00000000
00010100
10000000
00010000
01000000
10000100
00000000
,
10000000
10000000
00010100
00000000
00010000
00010000
10000100
00000000
,
00100000
00010000
00100100
00000000
11000000
00000000
10010100
00000000
,
10100000
00000000
01100100
00000000
00010000
01000000
10000100
00000000
,
10011001
01100110
10000001
00100010
00011000
01000100
10011001
00000000
,
00000101
00000101
00000101
00000000
11000000
11000000
11000000
00000000
,
00000001
00000100
00001000
00000000
00010000
01000000
10000000
00000000
,
10000000
01000000
00010000
00000000
00001000
00000100
00000001
00000000
,
10010000
11000000
00010000
00000000
00001001
00000101
00001000
00000000
,
01100000
01100000
01100000
00000000
00000110
00000110
00000110
00000000
,
10000001
01000000
10000001
00000000
10000001
00000100
10000001
00000000
,
00011000
00000000
10000001
00000000
01000100
10000001
01000100
00000000
,
00111010
00000000
00000000
00000000
;

//---------------dance-solo - ----------------
#NOTEDATA:;
#CHARTNAME:;
#STEPSTYPE:dance-solo;
#DESCRIPTION:;
#CHARTSTYLE:;
#DIFFICULTY:Easy;
#METER:4;
#RADARVALUES:0.238670,0.248943,0.044257,0.000000,0.000000,151.000000,147.000000,4.000000,0.000000,0.000000,0.000000,0.000000,0.000000,0.000000,0.238670,0.248943,0.044257,0.000000,0.000000,151.000000,147.000000,4.000000,0.000000,0.000000,0.000000,0.000000,0.000000,0.000000;
#CREDIT:;
#DISPLAYBPM:122.000000;
#NOTES:
000000
000000
000000
000000
,
000000
000000
000000
000000
,
000000
000000
000000
000000
,
000000
000000
000000
000000
,
000000
000000
000000
000000
,
010000
010000
000010
000010
,
100000
000001
100000
000001
,
000010
000001
000010
000001
,
100000
010000
100000
010000
,
000100
000100
001000
001000
,
000100
001000
000100
001000
,
010000
000001
010000
000001
,
000010
100000
000010
100000
,
000100
001000
000100
100001
,
000100
000000
000001
000001
,
100000
000000
000010
000010
,
001000
000000
000001
000001
,
010000
010000
000001
000000
,
100000
100000
000100
000000
,
001000
000000
000001
000000
,
010000
000010
010000
000010
,
001000
000000
000001
100000
,
000100
000000
001000
000100
,
000001
000000
100000
000001
,
000100
000000
010000
000001
,
010000
000001
100000
000000
,
000001
100000
000100
000000
,
100000
100000
000010
000010
,
010000
001000
001000
100001
,
000100
000100
100000
000001
,
001000
001000
100000
000001
,
001000
010000
001000
010000
,
000100
000001
000100
000001
,
100000
100000
000100
001000
,
000001
010000
000010
100000
,
000001
001000
000001
001000
,
000100
100000
000100
100001
,
000000
000010
010000
010000
,
000100
001000
000001
100000
,
000010
100000
000010
100000
,
001000
010000
001000
010000
,
000001
100000
000100
001000
,
000001
001000
000100
100000
,
000010
001000
000010
001000
,
000001
000100
001000
100000
,
100001
000000
000000
000000
;

//---------------dance-solo - ----------------
#NOTEDATA:;
#CHARTNAME:;
#STEPSTYPE:dance-solo;
#DESCRIPTION:;
#CHARTSTYLE:;
#DIFFICULTY:Medium;
#METER:5;
#RADARVALUES:0.309796,0.348521,0.099577,0.000000,0.000000,196.000000,187.000000,9.000000,0.000000,0.000000,0.000000,0.000000,0.000000,0.000000,0.309796,0.348521,0.099577,0.000000,0.000000,196.000000,187.000000,9.000000,0.000000,0.000000,0.000000,0.000000,0.000000,0.000000;
#CREDIT:;
#DISPLAYBPM:122.000000;
#NOTES:
000000
000000
000000
000000
,
000000
000000
000000
000000
,
000000
000000
000000
000000
,
000000
000000
000000
000000
,
000000
000000
000000
000000
,
000010
000000
000010
000000
100000
000001
100000
000000
,
000100
000000
000100
000000
001000
000010
001000
000000
,
100000
010000
100000
010000
,
000100
000001
000100
000001
,
010000
000000
010000
000000
000001
010000
000001
000000
,
001000
000000
001000
000000
000100
100000
000100
000000
,
010000
000001
100000
000010
,
001000
000010
010000
000001
,
001000
001000
000001
100000
,
000100
000100
010000
000010
,
100000
000001
001000
000010
,
010000
000100
100000
000001
,
001000
001000
000010
100000
,
000001
010000
000100
001000
,
000010
000000
010000
000010
010000
000000
000010
000000
,
100000
100001
000100
001100
,
000010
000010
100000
000000
,
010000
000000
000001
000000
000001
100000
001000
000000
,
001000
100000
000001
001000
,
000100
000000
000100
000000
100000
000010
001000
000000
,
000001
000001
100000
000001
,
000001
000001
100000
000100
,
001000
000100
100000
000000
000001
001000
000100
000000
,
010000
010001
000010
100010
,
001000
000000
001000
000000
000001
000010
000001
000000
,
100000
000000
100000
000000
000100
010000
000100
000000
,
001000
000001
001000
000001
,
010000
001000
010000
001000
,
100000
000000
100000
000000
000001
001000
000100
000000
,
010000
000000
010000
000000
010000
000001
001000
000000
,
000100
100000
000001
001000
,
000010
100010
010000
010001
,
000100
000100
010000
000000
000001
000001
010000
000000
,
100000
000010
000010
000000
100000
000100
000100
000000
,
001000
000001
100000
000000
001000
000001
100000
000000
,
000001
001000
100000
000000
000001
001000
100000
000000
,
000100
100000
000001
000000
000100
100000
000001
000000
,
001000
000010
100000
000000
001000
000010
100000
000000
,
000001
001000
100000
000000
100000
001000
000001
000000
,
001000
001010
000001
010001
,
100001
000000
000000
000000
;

//---------------dance-solo - ----------------
#NOTEDATA:;
#CHARTNAME:;
#STEPSTYPE:dance-solo;
#DESCRIPTION:;
#CHARTSTYLE:;
#DIFFICULTY:Hard;
#METER:6;
#RADARVALUES:0.395148,0.448098,0.320860,0.000000,0.000000,250.000000,221.000000,29.000000,0.000000,0.000000,0.000000,0.000000,0.000000,0.000000,0.395148,0.448098,0.320860,0.000000,0.000000,250.000000,221.000000,29.000000,0.000000,0.000000,0.000000,0.000000,0.000000,0.000000;
#CREDIT:;
#DISPLAYBPM:122.000000;
#NOTES:
000000
000000
000000
000000
,
000000
000000
000000
000000
,
000000
000000
000000
000000
,
000000
000000
000000
000000
,
000000
000000
000000
000000
,
000100
000000
000010
100000
000010
001000
000001
000000
,
100000
100000
000100
000000
010000
010000
000001
000000
,
000100
001000
000100
000000
110000
000000
010100
000000
,
000001
000100
000001
000000
000110
000001
000000
000000
,
100000
000000
000100
001000
000001
001000
100000
000000
,
000100
001000
000100
000000
001000
000100
001000
000000
,
000001
010000
000001
000000
100000
000000
110000
000000
,
000100
001100
000110
010100
,
000001
100000
000001
000000
001000
000100
000100
000000
,
100000
000001
100000
000000
000100
001000
001000
000000
,
000010
000100
000010
000000
000010
001000
000010
000000
,
100100
000000
101000
000000
000001
010000
010000
000000
,
000100
001000
000100
000000
100000
000001
001000
000000
,
100000
000000
110000
000000
010000
000001
000001
000000
,
000010
100000
000010
000000
001000
000100
001000
000000
,
000001
000000
001001
000000
100000
000010
000010
000000
,
010000
010000
000001
000000
001000
001000
000100
000000
,
100000
000000
100000
000000
000010
001000
000001
000000
,
100000
100000
000010
000000
001000
001000
000001
000000
,
100000
000000
001001
000000
000100
100000
100000
000000
,
000001
100000
001000
000000
001000
100000
000001
000000
,
000100
000000
000100
000000
100000
000010
001000
000000
,
000001
000110
000001
010010
,
100000
100000
100000
000000
001000
000000
100001
000000
,
000100
000000
010000
000001
010000
000010
100000
000000
,
001000
001000
000010
000000
100000
100000
000100
000000
,
100000
000001
100000
000000
110000
000000
010100
000000
,
000001
000010
000001
000000
010000
000000
001000
000000
,
000010
000000
100000
000001
100000
000010
001000
000000
,
001000
001000
000001
000000
100000
100000
000100
000000
,
001000
000010
001000
000000
000110
000000
010010
000000
,
010100
000000
110000
000000
100000
001000
000001
000000
,
000101
000010
000110
010000
010000
000010
100000
000000
,
001000
001000
001000
000000
100001
000010
000001
000000
,
000001
001000
100000
000000
100000
001000
000001
000000
,
001000
010000
001000
000000
001000
000010
001000
000000
,
000100
000000
000001
010000
000001
010000
000010
000000
,
100000
100000
100000
000000
010001
000000
000010
000000
,
000100
100000
000100
000000
001001
000000
100000
000000
,
010010
000000
001100
000000
010000
000010
000010
000000
,
100001
000000
000000
000000
;

//---------------dance-single - ----------------
#NOTEDATA:;
#CHARTNAME:;
#STEPSTYPE:dance-single;
#DESCRIPTION:;
#CHARTSTYLE:;
#DIFFICULTY:Beginner;
#METER:3;
#RADARVALUES:0.116964,0.298732,0.099577,0.221283,0.000000,74.000000,65.000000,9.000000,20.000000,0.000000,0.000000,0.000000,0.000000,0.000000,0.116964,0.298732,0.099577,0.221283,0.000000,74.000000,65.000000,9.000000,20.000000,0.000000,0.000000,0.000000,0.000000,0.000000;
#CREDIT:;
#DISPLAYBPM:122.000000;
#NOTES:
0000
0000
0000
0000
,
0000
0000
0000
0000
,
0000
0000
0000
0000
,
0000
0000
0000
0000
,
0000
0000
0000
0000
,
0200
0000
0000
0300
,
0000
0000
0000
0000
,
0010
0020
0030
0000
,
0100
0200
0300
0000
,
0010
0010
0100
0100
,
2000
3002
2003
3001
,
1001
0110
0000
0110
,
2002
0000
3003
0000
,
1000
0000
0000
0000
,
1000
0000
0000
0000
,
0010
0000
0000
0000
,
0010
0000
0000
0000
,
0100
0000
0000
0000
,
0100
0000
0000
0000
,
0001
0000
0000
0000
,
0001
0000
0000
0000
,
1000
0000
0001
0000
,
2000
0000
3000
0000
,
0010
0000
0100
0000
,
0020
0000
0030
0000
,
0001
0000
1000
0000
,
0002
0000
0003
0000
,
0100
0000
0010
0000
,
0200
0000
0300
0000
,
0020
0000
0000
0030
,
0000
0000
0000
0000
,
0100
0200
0300
0000
,
0010
0020
0030
0000
,
0100
0100
0010
0010
,
0002
2003
3002
1003
,
0110
1001
0000
1001
,
0110
0000
0000
0000
,
0010
0000
0100
0000
,
0010
0000
0000
0000
,
1000
0000
0001
0000
,
1000
0000
0000
0000
,
0001
0000
0100
0000
,
0010
0000
0000
0000
,
1000
0000
0000
0000
,
0220
0000
0000
0000
,
0330
0000
0000
0000
;

//---------------dance-single - ----------------
#NOTEDATA:;
#CHARTNAME:;
#STEPSTYPE:dance-single;
#DESCRIPTION:;
#CHARTSTYLE:;
#DIFFICULTY:Challenge;
#METER:10;
#RADARVALUES:0.459953,0.500653,0.475758,0.110641,0.027660,291.000000,248.000000,43.000000,10.000000,0.000000,0.000000,0.000000,0.000000,0.000000,0.459953,0.500653,0.475758,0.110641,0.027660,291.000000,248.000000,43.000000,10.000000,0.000000,0.000000,0.000000,0.000000,0.000000;
#CREDIT:;
#DISPLAYBPM:122.000000;
#NOTES:
// measure 0
0000
0000
0000
0000
,  // measure 1
0000
0000
0000
0000
,  // measure 2
0000
0000
0000
0000
,  // measure 3
0000
0000
0000
0000
,  // measure 4
0000
0000
0000
0000
,  // measure 5
0010
0001
0010
1000
0010
0001
0010
0000
,  // measure 6
1000
0100
0000
0101
0000
0101
0000
0001
,  // measure 7
0010
1000
0100
0000
0000
0110
0000
1000
,  // measure 8
0010
0001
0100
0000
0110
0110
0000
0000
,  // measure 9
0001
0010
1000
0100
0001
0010
0100
0000
,  // measure 10
0100
1000
0000
1010
0000
1010
0000
0010
,  // measure 11
0001
0100
1000
0000
0000
1001
0000
0101
,  // measure 12
0000
1100
0000
1010
0000
0101
0101
0000
,  // measure 13
1000
0100
0001
0100
1000
0100
0001
0000
,  // measure 14
0210
0000
0001
0000
1300
0100
1000
0010
,  // measure 15
1000
0001
0010
0000
0101
0000
0001
0010
,  // measure 16
2010
0000
0100
0000
3010
0001
1000
0010
,  // measure 17
0100
0001
1000
0100
0010
0001
0100
0001
,  // measure 18
0021
0000
0100
0000
1030
0010
0001
0000
,  // measure 19
0001
0100
1000
0100
0001
0010
1000
0010
,  // measure 20
0000
0110
0110
0000
0000
1001
1001
0001
,  // measure 21
0100
1000
0100
0001
0100
1000
0200
0000
,  // measure 22
0001
0000
0300
0000
0000
0000
1000
0100
1000
0000
0100
0000
1000
0000
0000
0000
,  // measure 23
1000
0010
0001
0010
1000
0010
0002
0000
,  // measure 24
0100
0000
0003
0000
0000
0000
0001
0010
0001
0000
0100
0000
0001
0000
0000
0000
,  // measure 25
0100
0010
1000
0001
0010
0100
2000
0000
,  // measure 26
0010
0000
3000
0000
0000
0000
0100
0000
1000
0000
0001
0000
0010
0100
0010
0000
,  // measure 27
1000
0010
0001
0010
1000
0100
0001
0100
,  // measure 28
0000
0110
0110
0000
0000
1001
1001
0001
,  // measure 29
0010
1000
0010
0001
0010
1000
0010
0000
,  // measure 30
0021
0000
0100
0001
0000
0031
0000
0001
,  // measure 31
1000
0100
0001
0000
0000
1100
0000
1000
,  // measure 32
0001
0100
1000
0000
0101
0101
0000
1000
,  // measure 33
0100
0001
0100
1000
0100
0001
0100
0000
,  // measure 34
1200
0000
1000
0010
0000
0310
0000
0010
,  // measure 35
1000
0001
0100
0000
0000
0110
0000
0011
,  // measure 36
0000
1010
0000
0101
0000
1001
1001
0001
,  // measure 37
0100
1000
0010
0001
0010
1000
0100
0001
,  // measure 38
0010
0100
0010
0000
0100
0000
0010
0000
0100
0000
1000
0000
0001
0000
0100
0000
,  // measure 39
0010
1000
0001
0000
0000
0101
0000
0010
,  // measure 40
0100
0001
1000
0000
1100
1100
0000
0100
,  // measure 41
1000
0010
0001
0100
1000
0100
0001
0010
,  // measure 42
1000
0010
1000
0000
0010
0000
0100
0000
0001
0000
0100
0000
0010
0000
1000
0000
,  // measure 43
0100
0010
0001
0000
0000
1001
0000
0011
,  // measure 44
0000
1010
0000
0110
0000
0001
0010
2000
,  // measure 45
0002
3003
0000
0000
;
