#VERSION:0.83;
#TITLE:INSERTiON;
#SUBTITLE:;
#ARTIST:NAOKI underground;
#TITLETRANSLIT:;
#SUBTITLETRANSLIT:;
#ARTISTTRANSLIT:;
#GENRE:;
#ORIGIN:;
#CREDIT:;
#BANNER:INSERTiON.png;
#BACKGROUND:INSERTiON-bg.png;
#PREVIEWVID:;
#JACKET:INSERTiON-jacket.png;
#CDIMAGE:;
#DISCIMAGE:;
#LYRICSPATH:;
#CDTITLE:;
#MUSIC:INSERTiON.ogg;
#OFFSET:0.000000;
#SAMPLESTART:70.168999;
#SAMPLELENGTH:15.000000;
#SELECTABLE:YES;
#DISPLAYBPM:110.000000:225.000000;
#BPMS:0.000=139.148,
4.000=139.490,
100.000=128.571,
101.000=111.111,
103.000=113.924,
104.000=116.883,
106.000=120.000,
107.000=123.288,
109.000=126.761,
111.000=130.435,
112.000=132.353,
113.000=134.328,
114.000=136.364,
116.000=140.625,
117.000=138.462,
118.000=136.364,
119.000=134.328,
120.000=130.435,
122.000=126.761,
123.000=121.622,
124.000=118.421,
125.000=121.622,
126.000=125.000,
127.000=130.435,
128.000=134.328,
129.000=138.462,
130.000=140.625,
131.000=147.541,
132.000=150.000,
133.000=139.508,
213.000=163.636,
214.000=169.811,
215.000=180.000,
216.000=187.500,
218.000=195.652,
219.000=200.000,
220.000=204.545,
221.000=209.302,
222.000=214.286,
223.000=225.000;
#STOPS:100.000=1.387;
#DELAYS:;
#WARPS:;
#TIMESIGNATURES:0.000=4=4;
#TICKCOUNTS:0.000=4;
#COMBOS:0.000=1;
#SPEEDS:0.000=1.000=0.000=0;
#SCROLLS:0.000=1.000;
#FAKES:;
#LABELS:0.000=Song Start;
#BGCHANGES:;
#KEYSOUNDS:;
#ATTACKS:
;

//---------------dance-single - ----------------
#NOTEDATA:;
#CHARTNAME:;
#STEPSTYPE:dance-single;
#DESCRIPTION:;
#CHARTSTYLE:;
#DIFFICULTY:Beginner;
#METER:4;
#RADARVALUES:0.151949,0.192007,0.067077,0.000000,0.000000,111.000000,104.000000,7.000000,0.000000,0.000000,0.000000,0.000000,0.000000,0.000000,0.151949,0.192007,0.067077,0.000000,0.000000,111.000000,104.000000,7.000000,0.000000,0.000000,0.000000,0.000000,0.000000,0.000000;
#CREDIT:;
#DISPLAYBPM:110.000000:225.000000;
#NOTES:
0000
0000
0000
0000
,
0000
0000
0000
0000
,
0000
0000
0000
0000
,
0001
0000
0000
0000
,
1000
0000
0000
0000
,
0001
0000
0000
0000
,
0100
0000
0000
0000
,
1000
0000
0000
0000
,
0100
0000
0000
0000
,
1000
1000
0000
0000
,
0010
0010
0000
0000
,
0001
0001
0000
0000
,
0010
0010
0000
0000
,
1000
1000
1000
0000
,
0100
0100
0100
0000
,
0001
0001
0001
0000
,
0100
0100
0100
0000
,
1000
0000
0100
0000
,
1000
0000
1001
0000
,
0001
0000
0100
0000
,
0001
0000
1001
0000
,
1000
0000
0100
0000
,
1000
0000
1001
0000
,
0001
0000
0100
0000
,
0001
0000
1001
0000
,
0100
0000
0000
0000
,
1000
0000
0000
0000
,
0001
0000
0000
0000
,
0100
0000
0000
0000
,
0001
0000
0000
1000
,
0000
0000
0000
0100
,
0000
0000
0000
1000
,
0000
0000
0000
0001
,
0000
0010
0000
0010
,
0000
0010
0000
0000
,
0000
1000
1000
1000
,
1000
0000
0100
0000
,
0001
0000
0100
0000
,
1000
0000
1000
0000
,
1000
1000
0000
0010
,
0000
1000
0000
1000
,
0000
1001
0000
0010
,
0000
0100
0000
0100
,
0000
1000
0000
0010
,
0000
1000
0000
1000
,
0000
1001
0000
0010
,
0000
0100
0000
0100
,
0000
0100
0100
0100
,
0100
0000
0010
0010
,
0010
0000
1000
1000
,
1000
0000
0001
0001
,
0001
0000
0000
0000
,
0000
0100
0100
0100
,
0100
0000
0100
0000
,
0100
0000
0100
0000
,
0100
0000
0100
0000
,
0100
0000
0000
0000
,
0000
1001
0000
0000
,
0000
0000
0000
0000
;

//---------------dance-single - ----------------
#NOTEDATA:;
#CHARTNAME:;
#STEPSTYPE:dance-single;
#DESCRIPTION:;
#CHARTSTYLE:;
#DIFFICULTY:Easy;
#METER:6;
#RADARVALUES:0.265569,0.301726,0.067077,0.000000,0.047912,194.000000,187.000000,7.000000,0.000000,0.000000,0.000000,0.000000,0.000000,0.000000,0.265569,0.301726,0.067077,0.000000,0.047912,194.000000,187.000000,7.000000,0.000000,0.000000,0.000000,0.000000,0.000000,0.000000;
#CREDIT:;
#DISPLAYBPM:110.000000:225.000000;
#NOTES:
0000
0000
0000
0000
,
0000
0000
0000
0000
,
0000
0000
0000
0000
,
0001
0001
0001
0001
,
1000
1000
1000
1000
,
0001
0100
0001
0100
,
1000
0100
1000
0100
,
0001
0010
0001
0010
,
1000
0010
1000
0010
,
1000
0100
0010
0001
,
0001
0100
0010
1000
,
1000
0100
0010
0001
,
0001
0100
0010
1000
,
0001
0010
0100
1001
,
0010
0100
0001
1000
,
1000
0100
0010
1001
,
0100
0010
0001
1000
,
1000
0100
0100
0100
,
0010
0000
0000
0000
0001
0000
0000
0000
0000
0001
0000
0001
0000
0000
0000
0000
,
1000
0100
0100
0100
,
0010
0000
0000
0000
0001
0000
0000
0000
0000
0001
0000
0001
0000
0000
0000
0000
,
1000
0100
0100
0100
,
0010
0000
0000
0000
0001
0000
0000
0000
0000
0001
0000
0001
0000
0000
0000
0000
,
1000
0100
0100
0100
,
0010
0010
0001
0001
,
1000
0010
0000
0000
,
0000
0000
0000
0010
,
0001
0100
0000
0000
,
0000
0000
0000
0000
,
0000
0010
0000
1000
,
0000
0100
0000
0010
,
0000
0001
0000
1000
,
0000
0001
0000
0100
,
0000
0010
0000
0010
,
0000
0010
0000
0010
,
0000
1000
1000
1000
,
1000
0000
0000
0000
0100
0000
0000
0000
0100
0000
0000
0000
0000
0010
0000
0010
,
0000
0001
0001
0001
,
0001
0000
0000
0000
0100
0000
0000
0000
0100
0000
0000
0000
0000
0010
0000
0010
,
0000
1000
0100
0010
,
0001
1000
0010
0100
,
0010
1001
0100
0010
,
0001
0100
1000
0100
,
0010
1001
0010
1000
,
0100
0010
0001
0100
,
0010
1001
0001
1000
,
0100
0010
0001
0100
,
0010
0100
0100
0100
,
0100
0010
0010
0010
,
0010
1000
1000
1000
,
1000
0001
0001
0001
,
0001
1001
0000
0000
,
0000
0100
0100
0100
,
0100
1000
0100
0010
,
0001
1000
0010
0100
,
0001
1000
0001
0010
,
0100
0000
0000
0000
,
0000
1001
0000
0000
,
0000
0000
0000
0000
;

//---------------dance-single - ----------------
#NOTEDATA:;
#CHARTNAME:;
#STEPSTYPE:dance-single;
#DESCRIPTION:;
#CHARTSTYLE:;
#DIFFICULTY:Medium;
#METER:9;
#RADARVALUES:0.379189,0.411444,0.134154,0.000000,0.000000,277.000000,263.000000,14.000000,0.000000,0.000000,0.000000,0.000000,0.000000,0.000000,0.379189,0.411444,0.134154,0.000000,0.000000,277.000000,263.000000,14.000000,0.000000,0.000000,0.000000,0.000000,0.000000,0.000000;
#CREDIT:;
#DISPLAYBPM:110.000000:225.000000;
#NOTES:
0000
0000
0000
0000
,
0000
0000
0000
0000
,
0000
0000
0000
0000
,
1000
0100
1000
0000
0001
0100
0001
0000
,
1000
0100
1000
0000
0001
0100
0001
0000
,
1000
0100
1000
0100
0010
0001
0010
0000
,
0001
0100
0001
0100
0010
1000
0010
0000
,
1000
0100
1000
0100
0010
0001
0010
0000
,
0001
0100
0001
0100
0010
1000
0010
0000
,
1000
0101
1000
0011
,
1000
0000
0101
0000
0010
1000
0010
0000
,
0100
1001
0010
1100
,
0010
0000
0101
0000
1000
0010
1000
0000
,
0100
0011
1000
0110
,
0001
0000
1100
0000
0010
0001
0010
0000
,
1000
1100
0010
0011
,
0100
1010
0100
1001
,
0010
0100
1000
0000
0010
0100
0001
0000
,
1000
0100
0001
0100
1000
0100
0001
0000
,
1000
0010
0100
0000
0001
0010
0100
0000
,
1000
0010
0001
0010
1000
0010
0001
0000
,
1000
0001
0100
0000
1000
0001
0100
0000
,
0010
1000
0010
0001
0010
1000
0100
0000
,
0010
0001
0100
0000
0010
1000
0100
0000
,
0010
0001
0100
1000
0100
0001
0010
0000
,
0100
0010
0010
0010
,
0100
0100
0100
0010
,
0001
1000
0000
0100
,
0000
0000
0000
0000
,
0000
1000
0010
0100
,
0000
0001
0010
0100
,
0000
1000
1000
1000
,
0000
0001
0001
0001
,
0000
1000
0000
0001
,
0000
1000
0010
0100
,
0001
1000
1000
1000
,
1000
0100
0010
0000
0010
0000
0010
0000
,
0010
0001
1000
0000
1000
0000
1000
0000
,
1000
0010
0100
0000
0100
0000
0100
0000
,
0100
0001
1000
0000
1000
0100
1000
0100
,
0010
0000
0001
0000
0100
0010
1000
0001
,
0010
0000
0100
0000
0100
1000
0100
1000
,
0001
0000
0100
0000
0010
1000
0001
0010
,
0100
0000
1000
0000
0001
0100
0001
0100
,
0010
0000
1000
0000
0100
0010
0001
0100
,
0010
0000
1000
0000
1000
0100
1000
0100
,
0010
0000
0001
0000
1000
0010
0100
0001
,
1000
0100
0100
0100
,
0100
0010
0001
0000
0001
0000
0001
0000
,
0001
0100
0010
0000
0010
0000
0010
0000
,
0010
1000
0001
0000
0001
0000
0001
0010
,
0100
1000
0001
0000
0000
0000
0000
0000
,
0000
0100
0100
0100
,
0100
0001
0100
1000
,
0100
0001
0010
1000
,
0010
0001
1000
0010
,
0100
0000
0000
0000
,
0000
1001
0000
0000
,
0000
0000
0000
0000
;

//---------------dance-single - ----------------
#NOTEDATA:;
#CHARTNAME:;
#STEPSTYPE:dance-single;
#DESCRIPTION:;
#CHARTSTYLE:;
#DIFFICULTY:Hard;
#METER:13;
#RADARVALUES:0.513343,0.576022,0.009582,0.000000,0.435999,375.000000,374.000000,1.000000,0.000000,0.000000,0.000000,0.000000,0.000000,0.000000,0.513343,0.576022,0.009582,0.000000,0.435999,375.000000,374.000000,1.000000,0.000000,0.000000,0.000000,0.000000,0.000000,0.000000;
#CREDIT:;
#DISPLAYBPM:110.000000:225.000000;
#NOTES:
0000
0000
0000
0000
,
0000
0000
0000
0000
,
0000
0000
0000
0000
,
1000
0000
0001
0000
1000
0001
1000
0000
0000
0100
0000
0100
0010
0000
0001
0000
,
1000
0000
0001
0000
1000
0001
1000
0000
0000
0000
0000
0000
0000
0000
0000
0000
,
1000
0000
0100
0000
0010
0001
0010
0000
0000
0000
0000
0000
0000
0000
0000
0000
,
0001
0000
0100
0000
0010
1000
0010
0000
0000
0000
0000
0000
0000
0000
0000
0000
,
0100
1000
0100
1000
0100
0000
0010
0000
0000
0000
0000
0000
0000
0000
0000
0000
,
0001
0100
0001
0100
0001
0000
1000
0000
0000
0000
0000
0000
0000
0000
0000
0000
,
1000
0000
0100
0000
0010
0001
0000
0001
0010
0000
0100
0000
1000
0010
0000
0010
,
1000
0000
0100
0000
0010
0001
0000
0001
0010
0000
0100
0000
1000
0000
0000
0000
,
0001
0000
0100
0000
0010
1000
0000
1000
0010
0000
0100
0000
0001
0010
0000
0010
,
0001
0000
0100
0000
0010
1000
0000
1000
0010
0000
0100
0000
0001
0000
0000
0000
,
1000
0000
0100
0000
0010
0001
0000
0001
0100
0000
0010
0000
1000
0001
0000
0001
,
0010
0000
0100
0000
1000
0001
0000
0001
0100
0000
0010
0000
1000
0000
0000
0000
,
1000
0100
0001
0100
1000
0010
0001
0010
,
1000
0000
0001
0000
0100
0000
0010
0000
1000
0100
1000
0100
1000
0100
1000
0000
,
0001
0100
0010
1000
0001
0010
0100
1000
,
0001
0000
0100
0000
0010
0000
1000
0000
0001
0100
0000
0100
0000
0000
0000
0000
,
0010
1000
0001
0010
0100
1000
0001
0100
,
0010
0000
1000
0000
0001
0000
0010
0000
0100
1000
0000
1000
0000
0000
0000
0000
,
1000
0100
0010
0001
1000
0010
0100
0001
,
1000
0000
0100
0000
0001
0000
0100
0000
1000
0001
0000
0001
0000
0000
0000
0000
,
0010
0100
1000
0001
0100
1000
0100
0001
,
0010
0000
1000
0000
0010
0000
0001
0000
0100
0010
0000
0010
0000
0000
1000
0000
,
0001
0000
0010
0100
0010
0100
0010
0100
,
0010
0100
0010
0000
0000
0000
1000
0000
,
0001
0000
0100
0000
0000
0010
1000
0000
,
0000
0000
0000
0000
,
0000
0000
0001
0000
0000
0000
0010
0100
,
0000
1000
0000
0000
0010
0000
0000
0000
0000
0000
0000
0000
0100
0000
0000
0000
,
0001
0000
0000
0000
1000
0000
0000
0000
0000
0000
0100
0000
0100
0000
0000
0010
,
0000
0001
0000
0000
0000
0000
0001
0000
,
0000
1000
0000
0010
,
0000
0010
0000
0010
,
0000
0000
0000
0000
1000
0000
0001
0100
0000
1000
0100
0000
0000
0000
0001
0100
,
0000
1000
0100
0000
0000
0000
0001
0100
0000
1000
0100
0000
0010
0000
0001
0000
,
0100
0000
0010
0000
0000
0000
1000
0100
0000
0001
0100
0000
0000
0000
1000
0100
,
0000
0001
0100
0000
0000
0000
1000
0100
0000
0001
0100
0000
0010
0000
1000
0000
,
0100
0000
0010
0000
0001
0100
0000
0010
1000
0000
0100
0010
0000
0001
1000
0000
,
0010
0000
0100
0000
0001
0010
0000
0100
1000
0000
0010
0100
0000
0001
1000
0000
,
0100
0000
0010
0000
0001
1000
0000
0010
0100
0000
0001
0010
0000
0100
1000
0000
,
0010
0000
0100
0000
0001
0010
0000
0100
1000
0000
0001
0100
0000
0010
1000
0000
,
0100
0000
0010
0000
0001
1000
0000
0100
0010
0000
0001
0100
0000
0010
1000
0000
,
0100
0000
0010
0000
0001
0100
0000
0010
1000
0000
0100
0010
0000
0001
0100
0000
,
0010
0000
1000
0000
0001
0010
0000
0100
1000
0000
0010
0100
0000
0001
1000
0000
,
0100
0000
0010
0000
0001
0100
0000
0010
1000
0000
0100
0010
0000
0001
1000
0000
,
0010
0000
0100
0000
0000
0000
0001
1000
0000
0100
0010
0000
0000
0000
0001
0100
,
0000
0010
1000
0000
0000
0000
0001
0010
0000
0100
1000
0000
0010
0000
0100
0000
,
0001
0010
0100
1000
0100
1000
0100
1000
,
0010
0100
0001
0100
0001
0010
0100
0010
,
0100
1000
0001
0000
0000
1000
0000
1000
,
0000
0001
0000
0001
0000
0010
0000
0010
,
0000
0100
1000
0000
0001
0000
0100
0000
,
0010
0000
1000
0100
1000
0000
0001
1000
,
0001
1000
0001
0000
0010
0100
0010
0100
,
0010
0100
0000
0000
0000
0000
0000
0000
,
0000
1001
0000
0000
,
0000
0000
0000
0000
;

//---------------dance-double - ----------------
#NOTEDATA:;
#CHARTNAME:;
#STEPSTYPE:dance-double;
#DESCRIPTION:;
#CHARTSTYLE:;
#DIFFICULTY:Easy;
#METER:5;
#RADARVALUES:0.261463,0.329155,0.095824,0.000000,0.000000,191.000000,181.000000,10.000000,0.000000,0.000000,0.000000,0.000000,0.000000,0.000000,0.261463,0.329155,0.095824,0.000000,0.000000,191.000000,181.000000,10.000000,0.000000,0.000000,0.000000,0.000000,0.000000,0.000000;
#CREDIT:;
#DISPLAYBPM:110.000000:225.000000;
#NOTES:
00000000
00000000
00000000
00000000
,
00000000
00000000
00000000
00000000
,
00000000
00000000
00000000
00000000
,
10000000
00010000
10000000
00010000
,
10000000
00010000
10000000
00010000
,
10000000
01000000
00010000
00001000
,
00010000
00001000
00010000
00001000
,
00000010
00000001
00000100
00000010
,
00001000
00000001
00001000
00000001
,
00000100
00000110
00001000
00000100
,
00010000
00001000
00100000
01100000
,
10000000
10010000
01000000
00001000
,
00010000
01000000
00010000
00011000
,
00000010
00001001
00000100
00001000
,
00010000
01000000
10000000
10010000
,
00100000
01100000
00010000
00001000
,
00000010
00000100
00000010
00001001
,
00000100
00010000
00001000
00100000
,
00010000
01000000
10000000
01000000
,
00100000
00001000
00010000
00000100
,
00001000
00000010
00000001
00000010
,
00000100
00001000
00000010
00001000
,
00000100
00010000
00001000
00100000
,
00010000
01000000
00010000
00100000
,
00001000
00001000
00010000
00010000
,
00001000
00010000
00000000
00000000
,
00000000
00000000
00000000
00000010
,
00000100
00000001
00000000
00000000
,
00000000
00000000
00000000
00000000
,
00000000
00001000
00000000
00000000
,
00000000
00010000
00000000
00000000
,
00000000
10000000
00000000
00000000
,
00000000
01000000
00000000
00000000
,
00000000
00100000
00000000
00000000
,
00000000
01000000
00000000
00000000
,
00000000
00100000
00010000
01000000
,
00001000
00010000
01000000
10000000
,
00010000
01000000
00001000
00010000
,
00000010
00001000
00000100
00010000
,
00001000
00100000
10000000
00100000
,
00010000
01000000
00100000
10000000
,
01000000
00100000
00001000
00010000
,
00000100
00000010
00000001
00000100
,
00001000
00000100
00000001
00000010
,
00001000
00010000
00100000
10000000
,
00010000
01000000
00010000
00100000
,
00001000
00010000
01000000
10000000
,
00010000
01000000
01000000
01000000
,
01000000
00001000
00001000
00001000
,
00001000
00010000
00010000
00010000
,
00010000
00000010
00000010
00000100
,
00000100
00001001
00000000
00000000
,
00000000
00000100
00000100
00000100
,
00000100
00010000
00001000
00010000
,
00001000
00100000
00010000
10000000
,
00100000
01000000
00001000
00010000
,
00001000
00000000
00000000
00000000
,
00000000
00011000
00000000
00000000
,
00000000
00000000
00000000
00000000
;

//---------------dance-double - ----------------
#NOTEDATA:;
#CHARTNAME:;
#STEPSTYPE:dance-double;
#DESCRIPTION:;
#CHARTSTYLE:;
#DIFFICULTY:Medium;
#METER:9;
#RADARVALUES:0.390141,0.466303,0.277890,0.000000,0.000000,285.000000,256.000000,29.000000,0.000000,0.000000,0.000000,0.000000,0.000000,0.000000,0.390141,0.466303,0.277890,0.000000,0.000000,285.000000,256.000000,29.000000,0.000000,0.000000,0.000000,0.000000,0.000000,0.000000;
#CREDIT:;
#DISPLAYBPM:110.000000:225.000000;
#NOTES:
00000000
00000000
00000000
00000000
,
00000000
00000000
00000000
00000000
,
00000000
00000000
00000000
00000000
,
10000000
01000000
00100000
00000000
00010000
01000000
00100000
00000000
,
10000000
01000000
00010000
00000000
00001000
00010000
00001000
00000000
,
00000010
00000001
00000100
00000000
00001100
00000000
00001100
00000000
,
00010000
00001000
00100000
00000000
10010000
00000000
10010000
00000000
,
00100000
01000000
00010000
00000000
00101000
00000000
00101000
00000000
,
00010000
00000100
00000010
00000000
00001001
00000000
00001001
00000000
,
00000100
00010000
00001000
00100000
00010000
01000000
00100000
00000000
,
01000000
00000000
10010000
00000000
00100000
01000000
00010000
00000000
,
00100000
00001000
00010000
00000100
00001000
00000001
00000100
00000000
,
00000010
00000000
00001001
00000000
00000100
00000010
00000001
00000000
,
00001000
00000010
00000100
00001000
00010000
01000000
10000000
00000000
,
00100000
00000000
01010000
00000000
00100000
01000000
10000000
00000000
,
00010000
01000000
00010000
01000000
00010000
01000000
00010000
01000000
,
00001000
00010000
00000100
00000010
00000001
00000100
00000010
00001000
,
00000001
00000000
00000001
00000001
00000000
00001000
00000000
00000100
,
00000000
00010000
00000000
00001000
00000000
00100000
00010000
01000000
,
00100000
00000000
00100000
00100000
00000000
10000000
00000000
00010000
,
00000000
00100000
00000000
01000000
00000000
00010000
00001000
00010000
,
00000010
00000000
00000010
00000010
00000000
00000100
00000000
00000001
,
00000000
00000010
00000000
00000100
00000000
00001000
00000010
00000100
,
00001000
00000000
00001000
00001000
00000000
00010000
00000000
00010000
,
00000000
00100000
00000000
00100000
00000000
01000000
00000000
01000000
,
00010000
10000000
10000000
10000000
,
00000000
00000000
00000000
00100000
,
01000000
00010000
00000000
10000000
,
00000000
01000000
00010000
00001000
,
00000100
00000001
00000000
00000001
,
00000000
00001000
00000000
00001000
,
00000000
00000100
00010000
00001000
,
00100000
10000000
00100000
00010000
,
01000000
00100000
00100000
00100000
,
00100000
10000000
00010000
10000000
,
00010000
00100000
01000000
00010000
,
00001000
00000000
00000100
00000001
00000010
00000000
00000100
00001000
,
00000010
00000100
00001000
00010000
,
01000000
00000000
10000000
00010000
01000000
00000000
00100000
10000000
,
00010000
00000000
00100000
01000000
00010000
00000000
00001000
00000100
,
00000001
00001100
00000101
00000011
,
00001100
00000000
00000010
00010000
00000100
00000000
00001000
00000001
,
00000100
00001010
00010100
00101000
,
01010000
00000000
10000000
01000000
00100000
00000000
00010000
01000000
,
00100000
10010000
01001000
00110000
,
11000000
00000000
00010000
01000000
00001000
00000000
00010000
00000010
,
00001000
00000101
00000011
00001100
,
00011000
00000000
00100000
00010000
01000000
00000000
00100000
00000000
,
00100000
00000000
10000000
01000000
00100000
00000000
00010000
00000000
,
00010000
00000000
01000000
00001000
00010000
00000000
01000000
10000000
,
00100000
00000000
01000000
00001000
00010000
00000010
00001000
00000100
,
00000010
00001001
00000000
00000000
,
00000000
00000100
00000100
00000100
,
00000100
00010000
00001000
00000010
,
00000001
00000100
00001000
00010000
,
01000000
10000000
00010000
01000000
,
00100000
00000000
00000000
00000000
,
00000000
10010000
00000000
00000000
,
00000000
00000000
00000000
00000000
;

//---------------dance-double - ----------------
#NOTEDATA:;
#CHARTNAME:;
#STEPSTYPE:dance-double;
#DESCRIPTION:;
#CHARTSTYLE:;
#DIFFICULTY:Hard;
#METER:12;
#RADARVALUES:0.433946,0.521163,0.009582,0.000000,0.182066,317.000000,316.000000,1.000000,0.000000,0.000000,0.000000,0.000000,0.000000,0.000000,0.433946,0.521163,0.009582,0.000000,0.182066,317.000000,316.000000,1.000000,0.000000,0.000000,0.000000,0.000000,0.000000,0.000000;
#CREDIT:;
#DISPLAYBPM:110.000000:225.000000;
#NOTES:
00000000
00000000
00000000
00000000
,
00000000
00000000
00000000
00000000
,
00000000
00000000
00000000
00000000
,
00000000
00000000
10000000
00000000
00000000
00010000
00000000
00010000
00000000
00000000
00100000
00000000
00000000
00001000
00000000
00001000
,
00000000
00000000
00000010
00000000
00000000
00000001
00000000
00000001
00000000
00000000
00000100
00000000
00000000
00000010
00000000
00000010
,
00001000
00000100
00000010
00000001
00000100
00001000
00010000
00000000
,
00100000
10000000
00010000
00100000
01000000
10000000
00010000
00000000
,
01000000
00001000
00010000
00000010
00010000
00001000
01000000
00000000
,
00010000
00100000
01000000
00010000
00001000
00010000
00000100
00000000
,
00000010
00000000
00000001
00000000
00000100
00000000
00000000
00000000
00000010
00001000
00000000
00000001
00000100
00000000
00000000
00000000
,
00000010
00000000
00001000
00000000
00000100
00000000
00000000
00000000
00010000
00001000
00000000
00001000
00000000
00000000
00000000
00000000
,
00100000
00000000
01000000
00000000
10000000
00000000
00000000
00000000
00100000
01000000
00000000
00010000
00100000
00000000
00000000
00000000
,
00001000
00000000
00010000
00000000
00000010
00000000
00000000
00000000
00001000
00000100
00000000
00000100
00000000
00000000
00000000
00000000
,
00010000
00000000
00001000
00000000
00000100
00000000
00000000
00000000
00000001
00000010
00000000
00000100
00001000
00000000
00000000
00000000
,
00000010
00000000
00010000
00000000
00001000
00000000
00000000
00000000
00100000
01000000
00000000
01000000
00000000
00000000
00000000
00000000
,
10000000
00000000
00010000
00000000
01000000
00000000
00000000
00000000
00100000
10000000
00000000
01000000
00100000
00000000
00000000
00000000
,
00001000
00000000
00010000
00000000
00000100
00000000
00000000
00000000
00000010
00000001
00000000
00000001
00000000
00000000
00000000
00000000
,
00001000
00000100
00000010
00000001
00000100
00000010
00001000
00000100
,
00000010
00000000
00001000
00000000
00010000
00000000
00100000
00000000
10000000
00000000
01000000
00000000
00100000
00010000
00100000
00000000
,
00001000
00010000
00001000
00000100
00000001
00000010
00000100
00001000
,
00000010
00000000
00010000
00000000
00001000
00000000
01000000
00000000
00010000
00000000
00100000
00000000
01000000
10000000
01000000
00000000
,
00100000
00010000
01000000
00100000
10000000
01000000
00100000
00010000
,
10000000
00000000
01000000
00000000
00010000
00000000
00001000
00000000
00000100
00000000
00000001
00000000
00000010
00000100
00000010
00000000
,
00000001
00001000
00000100
00010000
00001000
00010000
00001000
00000100
,
00000001
00000000
00000010
00000000
00000100
00000000
00001000
00000000
00000010
00000100
00000010
00000000
00010000
00000000
00001000
00000000
,
00100000
00000000
10000000
00010000
00100000
00001000
00010000
00000100
,
00000010
00000001
00000100
00000000
00000000
00000000
00000100
00000000
,
00010000
00000000
00001000
00000000
00000000
00100000
01000000
00000000
,
00000000
00000000
00000000
00000000
,
00000000
00000000
00001000
00000000
00000000
00000000
00010000
00000100
,
00000000
00000010
00000000
00000000
00000001
00000000
00000000
00000000
00000000
00000000
00000000
00000000
00001000
00000000
00000000
00000000
,
00000100
00000000
00000000
00000000
00010000
00000000
00000000
00000000
00000000
00000000
00001000
00000000
00001000
00000000
00000000
00100000
,
00000000
01000000
00000000
00000000
00000000
00000000
10000000
00000000
,
00000000
00010000
00000000
00000000
,
00000000
01000000
00001000
00010000
,
00000010
00000000
00001000
00000001
00000010
00000100
00001000
00000001
,
00000100
00001000
00010000
00001000
00010000
00100000
10000000
01000000
,
00100000
00010000
01000000
00100000
10000000
01000000
00010000
00001000
,
00010000
00000010
00000100
00000001
00000010
00000100
00001000
00000001
,
00000100
00000000
00000010
00000000
00001000
00000000
00000000
00000100
00000000
00000000
00010000
00000000
00000000
00000000
00001000
00000000
,
00001000
00000000
00000000
00000000
00010000
00000000
00000000
01000000
00000000
00000000
10000000
00000000
00000000
00000000
00010000
00000000
,
01000000
00000000
00100000
00000000
10000000
00000000
00000000
01000000
00000000
00000000
00010000
00000000
00000000
00000000
00001000
00000000
,
00000100
00000000
00000000
00000000
00000001
00000000
00000000
00000010
00000000
00000000
00000100
00000000
00000000
00000000
00010000
00000000
,
00000010
00000000
00000100
00000000
00001000
00000000
00000000
00001000
00000000
00000000
00010000
00000000
00000000
00000000
00100000
00000000
,
00100000
00000000
00000000
00000000
10000000
00000000
00000000
00010000
00000000
00000000
00100000
00000000
00000000
00000000
01000000
00000000
,
10000000
00000000
00010000
00000000
01000000
00000000
00000000
00100000
00000000
00000000
00010000
00000000
00000000
00000000
00001000
00000000
,
00000010
00000000
00000000
00000000
00000001
00000000
00000000
00001000
00000000
00000000
00000010
00000000
00000000
00000000
00000100
00000000
,
00001000
00010000
00000000
01000000
10000000
00010000
00000000
01000000
,
00100000
10000000
00000000
01000000
00010000
00001000
00000100
00000001
,
00000010
00000100
00000000
00001000
00000000
00001000
00000000
00001000
,
00000000
00000010
00000000
00000010
00000000
00010000
00000000
00010000
,
00000000
00001000
00000000
00000000
00000000
00100000
00000000
00100000
,
00000000
01000000
00000000
01000000
00000000
00010000
00000000
00001000
,
00000000
00010000
00001000
00000000
00010000
00000000
00100000
00000000
,
10000000
00000000
01000000
00010000
01000000
00000000
00010000
00001000
,
00010000
00001000
00010000
00000000
00000100
00000010
00000100
00000010
,
00000100
00000010
00000000
00000000
00000000
00000000
00000000
00000000
,
00000000
00001001
00000000
00000000
,
00000000
00000000
00000000
00000000
;

//---------------dance-single - ----------------
#NOTEDATA:;
#CHARTNAME:;
#STEPSTYPE:dance-single;
#DESCRIPTION:;
#CHARTSTYLE:;
#DIFFICULTY:Challenge;
#METER:14;
#RADARVALUES:0.611905,0.713170,0.038330,0.038330,0.824086,447.000000,443.000000,4.000000,4.000000,0.000000,0.000000,0.000000,0.000000,0.000000,0.611905,0.713170,0.038330,0.038330,0.824086,447.000000,443.000000,4.000000,4.000000,0.000000,0.000000,0.000000,0.000000,0.000000;
#CREDIT:;
#DISPLAYBPM:110.000000:225.000000;
#NOTES:
// measure 0
0000
0000
0000
0000
,  // measure 1
0000
0000
0000
0000
,  // measure 2
0000
0000
0000
0000
,  // measure 3
0001
1000
0100
0010
0001
1000
0100
0010
,  // measure 4
0100
0010
0100
0010
0000
0100
0010
0000
0001
0000
0010
0000
1000
0000
0100
0000
,  // measure 5
1000
0100
1000
0100
0000
1000
0100
0000
1000
0001
0000
1000
0001
0000
0100
0000
,  // measure 6
0001
0010
0001
0010
0000
0010
0001
0000
0100
0000
0001
0000
0010
0000
0001
0000
,  // measure 7
0001
1000
0001
1000
0000
1000
0001
0000
1000
0000
0001
0000
0100
0000
0010
0000
,  // measure 8
1000
0010
0100
0001
0000
0001
0100
0000
0001
0000
1000
0000
0100
0010
0000
0000
,  // measure 9
0011
0000
0000
0100
1000
0000
0000
0000
0101
0000
0000
1000
0010
0000
0000
0000
,  // measure 10
1000
0001
0000
1000
0000
0001
1000
0001
0000
1000
0001
0000
1000
0000
0001
0000
,  // measure 11
1000
0100
0000
1000
0000
0100
1000
0100
0000
1000
0100
1000
0100
0000
1000
0000
,  // measure 12
0001
1000
0000
0001
0000
1000
0001
1000
0000
0001
1000
0001
0100
0000
0001
0000
,  // measure 13
0010
0001
0000
0010
0000
0001
0010
0001
0000
0001
0010
0001
0010
0000
0001
0000
,  // measure 14
0100
0010
0000
0100
0000
0010
0100
0010
0000
0100
0010
0100
0010
0000
1000
0000
,  // measure 15
0001
0001
1000
1000
0100
0100
0010
0010
,  // measure 16
0001
0010
0001
0010
0100
1000
0100
1000
0001
0010
0100
1000
0001
0000
1000
0000
,  // measure 17
0001
0010
0100
1000
0000
0010
0100
1000
,  // measure 18
0000
0000
0010
0000
0100
0000
0001
0000
0000
0010
0000
0010
0000
0000
0000
0000
,  // measure 19
0001
1000
0100
0010
0000
0010
0100
0001
,  // measure 20
0000
0000
0001
0000
0010
0000
0100
0000
0000
1000
0000
1000
0000
0000
0000
0000
,  // measure 21
1000
0100
0001
0010
0000
0010
0001
1000
,  // measure 22
0000
0000
1000
0000
0100
0000
0010
0000
0000
0001
0000
0001
0000
0000
0000
0000
,  // measure 23
1000
1000
0001
0001
0010
0010
0100
0100
,  // measure 24
1000
0100
0010
0001
0010
0100
1000
0100
0000
0100
0000
0100
0000
0000
0000
0000
,  // measure 25
1100
0000
0000
0000
0000
0000
0000
0000
0000
0000
0000
0000
1000
0000
0100
0000
0000
0000
0000
0000
0000
0000
0000
0000
0001
0000
0100
0000
0000
0000
0000
0000
0000
0000
0000
0000
1000
0000
0000
0010
0000
0000
0000
0000
0000
0000
0000
0000
,  // measure 26
0001
0010
0000
0000
1000
0001
0000
0000
0001
0100
0000
0000
0100
1000
0000
0000
,  // measure 27
0001
0000
1000
0000
0000
0000
0000
0000
0100
0000
1000
0000
0000
0000
0000
0000
0000
0000
0000
0020
0000
0000
0000
0000
0000
0000
0000
0000
0000
0000
0000
0000
,  // measure 28
0000
0000
0000
0000
,  // measure 29
0000
0000
0000
0000
0000
0000
0030
0000
0000
0000
0000
0000
0001
0000
0000
2000
,  // measure 30
0000
0002
0000
0000
0000
0000
0000
0000
,  // measure 31
0000
0000
0000
3003
0000
0000
0000
0000
0000
0000
0010
0000
1000
0000
0000
0001
,  // measure 32
0000
0000
0010
0000
0000
0000
0000
0000
0000
0200
0000
0000
0000
0000
0000
0000
,  // measure 33
0000
0000
0000
0000
,  // measure 34
0000
0000
0000
0000
,  // measure 35
0000
0000
0000
0300
1000
0100
0000
0010
0001
0000
1000
0001
0100
0001
0000
0001
,  // measure 36
0010
0000
0001
1000
0100
1000
0000
1000
0010
0000
0100
0010
0100
0010
0000
0010
,  // measure 37
0000
0100
0000
0010
0100
0000
0010
0100
0001
0100
0000
0100
0010
0000
1000
0100
,  // measure 38
0010
0001
0000
0001
0010
0000
0001
0100
0010
1000
0000
1000
0000
0001
0000
1000
,  // measure 39
0000
0001
1000
0000
0001
0010
0000
0100
1000
0000
0100
1000
0010
0100
0000
0100
,  // measure 40
0001
0000
0001
0010
0100
1000
0000
1000
0001
0000
1000
0100
0010
0001
0000
0001
,  // measure 41
0000
0001
1000
0000
0001
0000
1000
0001
0010
0001
0100
0001
1000
0000
0001
1000
,  // measure 42
0100
1000
0001
1000
0010
0100
0000
0010
0100
0000
0001
0000
1000
0000
0001
0000
,  // measure 43
0100
0000
0010
1000
0100
1000
0000
0010
0100
0000
0001
0010
0100
1000
0000
0001
,  // measure 44
1000
0000
0001
1000
0100
1000
0000
0010
0100
0000
1000
0100
0010
0001
0000
0001
,  // measure 45
0000
1000
0100
0000
1000
0010
0000
0100
0001
0000
1000
0001
0010
0100
0000
1000
,  // measure 46
0001
1000
0100
0010
0001
0000
0000
0100
0000
0000
0010
0000
0000
1000
0000
1000
,  // measure 47
0000
0000
0000
0000
1001
0000
0001
0010
0100
1000
0000
1000
0001
0000
1000
0100
,  // measure 48
0010
0001
0000
0001
1000
0000
0001
0010
0100
1000
0000
1000
0000
0010
0000
1000
,  // measure 49
0000
0010
0100
0000
0010
0000
0010
0000
0100
0000
0100
0000
0001
0000
0001
0000
,  // measure 50
1000
0000
1000
0000
0001
0100
0001
0100
0010
1000
0010
1000
0100
1000
0100
1000
,  // measure 51
0001
1000
0001
1000
0001
0000
0000
0000
0000
0000
0000
0000
0000
0000
1000
0000
,  // measure 52
1000
0100
0100
1000
1000
0100
0100
1000
,  // measure 53
1000
0000
0001
0000
0001
0000
0000
1000
0000
0000
0010
0000
0000
0100
0000
0000
,  // measure 54
0001
0000
0000
1000
0000
0000
0100
0000
0000
0010
0000
0000
0001
0000
0010
0000
,  // measure 55
0001
0010
0100
1000
0100
1000
0001
0100
,  // measure 56
0001
0100
0010
1000
0010
1000
0001
1000
,  // measure 57
0001
1000
0100
0000
0000
0000
0000
0000
;
