#TITLE:INSERTION(Machine Gun Kelly Mix);
#SUBTITLE:;
#ARTIST:Thuggie D.;
#TITLETRANSLIT:;
#SUBTITLETRANSLIT:;
#ARTISTTRANSLIT:;
#GENRE:;
#CREDIT:;
#BANNER:INSERTION(Machine Gun Kelly Mix).png;
#BACKGROUND:INSERTION(Machine Gun Kelly Mix)-bg.png;
#LYRICSPATH:;
#CDTITLE:;
#MUSIC:INSERTION(Machine Gun Kelly Mix).ogg;
#OFFSET:0.000000;
#SAMPLESTART:29.240000;
#SAMPLELENGTH:15.000000;
#SELECTABLE:YES;
#DISPLAYBPM:62.000000:139.000000;
#BPMS:0.000000=139.899994
,4.000000=139.500000
,132.000000=62.400005
,134.000000=75.349998
,138.000000=69.750000
,143.000000=71.500000
,144.000000=69.750000
,147.000000=66.699997
,148.000000=69.750000
,150.000000=68.400002
,152.000000=69.750000
,156.000000=139.500000
,215.000000=136.000000
;
#STOPS:
;
#BGCHANGES:;
#KEYSOUNDS:;
#ATTACKS:;

//---------------dance-single - ----------------
#NOTES:
     dance-single:
     :
     Beginner:
     2:
     0.129915,0.177194,0.065627,0.000000,0.000000,97.000000,90.000000,7.000000,0.000000,0.000000,0.000000,0.129915,0.177194,0.065627,0.000000,0.000000,97.000000,90.000000,7.000000,0.000000,0.000000,0.000000:
0000
0000
0000
0000
,
0000
0000
0000
0000
,
0000
0000
0000
0000
,
0000
0000
0000
0000
,
0000
0000
0000
0000
,
1000
1000
0000
0000
,
0010
0000
0001
0000
,
1000
1000
0000
0000
,
1000
0000
1000
0000
,
1000
0000
0010
0000
,
1000
0000
0100
0000
,
0001
0000
0010
0000
,
1001
0000
1000
0000
,
1000
0000
0010
0000
,
1000
0000
0001
0000
,
1000
0000
0001
0000
,
1000
0000
1000
0000
,
0001
0000
1000
0000
,
1000
0000
0001
0000
,
1001
0000
0001
0000
,
0001
0000
1000
0000
,
0010
0000
0001
0000
,
0100
0000
0100
0000
,
0001
0000
1000
0000
,
0010
0000
0001
0000
,
0100
0000
1000
0000
,
1000
0000
1000
0000
,
1000
0000
0000
0000
,
0001
0000
1000
0000
,
1000
0000
0010
0000
,
1000
0000
1000
0000
,
1000
0000
0010
0000
,
1000
0000
0001
0000
,
1001
0000
0000
0000
,
0000
0000
1000
0000
,
0100
0000
0000
0000
,
0000
0010
0000
0100
,
0000
0000
0000
0000
,
0000
0000
0000
0000
,
1000
0000
1000
0000
,
1000
0000
1000
0000
,
0110
0000
0001
0000
,
0100
0000
1000
0000
,
0010
0000
0001
0000
,
0100
0000
0000
0100
,
0000
0000
0010
0000
,
1000
0000
0010
0000
,
0001
0000
0010
0000
,
1000
0000
0010
0000
,
1001
0000
1000
0000
,
1001
0000
1000
0000
,
1000
0000
1000
0000
,
0010
0000
0010
0000
,
0010
0000
0010
0000
,
1001
0000
0000
0000
;

//---------------dance-single - ----------------
#NOTES:
     dance-single:
     :
     Easy:
     5:
     0.184828,0.253134,0.150005,0.112504,0.000000,138.000000,122.000000,16.000000,12.000000,0.000000,0.000000,0.184828,0.253134,0.150005,0.112504,0.000000,138.000000,122.000000,16.000000,12.000000,0.000000,0.000000:
0000
0000
0000
0000
,
0000
0000
0000
0000
,
0000
0000
0000
0000
,
0000
0000
0000
0000
,
0000
0000
0000
0000
,
1000
1000
0001
0000
,
0010
1000
0001
0000
,
1000
1000
0001
0000
,
1000
0010
1000
0001
,
2000
0010
0010
3000
,
1000
0010
0100
0000
,
0002
0010
0010
0003
,
1001
0010
1000
0001
,
1000
0010
0010
0000
,
1000
0001
0101
0000
,
2000
0001
0001
3000
,
1000
0001
1000
0001
,
0002
1000
1000
0003
,
1000
0010
0001
0100
,
1001
0000
0001
0000
,
0101
0000
1000
0000
,
1010
0000
0001
0000
,
0011
0000
0100
0000
,
0101
0000
1000
0000
,
1010
0000
0001
0000
,
0022
0030
1000
0000
,
1000
0000
1000
0003
,
2000
0000
0000
3000
,
0001
0000
1000
0000
,
1000
0010
0010
0000
,
1000
0001
1000
0100
,
1000
0010
0010
0000
,
1000
0010
0001
0000
,
2002
0000
0000
0000
,
0000
0000
0000
3003
,
0000
0000
0000
0000
,
0000
0000
0000
0000
,
0000
0000
0000
0000
,
0000
0000
0000
0000
,
1000
0001
1000
0100
,
1000
0010
1000
0001
,
0110
0000
0001
0010
,
0100
0000
1000
0100
,
0010
0000
0001
0010
,
0100
0000
0000
0100
,
1001
0000
0010
0000
,
1000
0000
0010
1000
,
0002
0000
0010
0003
,
2000
0000
0010
3100
,
1001
0000
1000
0000
,
1001
0010
1000
0000
,
1000
0010
1000
0100
,
2010
0000
0010
0000
,
0010
0000
0010
3000
,
1001
0000
0000
0000
;

//---------------dance-single - ----------------
#NOTES:
     dance-single:
     :
     Medium:
     7:
     0.306707,0.354387,0.215632,0.150005,0.065627,229.000000,206.000000,23.000000,16.000000,0.000000,0.000000,0.306707,0.354387,0.215632,0.150005,0.065627,229.000000,206.000000,23.000000,16.000000,0.000000,0.000000:
0000
0000
0000
0000
,
0000
0000
0000
0000
,
0000
0000
0000
0000
,
0000
0000
0000
0000
,
0000
0000
0000
0000
,
1001
0010
0010
0001
,
1000
0010
1000
0001
,
1001
0000
0010
0001
1000
0000
0001
0000
,
2000
0010
0100
3001
,
1000
0000
0001
1000
0001
0000
0100
0000
,
0002
1000
1000
1003
,
1001
0000
0010
1000
0001
0000
1001
0000
,
0110
0010
1000
0100
,
2000
0010
3010
1001
,
1000
0000
0010
0000
1000
0001
1000
0000
,
0002
0010
0010
0003
,
1000
0010
1000
0100
,
1000
0000
0010
0010
0000
0010
0000
1000
,
0001
0010
0001
0100
,
1001
0000
0010
0010
0000
0010
0000
1000
,
0001
1000
0001
0100
,
1010
0000
0100
0100
0000
0100
0000
0001
,
1000
0100
1000
0001
,
0101
0000
0010
0010
0000
0010
0000
1000
,
0001
1000
0001
1001
,
0001
0000
1000
0001
1000
0000
0001
1000
,
0001
0000
1000
0000
0010
1000
0002
0000
,
2000
0000
0000
3003
,
1000
0001
0100
0000
0001
1000
0100
0000
,
1000
0010
1000
0001
,
1000
0001
0100
0000
0010
1000
0001
0000
,
1000
0000
0010
1000
0010
0100
0001
0000
,
1000
0010
0100
0000
,
2002
0000
0000
3003
,
0000
0000
0020
0000
0000
0000
0000
0000
0000
0000
0000
0000
0000
0000
0000
0000
0000
0000
0000
0000
0000
0000
0000
0000
0030
0000
0000
0000
0000
0000
0000
0000
1000
0000
0000
0000
0000
0000
0000
0000
0000
0000
0010
0000
0000
0000
0000
0000
0000
0000
0000
0010
0000
0000
0000
0000
0000
0000
0000
0000
0000
0000
0000
0000
,
0200
0000
0000
0000
,
0300
0000
0000
0000
0010
0000
0000
0010
0000
0000
0010
0000
0000
0000
0000
0000
0000
0000
0000
1000
0000
0000
0000
0000
0000
0100
0000
0000
0000
0000
0100
0000
,
0000
0000
0000
0000
0000
0000
0000
0000
0000
0000
0000
0000
0000
0000
0000
1000
0000
0000
0000
0000
0000
0000
1000
0000
0000
0000
0000
0000
2000
0000
0000
0000
0000
0000
0000
0000
0000
0000
0000
0000
0000
0000
0000
0000
0000
0000
0000
0000
0000
0000
0000
0000
0000
0000
0000
0000
0000
0000
0000
0000
0000
0000
0000
0000
,
0000
0000
0000
3000
,
1001
1010
0001
0100
,
0001
0000
1010
0000
0001
1000
0100
0000
,
0110
0000
1000
0000
0001
0100
0010
0000
,
0100
0000
0001
0000
0001
1000
0010
0000
,
0100
0000
0001
0000
0001
0100
0010
0000
,
0100
0000
1001
0000
0010
1000
0100
0000
,
2000
0010
0010
3100
,
0001
0000
0101
0000
0001
1000
0100
0000
,
1000
1100
0020
0000
,
0000
0000
1000
0000
0030
1000
0000
0000
0010
0000
0010
0000
0000
0100
0000
0000
,
0001
0000
0001
0000
0000
0010
0000
0000
0010
0000
0010
0000
0000
0000
0000
0000
,
2002
0000
0000
3003
,
1010
0000
0010
1000
0001
0000
0100
0000
,
1010
0000
0001
1000
0010
0000
1000
0000
,
2001
0010
0010
3010
,
1001
0000
0000
0000
;

//---------------dance-single - ----------------
#NOTES:
     dance-single:
     :
     Hard:
     8:
     0.354923,0.430327,0.196882,0.206257,0.079690,265.000000,244.000000,21.000000,22.000000,0.000000,0.000000,0.354923,0.430327,0.196882,0.206257,0.079690,265.000000,244.000000,21.000000,22.000000,0.000000,0.000000:
0000
0000
0000
0000
,
0000
0000
0000
0000
,
0000
0000
0000
0000
,
0000
0000
0000
0000
,
0000
0000
0000
0000
,
0001
1000
0010
1000
0010
0000
1000
0000
,
0001
1000
0010
1000
0001
0000
1000
0010
,
1000
0001
0010
0100
0010
0000
0001
1000
,
0001
1000
0010
0100
0010
0100
0001
1000
,
0002
0010
0010
0103
,
0001
0010
0010
0000
0001
1000
0001
0000
,
2000
0010
0010
3001
,
1000
0010
0010
0000
1000
0001
1000
0000
,
1000
0000
0010
1000
0010
0000
1001
0000
,
1000
0001
1000
0010
0100
0001
0100
0001
,
2000
0000
0010
0010
3010
0000
1000
0000
,
0001
0010
0001
0100
,
1001
0000
0010
0010
0000
0010
0000
2000
,
0000
0000
0010
0000
0000
0000
3010
0000
0000
0100
0001
0000
0100
0000
0001
0000
,
1000
0000
0010
0010
0000
0010
0000
2000
,
0000
0000
0001
0000
0000
0000
3001
0000
0000
0100
0010
0000
0100
0000
0010
0000
,
2000
0000
0100
0100
0000
3100
0000
0010
,
0000
0000
0001
0000
0000
0000
0001
0000
0000
1000
0100
0000
1000
0000
0100
0000
,
0020
0000
0001
0001
0000
0031
0000
1000
,
0000
1010
0000
0010
0000
1000
0000
0001
,
0020
0000
0032
0000
,
0203
0000
0320
0030
,
2020
3030
2200
3300
,
0002
0000
0003
0000
2000
0000
0010
0010
,
3010
0000
0010
0100
0001
0000
0101
0000
,
1000
0000
1000
0001
1000
0000
0101
0000
,
1000
0001
0100
0001
0010
0100
1000
0000
,
1100
0000
0010
1000
0001
0100
0010
0000
,
2002
0000
0000
0000
,
0000
0000
0000
0000
0000
0000
0000
0000
3003
0000
0000
0000
0000
0000
0000
0000
1000
0000
0000
0000
0000
0010
0000
0000
0000
0000
0010
0000
0000
0000
0000
0000
,
0200
0000
0000
0000
,
0300
0000
0000
0000
0010
0000
0000
0010
0000
0000
0010
0000
0000
0000
0000
0000
0000
0000
0000
1000
0000
0000
0000
0000
0000
0100
0000
0000
0000
0000
0100
0000
,
0000
0000
0000
0000
0000
0000
0000
0000
0000
0000
0000
0000
0000
0000
0000
1000
0000
0000
0000
0000
0000
0000
1000
0000
0000
0000
0000
0000
2000
0000
0000
0000
0000
0000
0000
0000
0000
0000
0000
0000
0000
0000
0000
0000
0000
0000
0000
0000
0000
0000
0000
0000
0000
0000
0000
0000
0000
0000
0000
0000
0000
0000
0000
0000
,
0000
0000
0000
3000
,
1001
0000
0010
0100
0001
1000
0001
1000
,
0001
0001
1000
0001
1000
1000
0001
1000
,
0010
0000
1000
0001
0100
0000
0010
1000
,
0100
0000
1100
0000
0001
1000
0010
0000
,
0100
0000
1010
0000
0001
1000
0010
0000
,
0100
0001
0100
0000
0101
0000
0100
0000
,
1001
0000
0010
0001
0010
0000
0001
0000
,
1000
0000
1001
0000
0001
1000
0001
0000
,
1001
0101
0020
0000
,
0000
0000
1000
0000
0030
1000
0000
0000
0010
0000
0010
0000
0000
0100
0000
0000
,
0001
0000
0001
0000
0000
0010
0000
0000
0010
0000
0010
0000
0000
0100
0000
0000
,
0010
0000
0001
1000
0001
1000
0010
0000
,
1001
0000
0100
0001
1000
0001
0100
0000
,
1001
0000
1000
0001
0100
0010
1000
0000
,
1001
0000
1000
0001
0100
0010
1000
0000
,
1001
0000
0000
0000
;

//---------------dance-double - ----------------
#NOTES:
     dance-double:
     :
     Easy:
     5:
     0.199560,0.256649,0.056252,0.225008,0.042189,149.000000,143.000000,6.000000,24.000000,0.000000,0.000000,0.199560,0.256649,0.056252,0.225008,0.042189,149.000000,143.000000,6.000000,24.000000,0.000000,0.000000:
00000000
00000000
00000000
00000000
,
00000000
00000000
00000000
00000000
,
00000000
00000000
00000000
00000000
,
00000000
00000000
00000000
00000000
,
00000000
00000000
00000000
00000000
,
00000001
00000010
00000100
00000000
,
00010000
00001000
00100000
00000000
,
10000000
00010000
01000000
00000000
,
00100000
00100000
10000000
10000000
,
00010000
00100000
00001000
00000000
,
00001000
00010000
00000100
00000000
,
00000010
00000001
00000100
00000000
,
00000010
00001000
00000100
00010000
,
00001000
00100000
00010000
00000000
,
10000000
00100000
01000000
00000000
,
00010000
00100000
00001000
00000000
,
00010000
00001000
00010000
00001000
,
00011000
00000000
00000100
00000000
,
00000010
00000001
00001000
00000000
,
00000010
00000000
00000100
00000000
,
00000001
00001000
00000100
00000000
,
00002000
00003000
00000010
00000000
,
00000200
00000300
00001000
00000000
,
00020000
00030000
00100000
00000000
,
10000000
00010000
10000000
00010000
,
20010000
30000000
02000000
03000000
,
00020000
00030000
00001000
00000000
,
00000100
00000001
00000100
00000001
,
00001000
00000100
00001000
00000100
,
00010000
00010000
00001000
00001000
,
00100000
00100000
00010000
00010000
,
10000000
00100000
01000000
00010000
,
00100000
00001000
00010000
00001000
,
00022000
00000000
00000000
00000000
00000000
00000000
00000000
00000000
00000000
00000000
00000000
00000000
00000000
00000000
00000000
00000000
00000000
00000000
00000000
00000000
00000000
00000000
00000000
00000000
00000000
00000000
00000000
00000000
00000000
00000000
00000000
00000000
00033000
00000000
00000000
00000000
00001000
00000000
00000000
00000000
00000000
00000000
00000000
00000000
00000000
00000000
00000000
00000000
00000000
00000000
00000000
00000100
00000000
00000000
00000000
00000000
00000000
00000000
00000000
00000000
00000000
00000000
00000000
00000000
,
00000000
00000000
00000001
00000000
00000000
00000000
00000000
00000000
00000000
00000000
00000000
00000000
00000000
00000000
00000000
00000000
00000000
00000000
00000000
00000000
00000000
00000000
00000000
00000000
00000000
00000000
00000000
00000000
00000000
00000000
00000000
00000000
00000010
00000000
00000000
00000000
00000000
00000000
00000000
00000000
00000000
00000000
00000000
00000000
00000000
00000000
00000000
00000000
00000000
00000000
00000000
00001000
00000000
00000000
00000000
00000000
00000000
00000000
00000000
00000000
00000000
00000000
00000000
00000000
,
00020000
00000000
00030000
00000000
,
00000000
00000000
00000000
00000000
00100000
00000000
00000000
00000000
00000000
00000000
01000000
00000000
00000000
00000000
00000000
00000000
00000000
00000000
00000000
00010000
00000000
00000000
00000000
00000000
00000000
00000000
00000000
00000000
00000000
00000000
01000000
00000000
,
00000000
00000000
00000000
00000000
00000000
00000000
00000000
00000000
00000000
00000000
00000000
00000000
00000000
00000000
00000000
10000000
00000000
00000000
00000000
00000000
00000000
00000000
00000000
00000000
00000000
00000000
00000000
00000000
00020000
00000000
00000000
00000000
00000000
00000000
00000000
00000000
00000000
00000000
00000000
00000000
00000000
00000000
00000000
00000000
00000000
00000000
00000000
00000000
00000000
00000000
00000000
00000000
00000000
00000000
00000000
00000000
00030000
00000000
00000000
00000000
00000000
00000000
00000000
00000000
,
00000000
00000000
00000000
00000000
,
10000000
01000000
00100000
00001000
,
00010000
00000010
00001000
00000001
,
00002000
00003000
00000020
00000030
,
00000200
00000300
00002000
00003000
,
00010000
00000000
00010000
00001000
,
00100000
00000000
00010000
00100000
,
02000000
03000000
20000000
30000000
,
00020000
00030000
20000000
30010000
,
20020000
00000000
00000000
30030000
,
01000000
00000000
00001000
00000000
,
00010000
00000000
00000100
00000000
,
00001001
00000001
00000200
00000300
,
00001000
00010000
00002000
00003000
,
00100000
00010000
01000000
00010000
,
00100000
01000000
10000000
00100000
,
20020000
00000000
00000000
30030000
;

//---------------dance-double - ----------------
#NOTES:
     dance-double:
     :
     Medium:
     7:
     0.289296,0.359309,0.178131,0.131255,0.056252,216.000000,197.000000,19.000000,14.000000,0.000000,0.000000,0.289296,0.359309,0.178131,0.131255,0.056252,216.000000,197.000000,19.000000,14.000000,0.000000,0.000000:
00000000
00000000
00000000
00000000
,
00000000
00000000
00000000
00000000
,
00000000
00000000
00000000
00000000
,
00000000
00000000
00000000
00000000
,
00000000
00000000
00000000
00000000
,
10010000
00100000
10000000
00010000
,
10000000
01000000
00100000
00010000
,
01000000
00000000
00100000
10000000
01000000
00000000
00010000
00000000
,
00001000
00000010
00000001
00000100
,
00000010
00000000
00001000
00000001
00001000
00000000
00000010
00000000
,
00000100
00001000
00010000
00100000
,
10000000
00000000
00010000
10000000
00100000
00000000
01000000
00000000
,
00100000
10000000
00010000
01000000
,
00020000
00100000
10000000
01030000
,
00001000
00000000
00010000
00000000
00000100
00001000
00000010
00000000
,
00002000
00000010
00000001
00003100
,
00001000
00000010
00010000
00001000
,
00120000
00000000
00000000
10000000
00000000
01000000
00030000
10000000
,
00010000
00100000
00010000
01000000
,
00020000
00000000
00000000
10000000
00000000
00130000
00000000
01000000
,
00001000
00100000
00001000
00010000
,
00000200
00000000
00000000
00001000
00000000
00000310
00000000
00000001
,
00001000
00000100
00001000
00000001
,
00000200
00000000
00000000
00001000
00000000
00000010
00000300
00000001
,
00000010
00001000
00010000
01000000
,
10010000
00000000
00000000
01000000
10000000
00000000
00000000
00010000
,
00100000
00000000
00000000
00001000
00010000
00000000
00000000
00000000
,
00011000
00010000
00000100
00001000
,
00000010
00000100
00000001
00000100
,
00001000
00010000
00100000
10000000
,
10000000
00010000
01000000
00000000
00010000
01000000
00001000
00000000
,
00010000
00000010
00001000
00000001
,
00001000
00000100
00000010
00000000
00000001
00000100
00001000
00000000
,
00022000
00000000
00000000
00000000
00000000
00000000
00000000
00000000
00000000
00000000
00000000
00000000
00000000
00000000
00000000
00000000
00000000
00000000
00000000
00000000
00000000
00000000
00000000
00000000
00000000
00000000
00000000
00000000
00000000
00000000
00000000
00000000
00033000
00000000
00000000
00000000
00010000
00000000
00000000
00000000
00000000
00000000
00000000
00000000
00000000
00000000
00000000
00000000
00000000
00000000
00000000
01000000
00000000
00000000
00000000
00000000
00000000
00000000
00000000
00000000
00000000
00000000
00000000
00000000
,
00000000
00000000
10000000
00000000
00000000
00000000
00000000
00000000
00000000
00000000
00000000
00000000
00000000
00000000
00000000
00000000
00000000
00000000
00000000
00000000
00000000
00000000
00010000
00000000
00000000
00000000
00000000
00000000
00000000
00000000
00000000
00000000
01000000
00000000
00000000
00000000
00000000
00000000
00000000
00000000
00000000
00000000
00100000
00000000
00000000
00000000
00000000
00000000
00000000
00000000
00000000
10000000
00000000
00000000
00000000
00000000
00000000
00000000
00000000
00000000
00000000
00000000
00000000
00000000
,
00020000
00000000
00000000
00000000
,
00030000
00000000
00000000
00000000
00100000
00000000
00000000
00000000
00000000
00000000
00001000
00000000
00000000
00000000
00000000
00000000
00000000
00000000
00000000
00010000
00000000
00000000
00000000
00000000
00000000
00000100
00000000
00000000
00000000
00000000
00001000
00000000
,
00000000
00000000
00000000
00000000
00000000
00000000
00000000
00000000
00000000
00000000
00000000
00000000
00000000
00000000
00000000
00000010
00000000
00000000
00000000
00000000
00000000
00000000
00000000
00000000
00000000
00000000
00000000
00000000
00000002
00000000
00000000
00000000
00000000
00000000
00000000
00000000
00000000
00000000
00000000
00000000
00000000
00000000
00000000
00000000
00000000
00000000
00000000
00000000
00000000
00000000
00000000
00000000
00000000
00000000
00000000
00000000
00000000
00000000
00000000
00000000
00000000
00000000
00000000
00000000
,
00000003
00000000
00000000
00001001
00000000
00000000
00000000
00000000
,
00011000
00100000
00010000
01000000
,
00010000
00000000
10100000
00000000
00010000
10000000
01000000
00000000
,
01100000
00000000
00110000
00000000
00010000
10000000
00100000
00000000
,
01000000
00000000
00001000
00000000
00010000
00001000
00000100
00000000
,
00000001
00001000
00000000
00001000
00000000
00000010
00000000
00000010
,
00000000
00000100
00000000
00000100
00000000
00000001
00000000
00001000
,
00000100
00001000
00000010
00000100
,
00001000
00000000
00010000
00000000
00100000
01000000
00010000
00000000
,
20020000
00000000
00000000
30030000
,
10000000
00010000
00000000
00000000
00100000
00001000
00000000
00000000
,
00010000
00000100
00000000
00000000
00001000
00000001
00000000
00000000
,
00001001
00000001
00000100
00001000
,
00010000
01000000
10000000
00100000
,
01100000
00000000
00011000
00000000
,
00000110
00001001
00001010
00000101
,
00002002
00000000
00000000
00003003
;

//---------------dance-double - ----------------
#NOTES:
     dance-double:
     :
     Hard:
     11:
     0.440640,0.517987,0.178131,0.131255,0.201569,329.000000,310.000000,19.000000,14.000000,0.000000,0.000000,0.440640,0.517987,0.178131,0.131255,0.201569,329.000000,310.000000,19.000000,14.000000,0.000000,0.000000:
00000000
00000000
00000000
00000000
,
00000000
00000000
00000000
00000000
,
00000000
00000000
00000000
00000000
,
00000000
00000000
00000000
00000000
,
00000000
00000000
00000000
00000000
,
00000010
00000000
00000000
00000001
00001000
00000000
00000000
00000000
00000100
00000000
00000000
00000000
00001000
00000000
00000000
00000000
,
00000001
00000000
00000000
00000010
00001000
00000000
00000000
00000000
00010000
00000000
00000000
01000000
10000000
00000000
00000000
00000000
,
00100000
00000000
00000000
10000000
00010000
00000000
00000000
00000000
01000000
00000000
00000000
00000000
00010000
00000000
00000000
00000000
,
10000000
00000000
00000000
00100000
00010000
00000000
00000000
00000000
00002000
00000000
00000000
00000000
00003100
00000000
00000001
00000000
,
00000010
00000000
00000000
00000001
00000100
00000000
00000000
00000010
00000000
00000000
00001000
00000000
00001000
00000000
00000000
00000000
,
00000001
00000000
00000000
00000100
00001000
00000000
00000000
00000000
00010000
00000000
00000000
01000000
10000000
00000000
00000000
00000000
,
00100000
00000000
00000000
10000000
01000000
00000000
00000000
00100000
00000000
00000000
00010000
00000000
00010000
00000000
00000000
00000000
,
10000000
00000000
00000000
01000000
00010000
00000000
00000000
00000000
00002000
00000000
00000000
00000000
00003100
00000000
00000000
00000000
,
00000010
00000000
00000000
00001000
00000100
00000000
00000010
00000000
00000001
00000000
00000010
00000000
00001000
00000000
00000000
00000000
,
00000010
00000000
00000000
00000001
00000100
00000000
00001000
00000000
00010000
00000000
00000000
00001000
00000100
00000000
00001000
00000000
,
00010000
00000000
00000000
01000000
10000000
00000000
00100000
00000000
00010000
00000000
00100000
00000000
10000000
00000000
00000000
00000000
,
01000000
00000000
00000000
00010000
00001000
00000000
00000100
00000000
00000010
00000100
00000010
00000100
00000000
00000000
00000000
00000000
,
00000001
00000100
00001000
00000100
00000001
00000100
00001000
00010000
,
00100000
10000000
00100000
00010000
00100000
10000000
00010000
10000000
,
01000000
00010000
00001000
00010000
01000000
00010000
00001000
00000010
,
00001000
00010000
00001000
00000010
00001000
00010000
00000100
00010000
,
00001000
00000100
00000001
00000100
00001000
00000100
00000001
00000010
,
00000100
00001000
00000100
00000010
00000100
00001000
00000001
00001000
,
00000010
00000100
00000001
00000010
00001000
00010000
01000000
10000000
,
00100000
01000000
00100000
10000000
01000000
00010000
00001000
00000100
,
00000001
00000000
00000000
00000101
00000000
00000000
00000100
00000000
00000010
00000000
00000000
00001010
00000000
00000000
00001000
00000000
,
00000100
00000000
00000000
00010100
00000000
00000000
00010000
00000000
00001000
00000000
01000000
00000000
00100000
00000000
10000000
00000000
,
01000000
10100000
01000000
00110000
,
01000000
00000000
10010000
00000000
00100000
10000000
01000000
00010000
,
00001000
00000100
00000001
00000000
00000101
00000000
00001010
00000000
,
00000100
00000001
00000010
00000000
00001100
00000000
00000011
00000000
,
00000100
00001000
00000010
00000100
00001000
00010000
00100000
01000000
,
00010000
10000000
01000000
00010000
00001000
00000100
00000001
00001000
,
00000200
00000000
00000000
00000000
00000000
00000000
00000000
00000000
00000000
00000000
00000000
00000000
00000000
00000000
00000000
00000000
00000300
00000000
00000100
00000000
00000000
00000000
00000000
00000000
00000000
00000000
00000010
00000000
00000000
00000001
00000000
00000000
,
00000100
00000000
00000000
00000000
00000000
00000000
00000000
00000000
00001000
00000000
00000000
00000000
00000000
00000000
00000000
00000000
00000000
00000000
00000000
00000000
00000000
00000000
00000000
00000000
00000000
00000000
00000000
00000000
00000000
00000000
00000000
00000000
00020000
00000000
00000000
00000000
00000000
00000000
00000000
00000000
00000000
00032000
00000000
00000000
00000000
00000000
00000000
00000000
00000000
00003000
00000200
00000000
00000000
00000000
00000000
00000000
00000000
00000000
00000000
00000300
00000000
00000000
00000000
00000000
,
00000002
00000000
00000000
00000000
00000000
00000000
00000000
00000000
00000000
00000000
00000000
00000000
00000000
00000000
00000000
00000000
00000000
00000000
00000000
00000000
00000000
00000000
00000000
00000000
00000003
00000000
00000000
00000000
00000000
00000000
00000000
00000000
00000000
00000000
00000000
00000000
00000000
00000000
00000000
00000000
00000000
00000000
00000000
00000000
00000000
00000000
00000000
00000000
00000000
00000000
00000000
00000000
00000000
00000000
00000000
00000010
00000000
00000000
00000000
00000000
00000000
00000000
00000000
00000000
,
00000000
00000000
00000000
00000000
00000000
00000000
00000000
00000000
00001000
00000000
00000000
00000000
00000000
00000000
00010000
00000000
00000000
00000000
00000000
00000000
00100000
00000000
00000000
00000000
00000000
00000000
00000000
00000000
00000000
00000000
00000000
00000000
00000000
00000000
00000000
00000000
00000000
00000000
20000000
00000000
00000000
00000000
00000000
00000000
00000000
00000000
00000000
00000000
00000000
30000000
02000000
00000000
00000000
00000000
00000000
00000000
00000000
00000000
00000000
03000000
00020000
00000000
00000000
00000000
,
00000000
00000000
00000000
00000000
00000000
00030000
00000000
00000000
00000000
00000000
00000000
00001000
00000000
00000000
00000000
00001000
00000000
00000000
00000000
00000000
00000000
00000000
00000100
00000000
00000000
00000000
00000000
00000000
00000001
00000000
00000000
00000000
00000000
00000000
00000000
00000000
00000000
00000000
00000000
00000000
00000000
00000000
00000000
00000000
00000000
00000000
00000000
00000000
00000000
00000000
00000000
00000000
00000000
00000000
00000000
00000000
00000000
00000000
00000000
00000000
00000000
00000000
00000000
00000000
,
00000000
00000000
00000000
00011000
00000000
00000000
00000000
00000000
,
10000000
00100000
10000000
01000000
10000000
00100000
00010000
00001000
,
00000100
00000001
00000010
00000001
00000100
00000001
00001000
00000100
,
00000010
00001000
00010000
00001000
00000100
00001000
00010000
00100000
,
00010000
00001000
00000010
00001000
00010000
01000000
00010000
00001000
,
00010000
00000000
00000000
00000000
00001000
00000000
00000000
00010000
00100000
00000000
00000000
00100000
10000000
00000000
00010000
00000000
,
10000000
00000000
00000000
00000000
01000000
00000000
00000000
00010000
00001000
00000000
00000000
00001000
00000010
00000000
00000001
00000000
,
00001000
00000001
00001000
00000010
00000100
00000010
00000100
00001000
,
00010000
00100000
10000000
01000000
00010000
00001000
00000100
00000001
,
00001002
00000010
00000200
00000000
,
00000000
00000000
00000000
00000303
,
00001000
00000000
00000100
00000000
00000000
00000010
00000000
00000000
00001000
00000000
00010000
00000000
00000000
00100000
00000000
00000000
,
01000000
00010000
00100000
10000000
00100000
00010000
01000000
00001000
,
00010000
00000100
00001000
00000010
00000001
00000010
00001000
00000100
,
00001100
00001000
00000100
00010000
00011000
00001000
00100000
00010000
,
10010000
00011000
00001001
00000110
,
00002002
00000000
00000000
00000000
,
00000000
00003003
00000000
00000000
;

//---------------dance-single - ----------------
#NOTES:
     dance-single:
     :
     Challenge:
     17:
     0.966998,1.189728,0.065627,0.065627,1.753185,722.000000,715.000000,7.000000,7.000000,0.000000,0.000000,0.966998,1.189728,0.065627,0.065627,1.753185,722.000000,715.000000,7.000000,7.000000,0.000000,0.000000:
// measure 0
0000
0000
0000
0000
,  // measure 1
0000
0000
0000
0000
,  // measure 2
0000
0000
0000
0000
,  // measure 3
0000
0000
0000
0000
,  // measure 4
0000
0000
0000
0000
,  // measure 5
1000
0100
0010
0001
0100
0010
1000
0000
0010
0000
0001
0100
0010
1000
0100
0000
,  // measure 6
0010
0001
0100
0010
1000
0001
0100
0000
0010
0000
0001
0100
0010
1000
0001
0000
,  // measure 7
0010
0001
1000
0100
0010
0001
0100
0000
0001
0000
1000
0010
0100
0001
0010
0000
,  // measure 8
1000
0010
0001
0100
0010
1000
0001
0000
0100
0000
0010
1000
0001
0100
0010
0000
,  // measure 9
1000
0100
0010
0001
1000
0010
0100
0001
0000
0001
0010
0100
1000
0001
0100
0000
,  // measure 10
0010
0001
0100
0010
1000
0001
0100
0010
0000
0010
0100
0010
1000
0001
0100
0000
,  // measure 11
0001
0010
0100
1000
0001
0100
0010
1000
0000
1000
0010
0100
0001
1000
0100
0000
,  // measure 12
0010
0001
0100
0010
1000
0001
0010
1000
0000
1000
0010
0001
0100
0010
1000
0000
,  // measure 13
0001
0010
0100
1000
0010
0100
0001
0010
0000
0010
0100
0010
1000
0001
0100
0001
,  // measure 14
0010
0100
0001
1000
0100
0010
0001
1000
0000
0001
0010
0100
1000
0001
0100
0010
,  // measure 15
1000
0001
0100
0010
0001
1000
0010
0100
0000
0100
0001
1000
0100
0010
0001
0100
,  // measure 16
0010
1000
0001
0010
0100
1000
0010
0100
0000
1000
0100
0010
0001
0010
0100
1000
,  // measure 17
0100
0010
0001
0010
1000
0001
0100
0010
1000
0100
0010
0001
1000
0010
0100
0001
,  // measure 18
0010
0001
0100
0010
1000
0001
0010
0100
1000
0001
0100
0010
1000
0001
0010
1000
,  // measure 19
0100
0010
0001
1000
0010
0100
0001
0010
0001
0100
0010
1000
0001
0010
1000
0100
,  // measure 20
0010
1000
0010
0001
0100
0010
1000
0001
0100
0010
1000
0001
0010
0100
1000
0010
,  // measure 21
0100
0001
1000
0010
0100
0001
0010
0001
0100
0010
1000
0100
0010
0001
1000
0010
,  // measure 22
0100
0001
0010
1000
0001
0100
0010
1000
0001
0010
1000
0001
0100
0010
1000
0001
,  // measure 23
0010
0001
1000
0010
0001
0100
0010
0001
1000
0010
0100
1000
0010
0100
0001
1000
,  // measure 24
0010
0001
0100
1000
0010
1000
0001
0100
0010
1000
0001
0010
0100
1000
0001
0100
,  // measure 25
1000
0000
0100
0010
0000
0010
0001
0010
0100
0000
1000
0100
0000
0100
0010
0001
,  // measure 26
1000
0010
0100
0001
1000
0100
0010
0001
1000
0010
0001
0100
0010
1000
0001
0100
,  // measure 27
0010
0001
1000
0100
0010
0001
1000
0100
0010
0001
1000
0001
0010
0001
0100
0010
,  // measure 28
1000
0001
0010
0001
0100
0010
1000
0010
0100
0001
0010
0001
1000
0010
0100
0001
,  // measure 29
1000
1000
0100
0010
0010
0001
0100
0100
0010
1000
1000
0010
0100
0001
0001
1000
,  // measure 30
0100
0010
0010
0001
1000
1000
0010
0010
0001
0100
0010
1000
1000
0010
0100
0001
,  // measure 31
1000
0000
0100
0000
0010
0001
0010
0000
0001
0000
0100
0000
0010
0000
1000
0000
0001
0000
1000
0000
0100
0010
0100
0000
0010
0000
0001
0000
0100
0000
0010
0000
,  // measure 32
1000
0000
0100
0000
0010
0001
0010
0000
0001
0000
0100
0000
0010
0100
0010
0000
0100
0000
1000
0000
0010
1000
0010
0000
1000
0000
0100
0000
0010
0000
0001
0000
,  // measure 33
1000
0000
1100
0000
1010
0000
2002
0000
0000
0000
0000
0000
,  // measure 34
0000
0000
0000
0000
0000
0000
0000
0000
3003
0000
0000
0000
0000
0000
0000
0000
1010
0000
0000
0000
0000
0010
0100
0000
0000
0000
0001
0010
0000
0000
0000
0000
,  // measure 35
0200
0000
0000
0300
,  // measure 36
0000
0000
0000
0000
1010
0000
0000
0101
0000
0000
0022
0000
0000
0000
0000
0000
0000
0000
0000
0000
0000
0000
0000
0000
0033
0000
0000
0000
0000
0000
0010
0000
,  // measure 37
0000
0000
0000
0000
0000
0000
0000
0000
0000
0000
0000
0000
0000
0000
0000
0000
0000
0000
0000
0000
0000
0000
0000
0000
0000
0000
0000
0000
0000
0000
0100
0000
0000
0000
0000
0000
0010
0000
0000
0000
0000
0000
0100
0000
0000
0000
0000
0000
0000
0000
0000
0000
0000
0000
0000
0000
0000
0000
0000
0000
0000
0000
0000
0000
0010
0000
0000
0000
0000
0000
0000
0000
0000
0000
0000
0000
0000
0000
0000
0000
0000
0000
0000
0000
0002
0000
0000
0000
0000
0000
0000
0000
0000
0000
0000
0000
0000
0000
0000
0000
0000
0000
0000
0000
0000
0000
0000
0000
0000
0000
0000
0000
0000
0000
0000
0000
0000
0000
0000
0000
0200
0000
0000
0000
0000
0000
0000
0000
0000
0000
0000
0000
0000
0000
0000
0000
0000
0000
0000
0000
0000
0000
0000
0000
0000
0000
0000
0000
0000
0000
0000
0000
0000
0000
0000
0000
0000
0000
0000
0000
0000
0000
0000
0000
0000
0000
0000
0000
0000
0000
0000
0000
0000
0000
0000
0000
0000
0000
0000
0000
0000
0000
0000
0000
0000
0000
0000
0000
0000
0000
0000
0000
,  // measure 38
0000
0000
0000
0303
,  // measure 39
1000
0000
0000
0100
0000
0000
0010
0000
0000
0100
0000
0000
1000
0000
0000
0001
0000
0000
1000
0000
0100
0000
0010
0000
0001
0000
0000
0010
0000
0000
0100
0000
0000
1000
0000
0000
0001
0000
0000
0100
0000
0000
0010
0000
0000
1000
0000
0000
,  // measure 40
0001
0000
0000
0100
0000
0000
0010
0000
0000
1000
0000
0000
0001
0000
0000
0010
0000
0000
0100
0000
1000
0000
0010
0000
0100
0000
0000
0010
0000
0000
0001
0000
0000
1000
0000
0000
0010
0000
0000
0100
0000
0000
0001
0000
0000
0010
0000
0000
,  // measure 41
1000
0000
0000
0100
0000
0000
0010
0000
0000
0001
0000
0000
1000
0000
0000
0010
0000
0000
0001
0000
0010
0000
0100
0000
1000
0000
0000
0001
0000
0000
0100
0000
0000
0010
0000
0000
1000
0000
0000
0001
0000
0000
0010
0000
0000
1000
0000
0000
,  // measure 42
0100
0100
0010
0100
0010
0010
0100
0010
1000
1000
0001
1000
0001
0001
1000
0001
,  // measure 43
1000
0000
0100
0000
0010
0000
0001
0000
1000
0000
0001
0000
0010
0001
0010
0000
0001
0000
0100
0000
0010
0000
1000
0000
0001
0000
0100
0000
0010
0000
1000
0000
,  // measure 44
0100
0000
0010
0000
1000
0000
0001
0000
0100
0000
0010
0000
1000
0100
1000
0000
0100
0000
0010
0000
0001
0000
1000
0000
0010
0000
0100
0000
0001
0000
0010
0000
,  // measure 45
0100
0000
1000
0000
0001
0000
0100
0000
0010
0000
1000
0000
0100
0010
0100
0000
0010
0000
0001
0000
1000
0000
0010
0000
0100
0000
0001
0000
0010
0000
0001
0000
,  // measure 46
0100
0010
1000
0001
0010
0100
0001
1000
0100
0010
1000
0001
0010
0100
0001
1000
,  // measure 47
0100
0000
0001
0000
1000
0000
0100
0000
0001
0000
1000
0000
0100
0010
0001
0000
0100
0000
1000
0000
0100
0010
0001
0000
0010
0000
0100
0000
1000
0100
0010
0000
,  // measure 48
0001
0000
0010
0000
0100
0000
1000
0000
0001
0000
0100
0000
0010
0100
1000
0000
0010
0000
0100
0000
0001
0010
0100
0000
1000
0000
0100
0000
0010
0001
1000
0000
,  // measure 49
0100
0000
0010
0000
0001
0000
1000
0000
0010
0000
0100
0000
0001
0010
1000
0000
0100
0000
1000
0000
0010
0100
0001
0000
0010
0000
1000
0000
0100
0010
0001
0000
,  // measure 50
1000
0100
1000
0100
0010
0001
0010
0001
1000
0100
0001
0100
1000
0100
0001
0100
,  // measure 51
1000
0010
0100
0001
1000
0010
0100
0001
1000
0010
0001
0010
1000
0010
0001
0010
,  // measure 52
1000
0000
0100
0000
0010
0001
0010
0000
0001
0000
0100
0000
0010
1000
0010
0000
1000
0000
0100
0000
0010
0001
0010
0000
0001
0000
0100
0000
0010
1000
0010
0000
,  // measure 53
1000
0100
1000
0000
0100
0010
0100
0000
0010
0001
0010
0000
0001
1000
0001
0000
1000
0010
1000
0000
0001
0100
0001
0000
0010
0100
0010
1000
0100
0010
0001
0100
,  // measure 54
0010
0000
0000
0000
;
