#VERSION:0.83;
#TITLE:INNOCENCE OF SILENCE;
#SUBTITLE:;
#ARTIST:nc ft NRG Factory;
#TITLETRANSLIT:;
#SUBTITLETRANSLIT:;
#ARTISTTRANSLIT:;
#GENRE:;
#ORIGIN:;
#CREDIT:;
#BANNER:INNOCENCE OF SILENCE.png;
#BACKGROUND:INNOCENCE OF SILENCE-bg.png;
#PREVIEWVID:;
#JACKET:INNOCENCE OF SILENCE-jacket.png;
#CDIMAGE:;
#DISCIMAGE:;
#LYRICSPATH:;
#CDTITLE:;
#MUSIC:INNOCENCE OF SILENCE.ogg;
#OFFSET:0.000000;
#SAMPLESTART:1.689000;
#SAMPLELENGTH:15.000000;
#SELECTABLE:YES;
#DISPLAYBPM:71.000000:142.000000;
#BPMS:0.000=142.000,
68.000=71.000,
100.000=88.750,
110.000=106.500,
122.000=142.000;
#STOPS:;
#DELAYS:;
#WARPS:;
#TIMESIGNATURES:0.000=4=4;
#TICKCOUNTS:0.000=4;
#COMBOS:0.000=1;
#SPEEDS:0.000=1.000=0.000=0;
#SCROLLS:0.000=1.000;
#FAKES:;
#LABELS:0.000=Song Start;
#BGCHANGES:;
#KEYSOUNDS:;
#ATTACKS:
;

//---------------dance-single - ----------------
#NOTEDATA:;
#CHARTNAME:;
#STEPSTYPE:dance-single;
#DESCRIPTION:;
#CHARTSTYLE:;
#DIFFICULTY:Beginner;
#METER:3;
#RADARVALUES:0.106702,0.112764,0.000000,0.000000,0.000000,77.000000,77.000000,0.000000,0.000000,0.000000,0.000000,0.000000,0.000000,0.000000,0.106702,0.112764,0.000000,0.000000,0.000000,77.000000,77.000000,0.000000,0.000000,0.000000,0.000000,0.000000,0.000000,0.000000;
#CREDIT:;
#DISPLAYBPM:71.000000:142.000000;
#NOTES:
0000
0000
0000
0000
,
0000
0000
0000
0000
,
0000
0000
0000
0000
,
0000
0000
0000
0000
,
0000
0000
0000
0000
,
0010
0000
0010
0000
,
0010
0000
0010
0000
,
0100
0000
0100
0000
,
0100
0000
0100
0000
,
0010
0000
0010
0000
,
0010
0000
0010
0000
,
0100
0000
0010
0000
,
0100
0000
0010
0000
,
0010
0000
1000
0000
,
0010
0000
0001
0000
,
0010
0000
0000
0000
,
0100
0000
0000
0000
,
0010
0000
0100
0000
,
0010
0000
0100
0000
,
1000
0000
0010
0000
,
0001
0000
0010
0000
,
0010
0000
0100
0000
,
0010
0000
0100
0000
,
1000
0000
0010
0000
,
0001
0000
0010
0000
,
0100
0000
0000
0000
,
0000
0010
0000
0000
,
0000
0000
1000
0000
,
0000
0001
0000
0000
,
0100
0000
0000
1000
,
0000
0000
0010
0000
,
0010
0000
0010
0000
,
0010
0000
0100
0000
,
0100
0000
0100
0000
,
0100
0000
0010
0000
,
0010
0000
0100
0000
,
0100
0000
0010
0000
,
0100
0000
0010
0000
,
0100
0000
0010
0000
,
0010
0000
0010
0000
,
0010
0000
0100
0000
,
0100
0000
0100
0000
,
0100
0000
0010
0000
,
0010
0000
0100
0000
,
0100
0000
0010
0000
,
0100
0000
0010
0000
,
0100
0000
0100
0000
,
0000
0000
0000
0000
;

//---------------dance-single - ----------------
#NOTEDATA:;
#CHARTNAME:;
#STEPSTYPE:dance-single;
#DESCRIPTION:;
#CHARTSTYLE:;
#DIFFICULTY:Easy;
#METER:5;
#RADARVALUES:0.209246,0.258752,0.000000,0.067901,0.009700,151.000000,151.000000,0.000000,7.000000,0.000000,0.000000,0.000000,0.000000,0.000000,0.209246,0.258752,0.000000,0.067901,0.009700,151.000000,151.000000,0.000000,7.000000,0.000000,0.000000,0.000000,0.000000,0.000000;
#CREDIT:;
#DISPLAYBPM:71.000000:142.000000;
#NOTES:
0000
0000
0000
0000
,
0000
0000
0000
0000
,
0000
0000
0000
0000
,
0000
0000
0000
0000
,
0000
0000
0000
0000
,
0010
0001
0010
1000
,
0010
0001
0010
1000
,
0100
0001
0100
1000
,
0100
0001
0100
1000
,
0010
0001
0010
0000
,
0010
1000
0010
0000
,
0100
0001
0010
0000
,
0100
1000
0010
0000
,
0010
0001
1000
0000
,
0010
1000
0001
0000
,
0020
0000
0000
0030
,
0200
0000
0000
0300
,
0010
0000
0001
0000
0100
0010
1000
0000
,
0010
0000
1000
0000
0100
0010
0001
0000
,
1000
0000
0100
0000
0010
0100
1000
0000
,
0001
0000
0100
0000
0010
0100
0001
0000
,
0010
0000
0001
0000
0100
0010
1000
0000
,
0010
0000
1000
0000
0100
0010
0001
0000
,
1000
0000
0100
0000
0010
0100
1000
0000
,
0001
0000
0100
0000
0010
0100
0001
0000
,
0200
0000
0000
0000
,
0300
0020
0000
0000
,
0000
0030
2000
0000
,
0000
0002
0000
3003
,
0100
0000
0000
0000
0000
0000
0010
0000
0000
0000
0000
0000
1000
0000
0000
1000
,
0000
0000
0001
0000
0000
0001
0000
0000
0010
0000
0000
0000
1000
0000
0000
0000
,
0010
1000
0010
0001
,
0010
0001
0100
1000
,
0100
1000
0100
0001
,
0100
0001
0010
1000
,
0010
0001
0100
1000
,
0100
0001
0010
1000
,
0100
0001
0010
1000
,
0100
0001
0010
1000
,
0010
1000
0010
0001
,
0010
0001
0100
1000
,
0100
1000
0100
0001
,
0100
0001
0010
1000
,
0010
0001
0100
1000
,
0100
0001
0010
1000
,
0100
0001
0010
1000
,
0100
0001
0200
0000
,
0000
0000
0000
0000
,
0000
0000
0300
0000
,
0000
0000
0000
0000
;

//---------------dance-single - ----------------
#NOTEDATA:;
#CHARTNAME:;
#STEPSTYPE:dance-single;
#DESCRIPTION:;
#CHARTSTYLE:;
#DIFFICULTY:Medium;
#METER:10;
#RADARVALUES:0.272990,0.446935,0.000000,0.067901,0.164903,197.000000,197.000000,0.000000,7.000000,0.000000,0.000000,0.000000,0.000000,0.000000,0.272990,0.446935,0.000000,0.067901,0.164903,197.000000,197.000000,0.000000,7.000000,0.000000,0.000000,0.000000,0.000000,0.000000;
#CREDIT:;
#DISPLAYBPM:71.000000:142.000000;
#NOTES:
0000
0000
0000
0000
,
0000
0000
0000
0000
,
0000
0000
0000
0000
,
0000
0000
0000
0000
,
0000
0000
0000
0000
,
0010
0100
0001
0000
0010
0100
1000
0000
,
0010
0100
0001
0000
0010
0100
1000
0000
,
0100
0010
0001
0000
0100
0010
1000
0000
,
0100
0010
0001
0000
0100
0010
1000
0000
,
0010
0100
0001
0000
0010
0000
0000
0000
,
0010
0100
1000
0000
0010
0000
0000
0000
,
0100
0010
0001
0000
0010
0000
0000
0000
,
0100
0010
1000
0000
0010
0000
0000
0000
,
0010
0100
0001
0000
1000
0000
0000
0000
,
0010
0100
1000
0000
0001
0000
0000
0000
,
0020
0000
0000
0030
,
0200
0000
0000
0300
,
0000
0000
0010
0100
0000
0000
0001
0000
0000
0000
0010
0100
0000
0010
0001
0000
,
0000
0000
0010
0100
0000
0000
1000
0000
0000
0000
0010
0100
0000
0010
1000
0000
,
0000
0000
0001
0100
0000
0000
0010
0000
0000
0100
0010
1000
0000
0100
0010
0001
,
0000
0000
0001
0100
0000
0000
0010
0000
0000
0100
0010
1000
0000
0100
0010
0001
,
0000
0000
0010
0100
0000
0000
0001
0000
0000
0000
0010
0100
0000
0010
0001
0000
,
0000
0000
0010
0100
0000
0000
1000
0000
0000
0000
0010
0100
0000
0010
1000
0000
,
0000
0000
0001
0100
0000
0000
0010
0000
0000
0100
0010
1000
0000
0100
0010
0001
,
0000
0000
0001
0100
0000
0000
0010
0000
0000
0100
0010
1000
0000
0100
0010
0001
,
0200
0000
0000
0000
,
0300
0020
0000
0000
,
0000
0030
2000
0000
,
0000
0002
0000
3003
,
0100
0000
0000
0000
0000
0000
0100
0000
0000
0000
0000
0000
0010
0000
0000
0010
,
0000
0000
1000
0000
0000
0001
0000
0000
0000
0000
0100
0000
0000
0000
1000
0000
,
0000
0100
0000
0010
0000
0100
0000
0001
,
0000
0100
0010
0100
0000
0010
0000
1000
,
0000
0010
0000
0100
0000
0010
0000
0001
,
0000
0010
0100
0010
0000
1000
0000
0100
,
0000
1000
0000
0010
0000
1000
0000
0001
,
0000
0100
0010
0100
0000
0001
0000
0100
,
0000
0001
0000
0010
0000
0001
0000
1000
,
0000
0010
0100
0010
0000
0100
0000
1000
,
0000
0100
0000
0010
0000
0100
0000
0001
,
0000
0100
0010
0100
0000
0010
0000
1000
,
0000
0010
0000
0100
0000
0010
0000
0001
,
0000
0010
0100
0010
0000
1000
0000
0100
,
0000
1000
0000
0010
0000
1000
0000
0001
,
0000
0100
0010
0100
0000
0001
0000
0100
,
0000
0001
0000
0010
0000
0001
0000
1000
,
0000
0010
0100
0010
0200
0000
0000
0000
,
0000
0000
0000
0000
,
0000
0000
0300
0000
,
0000
0000
0000
0000
;

//---------------dance-single - ----------------
#NOTEDATA:;
#CHARTNAME:;
#STEPSTYPE:dance-single;
#DESCRIPTION:;
#CHARTSTYLE:;
#DIFFICULTY:Hard;
#METER:12;
#RADARVALUES:0.410179,0.493981,0.000000,0.087302,0.737213,296.000000,296.000000,0.000000,9.000000,0.000000,0.000000,0.000000,0.000000,0.000000,0.410179,0.493981,0.000000,0.087302,0.737213,296.000000,296.000000,0.000000,9.000000,0.000000,0.000000,0.000000,0.000000,0.000000;
#CREDIT:;
#DISPLAYBPM:71.000000:142.000000;
#NOTES:
0000
0000
0000
0000
,
0000
0000
0000
0000
,
0000
0000
0000
0000
,
0000
0000
0000
0000
,
0000
0000
0000
0000
,
0010
0000
0100
0000
0001
0100
0000
0010
0000
1000
0000
0100
0000
0010
0001
0000
,
0010
0000
0100
0000
1000
0100
0000
0010
0000
0001
0000
0100
0000
0010
1000
0000
,
0100
0000
0010
0000
0001
0010
0000
0100
0000
1000
0000
0010
0000
0100
0001
0000
,
0100
0000
0010
0000
1000
0010
0000
0100
0000
0001
0000
0010
0000
0100
1000
0000
,
0010
0000
0100
0000
0001
0100
0000
0010
0000
1000
0000
0100
0000
0000
0000
0000
,
0010
0000
0100
0000
1000
0100
0000
0010
0000
0001
0000
0100
0000
0000
0000
0000
,
0010
0000
0100
0000
0001
0000
0000
0010
0000
0100
0000
1000
0000
0000
0000
0000
,
0100
0000
0010
0000
0001
0000
0000
0100
0000
0010
0000
1000
0000
0000
0000
0000
,
0010
0000
0100
0000
0001
0000
0000
2000
0000
0000
0000
0000
3000
0000
0000
0000
,
0010
0000
0100
0000
1000
0000
0000
0002
0000
0000
0000
0000
0003
0000
0000
0000
,
0020
0000
0000
0030
,
0200
0000
0000
0300
,
1000
0000
0010
0100
0000
0000
0001
0000
0000
0000
0010
0100
0000
0010
0100
1000
,
0000
0001
0010
0100
0000
0000
1000
0000
0000
0000
0010
0100
0000
0001
0010
0100
,
0000
1000
0001
0100
0000
0000
0010
0000
0000
0100
0010
1000
0000
0100
0010
0001
,
0000
1000
0001
0100
0000
0000
0010
0000
0000
0100
0010
1000
0000
0100
0010
0001
,
1000
0000
0010
0100
0000
0000
0001
0000
0000
0000
0010
0100
0000
0010
0100
1000
,
0000
0001
0010
0100
0000
0000
1000
0000
0000
0000
0010
0100
0000
0001
0010
0100
,
0000
1000
0001
0100
0000
0000
0010
0000
0000
0100
0010
1000
0000
0100
0010
0001
,
0000
1000
0001
0100
0000
0000
0010
0000
0000
0100
0010
1000
0000
0100
0010
0001
,
0200
0000
0000
0000
,
0300
0020
0000
0000
,
0000
0030
2000
0000
,
0000
0002
0000
3003
,
0100
0000
0000
0000
0000
0000
0100
0000
0000
0000
0000
0000
0010
0000
0000
0010
,
0000
0000
1000
0000
0000
0001
0000
0000
0100
0000
0010
1000
0000
0000
1000
0100
,
0000
0000
0100
0010
0000
0000
0010
0001
0000
0000
0001
0100
0000
0000
0100
0010
,
0000
0000
0010
1000
0000
1000
0001
1000
0000
0000
0100
1000
0000
0000
1000
0010
,
0000
0000
0010
0100
0000
0000
0100
0001
0000
0000
0001
0010
0000
0000
0010
0100
,
0000
0000
0100
1000
0000
1000
0001
1000
0000
0000
0010
0100
0000
0000
0100
0001
,
0000
0000
0001
0100
0000
0000
0100
1000
0000
0000
1000
0100
0000
0000
0100
0010
,
0000
0000
0010
1000
0000
1000
0001
1000
0000
0000
0100
0010
0000
0000
0010
0001
,
0000
0000
0001
0010
0000
0000
0010
1000
0000
0000
1000
0010
0000
0000
0010
0100
,
0000
0000
0100
1000
0000
1000
0001
1000
0000
0000
0010
1000
0000
0000
0010
0100
,
0000
0000
0001
0100
0000
0000
0001
1000
0000
0000
0010
1000
0000
0000
0001
0100
,
0000
0000
0001
0010
0000
0100
1000
0100
0000
0000
0010
0001
0000
0000
0010
0100
,
0000
0000
1000
0100
0000
0000
1000
0001
0000
0000
0010
0001
0000
0000
1000
0100
,
0000
0000
1000
0010
0000
0100
0001
0100
0000
0000
0010
1000
0000
0000
0010
0100
,
0000
0000
0010
0001
0000
0000
0010
0100
0000
0000
0010
1000
0000
0000
0010
0100
,
0000
0000
0010
0001
0000
0010
0100
0010
0000
0000
0100
0001
0000
0000
0100
0010
,
0000
0000
0100
1000
0000
0000
0100
0010
0000
0000
0100
0001
0000
0000
0100
0010
,
0000
0000
0100
1000
0000
0100
0010
0100
0020
0000
0000
0000
0000
0000
0000
0000
,
0000
0000
0000
0000
,
0000
0000
0030
0000
,
0000
0000
0000
0000
;

//---------------dance-double - ----------------
#NOTEDATA:;
#CHARTNAME:;
#STEPSTYPE:dance-double;
#DESCRIPTION:;
#CHARTSTYLE:;
#DIFFICULTY:Easy;
#METER:5;
#RADARVALUES:0.206475,0.258752,0.000000,0.067901,0.009700,149.000000,149.000000,0.000000,7.000000,0.000000,0.000000,0.000000,0.000000,0.000000,0.206475,0.258752,0.000000,0.067901,0.009700,149.000000,149.000000,0.000000,7.000000,0.000000,0.000000,0.000000,0.000000,0.000000;
#CREDIT:;
#DISPLAYBPM:71.000000:142.000000;
#NOTES:
00000000
00000000
00000000
00000000
,
00000000
00000000
00000000
00000000
,
00000000
00000000
00000000
00000000
,
00000000
00000000
00000000
00000000
,
00000000
00000000
00000000
00000000
,
00100000
10000000
01000000
10000000
,
01000000
00010000
00001000
00000000
,
00000010
00000001
00000100
00000001
,
00000100
00001000
00010000
00000000
,
00100000
10000000
00100000
00000000
,
10000000
01000000
10000000
00000000
,
01000000
00010000
01000000
00000000
,
00010000
00001000
00010000
00000000
,
00001000
00000010
00001000
00000000
,
00000010
00000001
00000010
00000000
,
00000002
00000000
00000000
00000003
,
00002000
00000000
00000000
00003000
,
00000001
00000000
00000100
00000000
00000010
00010000
00001000
00000000
,
00010000
00000000
00000100
00000000
00010000
00001000
00100000
00000000
,
00010000
00000000
01000000
00000000
00100000
10000000
01000000
00000000
,
00100000
00000000
00001000
00000000
00010000
00000100
00000010
00000000
,
00000001
00000000
00000010
00000000
00000100
00010000
00001000
00000000
,
00010000
00000000
00000010
00000000
00010000
00001000
01000000
00000000
,
00010000
00000000
00100000
00000000
01000000
10000000
00100000
00000000
,
01000000
00000000
00001000
00000000
00010000
00000010
00000100
00000000
,
00000002
00000000
00000000
00000000
,
00000003
00000020
00000000
00000000
,
00000000
00000030
00000200
00000000
,
00000000
00020000
00000000
00030300
,
00001000
00000000
00000000
00000000
00000000
00000000
00001000
00000000
00000000
00000000
00000000
00000000
01000000
00000000
00000000
01000000
,
00000000
00000000
00100000
00000000
00000000
00100000
00000000
00000000
10000000
00000000
00000000
00000000
01000000
00000000
00000000
00000000
,
10000000
01000000
00010000
00001000
,
00000010
00001000
00000010
00000001
,
00000010
00000001
00000100
00001000
,
00010000
00100000
10000000
01000000
,
10000000
01000000
00010000
00001000
,
00000010
00001000
00000010
00000001
,
00000010
00000001
00000100
00001000
,
00010000
00100000
10000000
01000000
,
10000000
00010000
01000000
00100000
,
00010000
00001000
00000100
00000001
,
00000100
00001000
00000100
00001000
,
00010000
01000000
10000000
01000000
,
10000000
00010000
01000000
00100000
,
00010000
00001000
00000100
00000001
,
00000100
00001000
00000100
00001000
,
00010000
01000000
00200000
00000000
,
00000000
00000000
00000000
00000000
,
00000000
00000000
00300000
00000000
,
00000000
00000000
00000000
00000000
;

//---------------dance-double - ----------------
#NOTEDATA:;
#CHARTNAME:;
#STEPSTYPE:dance-double;
#DESCRIPTION:;
#CHARTSTYLE:;
#DIFFICULTY:Medium;
#METER:9;
#RADARVALUES:0.272990,0.446935,0.000000,0.067901,0.164903,197.000000,197.000000,0.000000,7.000000,0.000000,0.000000,0.000000,0.000000,0.000000,0.272990,0.446935,0.000000,0.067901,0.164903,197.000000,197.000000,0.000000,7.000000,0.000000,0.000000,0.000000,0.000000,0.000000;
#CREDIT:;
#DISPLAYBPM:71.000000:142.000000;
#NOTES:
00000000
00000000
00000000
00000000
,
00000000
00000000
00000000
00000000
,
00000000
00000000
00000000
00000000
,
00000000
00000000
00000000
00000000
,
00000000
00000000
00000000
00000000
,
00100000
01000000
10000000
00000000
00100000
01000000
00010000
00000000
,
00100000
01000000
00010000
00000000
00001000
00010000
00000100
00000000
,
00000010
00000100
00001000
00000000
00000010
00000100
00000001
00000000
,
00000010
00000100
00010000
00000000
00001000
01000000
00100000
00000000
,
10000000
01000000
00010000
00000000
00001000
00000000
00000000
00000000
,
00000010
00000100
00001000
00000000
00000001
00000000
00000000
00000000
,
00000100
00000010
00010000
00000000
00001000
00000000
00000000
00000000
,
01000000
00100000
10000000
00000000
00010000
00000000
00000000
00000000
,
00100000
01000000
00010000
00000000
00001000
00000000
00000000
00000000
,
00000010
00000100
00001000
00000000
00000001
00000000
00000000
00000000
,
00000200
00000000
00000000
00000300
,
00002000
00000000
00000000
00003000
,
00000000
00000000
00010000
00001000
00000000
00000000
01000000
00000000
00000000
00000000
00100000
10000000
00000000
00010000
01000000
00000000
,
00000000
00000000
00001000
00010000
00000000
00000000
00000100
00000000
00000000
00000000
00000010
00000001
00000000
00001000
00000100
00000000
,
00000000
00000000
00010000
00001000
00000000
00000000
01000000
00000000
00000000
00010000
00100000
01000000
00000000
10000000
01000000
00010000
,
00000000
00000000
00001000
00010000
00000000
00000000
00000100
00000000
00000000
00001000
00000010
00000100
00000000
00000001
00000100
00001000
,
00000000
00000000
00010000
00001000
00000000
00000000
00100000
00000000
00000000
00000000
01000000
10000000
00000000
00010000
00100000
00000000
,
00000000
00000000
00001000
00010000
00000000
00000000
00000010
00000000
00000000
00000000
00000100
00000001
00000000
00001000
00000010
00000000
,
00000000
00000000
00010000
00001000
00000000
00000000
00100000
00000000
00000000
00010000
01000000
00100000
00000000
10000000
00100000
00010000
,
00000000
00000000
00001000
00010000
00000000
00000000
00000010
00000000
00000000
00001000
00000100
00000010
00000000
00000001
00000010
00001000
,
00020000
00000000
00000000
00000000
,
00030000
00002000
00000000
00000000
,
00000000
00003000
02000000
00000000
,
00000000
00200000
00000000
03300000
,
10000000
00000000
00000000
00000000
00000000
00000000
10000000
00000000
00000000
00000000
00000000
00000000
01000000
00000000
00000000
01000000
,
00000000
00000000
00010000
00000000
00000000
00001000
00000000
00000000
00000000
00000000
00000100
00000000
00000000
00000000
00000001
00000000
,
00000000
00000010
00000000
00001000
00000000
00010000
00000000
01000000
,
00000000
10000000
01000000
10000000
00000000
00100000
00000000
10000000
,
00000000
01000000
00000000
00010000
00000000
00001000
00000000
00000010
,
00000000
00000001
00000100
00000001
00000000
00000010
00000000
00000001
,
00000000
00000100
00000000
00001000
00000000
00010000
00000000
00100000
,
00000000
10000000
00100000
10000000
00000000
01000000
00000000
10000000
,
00000000
00100000
00000000
00010000
00000000
00001000
00000000
00000100
,
00000000
00000001
00000010
00000001
00000000
00000100
00000000
00001000
,
00000000
00010000
00000000
00001000
00000000
01000000
00000000
00100000
,
00000000
10000000
01000000
10000000
00000000
01000000
00000000
00010000
,
00000000
00001000
00000000
00010000
00000000
00000100
00000000
00000010
,
00000000
00000001
00000100
00000001
00000000
00000010
00000000
00001000
,
00000000
00010000
00000000
00001000
00000000
00100000
00000000
01000000
,
00000000
10000000
00100000
10000000
00000000
00100000
00000000
00010000
,
00000000
00001000
00000000
00010000
00000000
00000010
00000000
00000100
,
00000000
00000001
00000010
00000001
00000200
00000000
00000000
00000000
,
00000000
00000000
00000000
00000000
,
00000000
00000000
00000300
00000000
,
00000000
00000000
00000000
00000000
;

//---------------dance-double - ----------------
#NOTEDATA:;
#CHARTNAME:;
#STEPSTYPE:dance-double;
#DESCRIPTION:;
#CHARTSTYLE:;
#DIFFICULTY:Hard;
#METER:12;
#RADARVALUES:0.404636,0.493981,0.000000,0.067901,0.727513,292.000000,292.000000,0.000000,7.000000,0.000000,0.000000,0.000000,0.000000,0.000000,0.404636,0.493981,0.000000,0.067901,0.727513,292.000000,292.000000,0.000000,7.000000,0.000000,0.000000,0.000000,0.000000,0.000000;
#CREDIT:;
#DISPLAYBPM:71.000000:142.000000;
#NOTES:
00000000
00000000
00000000
00000000
,
00000000
00000000
00000000
00000000
,
00000000
00000000
00000000
00000000
,
00000000
00000000
00000000
00000000
,
00000000
00000000
00000000
00000000
,
00100000
00000000
01000000
00000000
00001000
00010000
00000000
00000010
00000000
00000100
00000000
00000001
00000000
00001000
00000001
00000000
,
00000010
00000000
00000100
00000000
00010000
00001000
00000000
00100000
00000000
01000000
00000000
10000000
00000000
00010000
10000000
00000000
,
01000000
00000000
00100000
00000000
00001000
00010000
00000000
00000100
00000000
00000010
00000000
00000001
00000000
00001000
00000001
00000000
,
00000100
00000000
00000010
00000000
00010000
00001000
00000000
01000000
00000000
00100000
00000000
10000000
00000000
00010000
10000000
00000000
,
00100000
00000000
01000000
00000000
00010000
01000000
00000000
00001000
00000000
00010000
00000000
00000100
00000000
00000000
00000000
00000000
,
00000010
00000000
00000100
00000000
00001000
00000100
00000000
00010000
00000000
00001000
00000000
01000000
00000000
00000000
00000000
00000000
,
00100000
00000000
01000000
00000000
10000000
00000000
00000000
01000000
00000000
00100000
00000000
10000000
00000000
00000000
00000000
00000000
,
01000000
00000000
00010000
00000000
00001000
00000000
00000000
00000010
00000000
00000100
00000000
00000001
00000000
00000000
00000000
00000000
,
00000100
00000000
00001000
00000000
00000001
00000000
00000000
00000100
00000000
00000000
00000000
00000000
00000000
00000000
00000000
00000000
,
00000010
00000000
00000100
00000000
00001000
00000000
00000000
00010000
00000000
00000000
00000000
00000000
00000000
00000000
00000000
00000000
,
00200000
00000000
00000000
00300000
,
02000000
00000000
00000000
03000000
,
00010000
00000000
00100000
01000000
00000000
00000000
00010000
00000000
00000000
00000000
00000010
00000100
00000000
00000010
00001000
00000100
,
00000000
00000010
00000001
00000100
00000000
00000000
00001000
00000000
00000000
00000000
00100000
01000000
00000000
10000000
00010000
01000000
,
00000000
00100000
10000000
01000000
00000000
00000000
00010000
00000000
00000000
00001000
00000100
00000010
00000000
00000100
00000001
00000010
,
00000000
00000100
00000010
00001000
00000000
00000000
00010000
00000000
00000000
01000000
00100000
00010000
00000000
01000000
00000000
00001000
,
00010000
00000000
00100000
01000000
00000000
00000000
00010000
00000000
00000000
00000000
00000010
00000100
00000000
00000010
00001000
00000100
,
00000000
00000010
00000001
00000100
00000000
00000000
00001000
00000000
00000000
00000000
00100000
01000000
00000000
10000000
00010000
01000000
,
00000000
00100000
10000000
01000000
00000000
00000000
00010000
00000000
00000000
00001000
00000100
00000010
00000000
00000100
00000001
00000010
,
00000000
00000100
00000010
00001000
00000000
00000000
00010000
00000000
00000000
01000000
00100000
00010000
00000000
01000000
00000000
00001000
,
00020000
00000000
00000000
00000000
,
00030000
00002000
00000000
00000000
,
00000000
00003000
00000200
00000000
,
00000000
00000020
00000000
00000330
,
00001000
00000000
00000000
00000000
00000000
00000000
00000100
00000000
00000000
00000000
00000000
00000000
00000010
00000000
00000000
00000001
,
00000000
00000000
00000100
00000000
00000000
00001000
00000000
00000000
00100000
00000000
01000000
10000000
00000000
00000000
10000000
00100000
,
00000000
00000000
00100000
00010000
00000000
00000000
00010000
00001000
00000000
00000000
00001000
00000100
00000000
00000000
00000100
00000001
,
00000000
00000000
00000001
00000010
00000000
00000100
00000010
00000100
00000000
00000000
00000010
00000001
00000000
00000000
00000001
00000100
,
00000000
00000000
00000100
00001000
00000000
00000000
00001000
00010000
00000000
00000000
00010000
00100000
00000000
00000000
00100000
10000000
,
00000000
00000000
10000000
01000000
00000000
00100000
01000000
00100000
00000000
00000000
01000000
10000000
00000000
00000000
10000000
00100000
,
00000000
00000000
00100000
00010000
00000000
00000000
00010000
00001000
00000000
00000000
00001000
00000010
00000000
00000000
00000010
00000001
,
00000000
00000000
00000001
00000100
00000000
00000010
00000100
00000010
00000000
00000000
00000100
00000001
00000000
00000000
00000001
00000010
,
00000000
00000000
00000010
00001000
00000000
00000000
00001000
00010000
00000000
00000000
00010000
00100000
00000000
00000000
00100000
10000000
,
00000000
00000000
10000000
01000000
00000000
00100000
01000000
00100000
00000000
00000000
01000000
10000000
00000000
00000000
01000000
00100000
,
00000000
00000000
00010000
00100000
00000000
00000000
00001000
00100000
00000000
00000000
00001000
00010000
00000000
00000000
00000100
00010000
,
00000000
00000000
00000100
00001000
00000000
00000000
00000100
00000010
00000000
00000000
00000001
00000010
00000000
00000000
00000001
00001000
,
00000000
00000000
00000010
00001000
00000000
00000000
00000010
00000100
00000000
00000000
00000001
00000100
00000000
00000000
00000010
00001000
,
00000000
00000000
00000100
00000010
00000000
00000001
00001000
00000001
00000000
00000000
00000100
00000001
00000000
00000000
00000100
00000010
,
00000000
00000000
00001000
00000010
00000000
00000000
00010000
00000010
00000000
00000000
00010000
00001000
00000000
00000000
01000000
00001000
,
00000000
00000000
01000000
00010000
00000000
00000000
01000000
00100000
00000000
00000000
10000000
00100000
00000000
00000000
10000000
00010000
,
00000000
00000000
00100000
00010000
00000000
00000000
00100000
01000000
00000000
00000000
10000000
01000000
00000000
00000000
00100000
00010000
,
00000000
00000000
01000000
00100000
00000000
10000000
00010000
10000000
00200000
00000000
00000000
00000000
00000000
00000000
00000000
00000000
,
00000000
00000000
00000000
00000000
,
00000000
00000000
00300000
00000000
,
00000000
00000000
00000000
00000000
;

//---------------dance-single - ----------------
#NOTEDATA:;
#CHARTNAME:;
#STEPSTYPE:dance-single;
#DESCRIPTION:;
#CHARTSTYLE:;
#DIFFICULTY:Challenge;
#METER:17;
#RADARVALUES:0.751070,1.528989,0.000000,0.077601,1.639328,542.000000,542.000000,0.000000,8.000000,0.000000,0.000000,0.000000,0.000000,0.000000,0.751070,1.528989,0.000000,0.077601,1.639328,542.000000,542.000000,0.000000,8.000000,0.000000,0.000000,0.000000,0.000000,0.000000;
#CREDIT:;
#DISPLAYBPM:71.000000:142.000000;
#NOTES:
// measure 0
0000
0000
0000
0000
,  // measure 1
0000
0000
0000
0000
,  // measure 2
0000
0000
0000
0000
,  // measure 3
0000
0000
0000
0000
,  // measure 4
0000
0000
0000
0000
,  // measure 5
0100
0000
1000
0010
0100
0000
0001
0010
0000
0100
0000
1000
0000
1000
0100
0010
,  // measure 6
0001
0000
0100
0001
0010
0000
0001
0010
0000
0100
0000
1000
0000
1000
0100
0010
,  // measure 7
0001
0000
1000
0100
0010
0000
0001
0010
0000
0100
0000
1000
0000
0010
0100
0001
,  // measure 8
1000
0001
1000
0001
0100
0010
0100
0010
1000
0001
0100
0010
1000
0001
0100
0010
,  // measure 9
1000
0000
0100
1000
0010
0000
0100
0001
0000
0010
0000
0100
0000
1000
0010
0100
,  // measure 10
0001
0000
0010
0001
0100
0000
0010
1000
0000
0100
0000
0010
0000
0001
0010
0100
,  // measure 11
1000
0000
0010
1000
0100
0000
1000
0100
0000
0010
0000
0001
0000
0010
0100
0010
,  // measure 12
1000
0000
0010
0100
0001
0000
0100
0001
0000
0010
0000
1000
0000
0010
0001
0100
,  // measure 13
0010
0000
1000
0100
0010
0000
0001
0010
0000
0100
0000
1000
0000
0100
0010
0001
,  // measure 14
0010
0000
0001
0100
0010
0000
0100
1000
0000
0010
0000
0100
0000
0001
0010
0001
,  // measure 15
0100
0001
0100
0001
0010
0001
0010
0001
0100
0001
0010
0001
0100
0001
0010
0001
,  // measure 16
0100
1000
0100
1000
0010
1000
0010
1000
0100
1000
0010
1000
0100
1000
0010
1000
,  // measure 17
0100
0000
1000
0100
0000
1000
0100
0010
0000
0010
0001
0100
0000
0010
1000
0100
,  // measure 18
0000
0010
0001
1000
0000
0100
0001
1000
0000
0010
0001
0100
0000
0010
1000
0100
,  // measure 19
0000
0010
0001
1000
0000
0010
1000
0001
0000
0100
0001
1000
0000
0100
1000
0001
,  // measure 20
0000
0010
0001
0100
0000
0010
1000
0100
0000
0100
1000
0010
0000
0010
0001
0100
,  // measure 21
0010
1000
0010
0100
0010
1000
0010
0100
0010
1000
0010
0100
0010
1000
0010
0100
0010
1000
0010
0100
0010
1000
0010
0100
0010
1000
0010
0100
0010
1000
0010
0100
,  // measure 22
0010
0001
0100
0010
1000
0100
0010
0001
1000
0100
0010
0001
1000
0010
0100
0001
1000
0100
0010
0001
0010
0100
1000
0010
0100
0001
0010
0001
0100
0010
1000
0100
,  // measure 23
0010
0001
0010
0100
0010
0001
0010
0100
0010
0001
0010
0100
0010
0001
0010
0100
0010
0001
0010
0100
0010
0001
0010
0100
0010
0001
0010
0100
0010
0001
0010
0100
,  // measure 24
0010
0001
0100
0010
1000
0100
0010
0001
1000
0010
0100
0001
1000
0100
0010
0001
0010
0100
1000
0100
0010
0001
0100
0010
1000
0001
0010
0100
1000
0100
0010
0001
,  // measure 25
0200
0000
0000
0000
,  // measure 26
0000
0320
0000
0000
,  // measure 27
0000
0000
0000
0000
0000
0000
0000
0000
2030
0000
0000
0001
0000
0000
3100
0000
,  // measure 28
0000
0000
0000
0000
0002
0000
0000
1000
0000
0000
0103
0000
0000
0000
0000
0000
,  // measure 29
0020
0000
0000
0001
0000
0000
0130
0000
0000
0000
0000
0000
0200
0000
0000
0010
,  // measure 30
0000
0000
1300
0000
0000
0001
0000
0000
1000
0100
1000
0100
0000
0100
0001
0100
,  // measure 31
0000
0100
0010
0100
0000
0100
0001
0100
0000
0100
0010
0100
0000
0100
1000
0100
,  // measure 32
0000
0100
0001
0010
0100
1000
0100
0010
0000
0010
0001
0010
0000
0010
0100
0010
,  // measure 33
0000
0010
0001
0010
0000
0010
1000
0010
0000
0010
0100
0010
0000
0010
0001
0010
,  // measure 34
0000
0010
0001
0100
0010
1000
0001
1000
0000
1000
0100
1000
0000
1000
0010
1000
,  // measure 35
0000
1000
0001
1000
0000
1000
0100
1000
0000
1000
0010
1000
0000
1000
0001
1000
,  // measure 36
0000
1000
0100
1000
0010
0100
0001
0100
0000
0100
0010
0100
0000
0010
0100
0010
,  // measure 37
0000
1000
0100
1000
0000
0001
0100
0001
0000
1000
0100
1000
0000
0001
0100
0001
,  // measure 38
0000
0100
1000
0010
0100
0001
0010
0001
0000
0010
1000
0100
0000
0010
0001
0100
,  // measure 39
0000
0010
1000
0100
0000
0010
0001
0100
0000
0010
1000
0100
0000
0010
0001
0100
,  // measure 40
0000
1000
0100
0010
0001
0100
0010
1000
0000
0100
0010
1000
0000
0010
0100
1000
,  // measure 41
0000
0100
0010
1000
0000
0010
0100
1000
0000
0100
0010
1000
0000
0010
0100
1000
,  // measure 42
0000
0100
0010
1000
0100
0010
0001
0010
0000
1000
0001
0100
0000
1000
0001
0010
,  // measure 43
0000
1000
0001
0100
0000
1000
0001
0010
0000
1000
0001
0100
0000
1000
0001
0010
,  // measure 44
0000
0100
0001
1000
0010
0001
0100
0010
0000
0100
0010
0100
0000
0100
0001
0100
,  // measure 45
0000
0010
1000
0010
0000
0010
0100
0010
0000
0001
0010
0001
0100
0010
1000
0100
,  // measure 46
0010
0001
1000
0001
0100
0010
0001
0200
0002
0000
0000
0000
0000
0000
0000
0000
,  // measure 47
0000
0000
0000
0000
,  // measure 48
0000
0000
0303
0000
;
