#VERSION:0.83;
#TITLE:IN THE NAVY '99 (XXL Disaster Remix);
#SUBTITLE:;
#ARTIST:CAPTAIN JACK;
#TITLETRANSLIT:;
#SUBTITLETRANSLIT:;
#ARTISTTRANSLIT:;
#GENRE:;
#ORIGIN:;
#CREDIT:;
#BANNER:IN THE NAVY '99 (XXL Disaster Remix).png;
#BACKGROUND:IN THE NAVY '99 (XXL Disaster Remix)-bg.png;
#PREVIEWVID:;
#JACKET:IN THE NAVY '99 (XXL Disaster Remix)-jacket.png;
#CDIMAGE:;
#DISCIMAGE:;
#LYRICSPATH:;
#CDTITLE:;
#MUSIC:IN THE NAVY '99 (XXL Disaster Remix).ogg;
#OFFSET:0.000000;
#SAMPLESTART:19.111000;
#SAMPLELENGTH:15.000000;
#SELECTABLE:YES;
#DISPLAYBPM:135.000000;
#BPMS:0.000=134.800,
4.000=135.000;
#STOPS:;
#DELAYS:;
#WARPS:;
#TIMESIGNATURES:0.000=4=4;
#TICKCOUNTS:0.000=4;
#COMBOS:0.000=1;
#SPEEDS:0.000=1.000=0.000=0;
#SCROLLS:0.000=1.000;
#FAKES:;
#LABELS:0.000=Song Start;
#BGCHANGES:4.000=IN THE NAVY '99 (XXL Disaster Remix).avi=1.200=0=0=0=StretchNoLoop====,
216.000=IN THE NAVY '99 (XXL Disaster Remix)-bg.png=1.000=0=0=1=====,
99999=-nosongbg-=1.000=0=0=0 // don't automatically add -songbackground-
;
#KEYSOUNDS:;
#ATTACKS:
;

//---------------dance-single - ----------------
#NOTEDATA:;
#CHARTNAME:;
#STEPSTYPE:dance-single;
#DESCRIPTION:;
#CHARTSTYLE:;
#DIFFICULTY:Beginner;
#METER:3;
#RADARVALUES:0.163602,0.299739,0.080366,0.160731,0.000000,114.000000,106.000000,8.000000,16.000000,0.000000,0.000000,0.000000,0.000000,0.000000,0.163602,0.299739,0.080366,0.160731,0.000000,114.000000,106.000000,8.000000,16.000000,0.000000,0.000000,0.000000,0.000000,0.000000;
#CREDIT:;
#DISPLAYBPM:135.000000;
#NOTES:
0000
0000
0000
0000
,
0000
0000
0000
0000
,
0000
0000
0000
0000
,
0000
0000
0000
0000
,
0000
0000
0000
0000
,
1000
0000
1000
0000
,
2000
3000
1000
0000
,
0100
0000
0100
0000
,
0100
0000
0100
0000
,
1000
0000
2000
3000
,
0010
0000
0010
0000
,
1000
0000
0020
0030
,
1000
0000
1000
0000
,
0010
0000
2000
3000
,
0010
0000
0010
0000
,
1000
0000
0200
0300
,
0100
0000
1000
0000
,
1000
0000
0200
0300
,
1000
0000
1000
0000
,
0010
0010
0100
0100
,
1000
1000
0001
1001
,
0100
0100
0010
0010
,
0001
1000
0001
1001
,
0000
0100
0000
0001
,
0000
1000
0000
0010
,
0000
1000
0000
0100
,
0000
0001
0000
1000
,
0000
0001
0000
0100
,
0000
0010
0000
0100
,
0000
0001
0000
0010
,
0000
0001
0000
0001
,
0000
0000
0010
0000
,
1000
0000
0001
0000
,
1000
0000
0010
0000
,
0001
0000
1000
0000
,
0001
0000
0010
0000
,
1000
0000
0100
0000
,
0001
0000
1000
1000
,
0000
1001
0000
1001
,
0000
0200
0300
0001
,
0000
0010
0000
0010
,
0000
0002
0003
0100
,
0000
0001
0000
0001
,
0000
0020
0030
0001
,
0000
0001
0000
0010
,
0000
2002
3003
1001
,
0000
0010
0000
0001
,
0000
0020
0030
0010
,
0000
0001
0000
0001
,
0000
0200
0300
0001
,
0000
0100
0000
0010
,
0000
0020
0030
0001
,
0000
1001
0000
1001
,
0000
0200
0300
0002
,
0000
0003
0000
0000
;

//---------------dance-single - ----------------
#NOTEDATA:;
#CHARTNAME:;
#STEPSTYPE:dance-single;
#DESCRIPTION:;
#CHARTSTYLE:;
#DIFFICULTY:Easy;
#METER:6;
#RADARVALUES:0.309982,0.354237,0.170777,0.020091,0.000000,216.000000,199.000000,17.000000,2.000000,0.000000,0.000000,0.000000,0.000000,0.000000,0.309982,0.354237,0.170777,0.020091,0.000000,216.000000,199.000000,17.000000,2.000000,0.000000,0.000000,0.000000,0.000000,0.000000;
#CREDIT:;
#DISPLAYBPM:135.000000;
#NOTES:
0000
0000
0000
0000
,
0000
0000
0000
0000
,
0000
0000
0000
0000
,
0000
0000
0000
0000
,
0000
0000
0000
0000
,
1000
0100
1000
0100
,
1000
0100
1000
0001
,
0100
0001
0100
0001
,
0100
0001
0100
0010
,
1000
0010
1000
0001
,
0010
0001
0010
0001
,
1000
0100
0010
0001
,
1000
0001
1000
0001
,
0010
0001
1000
0100
,
0010
0100
0010
0100
,
1000
0010
0100
0001
,
0100
0010
1000
0001
,
1000
0010
0100
0001
,
1000
0001
1000
1001
,
0010
0100
0010
0000
0100
0010
0100
0000
,
0001
1000
0001
1001
,
0100
0010
0100
0000
0010
0100
0010
0000
,
1000
1000
0001
1001
,
1000
0100
0010
0001
,
1000
1000
0001
0010
,
0100
1000
0010
0100
,
0001
0001
1000
1000
,
0001
0001
1000
0100
,
0010
0010
0001
0100
,
1001
0001
0100
0010
,
1000
0001
1000
0001
,
0100
0000
0010
1001
,
1000
0000
0001
1001
,
1000
0001
0010
0100
,
0001
1001
1000
1001
,
0001
1000
0010
1001
,
1000
0010
0100
1001
,
0001
1000
1000
1000
,
0001
1001
1000
1001
,
1000
0100
0010
0001
,
1000
0010
1000
0010
,
0100
0001
0010
0100
,
0010
0001
0010
0001
,
0100
0010
1000
0001
,
0010
0001
1000
0010
,
1000
1001
0001
1001
,
1000
0010
0100
0001
,
1000
0010
0100
0010
,
0100
0001
0010
0001
,
1000
0100
0010
0001
,
1000
0100
1000
0010
,
1000
0010
0100
0001
,
1000
1001
0001
1001
,
1000
0100
0010
0001
,
2002
3003
0000
0000
;

//---------------dance-single - ----------------
#NOTEDATA:;
#CHARTNAME:;
#STEPSTYPE:dance-single;
#DESCRIPTION:;
#CHARTSTYLE:;
#DIFFICULTY:Medium;
#METER:8;
#RADARVALUES:0.394653,0.435984,0.261188,0.020091,0.000000,275.000000,249.000000,26.000000,2.000000,0.000000,0.000000,0.000000,0.000000,0.000000,0.394653,0.435984,0.261188,0.020091,0.000000,275.000000,249.000000,26.000000,2.000000,0.000000,0.000000,0.000000,0.000000,0.000000;
#CREDIT:;
#DISPLAYBPM:135.000000;
#NOTES:
0000
0000
0000
0000
,
0000
0000
0000
0000
,
0000
0000
0000
0000
,
0000
0000
0000
0000
,
0000
0000
0000
0000
,
1000
0100
1000
0100
,
1000
0100
1000
0001
,
1000
0100
1000
0001
,
0100
0001
0010
0001
,
0010
0001
0010
0001
,
0010
0000
0001
0000
0010
0000
0001
0001
,
1000
0000
0100
1000
0100
0000
0010
0000
,
0001
0000
1000
0000
0001
0100
0001
0000
,
0100
0000
0010
1000
0001
0000
1000
0000
,
0100
0000
0010
0000
1000
0001
0100
0000
,
0010
0000
1000
0100
0010
0000
0001
0000
,
1000
0000
0001
0000
0010
0001
1000
0000
,
0100
0000
0100
1000
0001
0000
0001
0000
,
1000
0000
1000
0001
0010
0000
1001
0000
,
0001
0010
0001
0000
1000
0100
1000
0000
,
0010
1000
0010
0000
0100
0001
0100
0000
,
0010
1000
0010
0000
0100
0001
0100
0000
,
1000
0010
1000
0000
0100
0001
0100
0000
,
0001
0000
0100
0000
0001
0100
1000
0000
,
1000
0000
0100
0000
1000
0100
0001
0000
,
1000
0010
0100
0000
0010
1000
0001
0000
,
1000
1001
0010
0110
,
0001
0000
0010
0000
0001
0010
1000
0000
,
0010
0000
0100
0000
1000
0100
0001
0000
,
0100
1000
0001
0000
0010
0001
0100
0000
,
0001
1001
1000
1001
,
0110
0000
1001
0000
0001
0100
0010
0000
,
1001
0000
0110
0000
0100
0001
1000
0000
,
0010
1000
0100
0000
0100
1000
0010
0000
,
0101
1100
0101
1100
,
0001
0000
0100
0000
0010
0100
0001
0000
,
1000
0000
0010
0000
0100
0010
1000
0000
,
0100
1000
0010
0000
0010
1000
0100
0000
,
0011
0000
1010
0000
0011
0000
1000
1000
,
1000
0000
0100
0010
0001
0000
1001
0000
,
0010
0000
0100
0000
0001
0100
1000
0000
,
1000
0000
0100
0010
0001
0000
1001
0000
,
0100
0000
0010
0000
1000
0100
0001
0000
,
0100
0000
1000
0010
1000
0000
1001
0000
,
0010
1000
0100
0000
0100
0001
0010
0000
,
1000
0000
0001
0001
0100
0000
0110
0000
,
0001
0000
1000
0001
0100
0000
0010
0010
,
0100
0000
0010
1000
0001
0000
1001
0000
,
0100
0000
0001
0000
1000
0100
0001
0000
,
0100
0000
0010
0100
0001
0000
1001
0000
,
1000
0000
0100
0000
1000
0100
0001
0001
,
1000
0000
0010
0100
0001
0000
1001
0000
,
0010
1010
0100
0101
,
0100
0000
0001
1000
0010
0000
1001
0002
,
2000
3003
0000
0000
;

//---------------dance-single - ----------------
#NOTEDATA:;
#CHARTNAME:;
#STEPSTYPE:dance-single;
#DESCRIPTION:;
#CHARTSTYLE:;
#DIFFICULTY:Hard;
#METER:12;
#RADARVALUES:0.522377,0.708474,0.572605,0.020091,0.436988,364.000000,307.000000,57.000000,2.000000,0.000000,0.000000,0.000000,0.000000,0.000000,0.522377,0.708474,0.572605,0.020091,0.436988,364.000000,307.000000,57.000000,2.000000,0.000000,0.000000,0.000000,0.000000,0.000000;
#CREDIT:;
#DISPLAYBPM:135.000000;
#NOTES:
0000
0000
0000
0000
,
0000
0000
0000
0000
,
0000
0000
0000
0000
,
0000
0000
0000
0000
,
0000
0000
0000
0000
,
1000
0100
0010
0001
,
1000
0100
0010
0001
,
1000
0100
0010
0001
,
1000
0100
0010
0001
,
1000
0100
0010
0001
,
1000
0000
0000
0000
0001
0000
0000
0000
1001
0000
0000
0000
0001
0000
0000
0001
,
1000
0000
0000
1000
0001
0000
0000
0001
0100
0000
0000
0100
0010
0000
0000
0010
,
1000
0000
0000
1000
0010
0000
0000
0010
0100
0000
0000
0100
0001
0000
0000
0001
,
0100
0000
0000
0100
0010
0000
0000
0010
1000
0000
0000
1000
0001
0000
0000
0001
,
1000
0000
0000
1000
0100
0000
0000
0100
0010
0000
0000
0010
0001
0000
0000
0001
,
0010
0000
0000
0010
0100
0000
0000
0100
1000
0000
0000
1000
0001
0000
0000
0001
,
0100
0000
0000
0100
0010
0000
0000
0010
1000
0000
0000
1000
0001
0000
0000
0001
,
0010
0000
0000
0010
0100
0000
0000
0100
1000
0000
0000
1000
0001
0000
0000
0001
,
0010
0000
0000
0010
0100
0000
0000
0100
1000
0000
0000
0000
1001
0000
0000
0000
,
0011
0011
1001
0000
1010
1010
0110
0000
,
0101
0101
0011
0000
0110
0110
1100
0000
,
1001
1001
1010
0000
0101
0101
0011
0000
,
1001
1001
1001
0000
0110
0000
1001
0000
,
1100
0000
0101
0000
0001
0100
1000
0000
,
1100
0000
0101
0000
1000
0100
0001
0000
,
0100
1000
0001
0000
0010
0001
1000
0000
,
1000
1001
0010
0110
,
0011
0000
1010
0000
0001
0010
1000
0000
,
1100
0000
0101
0000
1000
0100
0001
0000
,
0100
0010
1000
0000
0010
0001
0100
0000
,
0011
1010
0011
1010
,
0110
0000
1001
0000
0001
0100
0010
0000
,
1001
0000
0110
0000
0100
0001
1000
0000
,
0010
1000
0100
0000
0100
1000
0010
0000
,
0101
1100
0101
1100
,
0011
0000
1100
0000
0010
0100
0001
0000
,
1100
0000
0011
0000
0100
0010
1000
0000
,
0100
1000
0010
0000
0010
1000
0100
0000
,
0011
0000
0000
0000
1010
0000
0000
0000
1001
0000
0000
0000
0001
0000
0000
0001
,
1000
0000
0000
1000
0100
0000
0000
0100
0010
0000
0000
0010
0001
0000
0000
0001
,
0010
0000
0000
0010
0001
0000
0000
0001
0100
0000
0000
0100
0010
0000
0000
0010
,
1000
0000
0000
1000
0010
0000
0000
0010
0100
0000
0000
0100
0001
0000
0000
0001
,
0010
0000
0000
0010
0100
0000
0000
0100
1000
0000
0000
1000
0001
0000
0000
0001
,
0010
0000
0000
0010
0001
0000
0000
0001
1000
0000
0000
1000
0100
0000
0000
0100
,
0010
0000
0000
0010
0001
0000
0000
0001
1000
0000
0000
1000
0010
0000
0000
0010
,
0100
0000
0000
0100
0001
0000
0000
0001
1000
0000
0000
1000
0010
0000
0000
0010
,
1000
0000
0000
1000
0001
0000
0000
0001
0100
0000
0000
0100
0001
0000
0000
0001
,
0100
0000
0000
0100
0010
0000
0000
0010
1000
0000
0000
1000
0001
0000
0000
0001
,
0100
0000
0000
0100
0001
0000
0000
0001
1000
0000
0000
1000
0010
0000
0000
0010
,
1000
0000
0000
1000
0100
0000
0000
0100
0010
0000
0000
0010
0001
0000
0000
0001
,
1000
0000
0000
1000
0100
0000
0000
0100
1000
0000
0000
1000
0100
0000
0000
0100
,
1000
0000
0000
1000
0010
0000
0000
0010
1000
0000
0000
1000
0001
0000
0000
0001
,
0100
0000
0000
0000
0001
0000
0000
0000
1001
0000
0000
0001
0100
0000
0000
0100
,
0010
0000
0000
0000
1001
0000
0000
0000
0001
0000
0000
0001
1000
0000
0000
0000
,
2002
3003
0000
0000
;

//---------------dance-double - ----------------
#NOTEDATA:;
#CHARTNAME:;
#STEPSTYPE:dance-double;
#DESCRIPTION:;
#CHARTSTYLE:;
#DIFFICULTY:Easy;
#METER:4;
#RADARVALUES:0.315722,0.352604,0.170777,0.000000,0.000000,220.000000,203.000000,17.000000,0.000000,0.000000,0.000000,0.000000,0.000000,0.000000,0.315722,0.352604,0.170777,0.000000,0.000000,220.000000,203.000000,17.000000,0.000000,0.000000,0.000000,0.000000,0.000000,0.000000;
#CREDIT:;
#DISPLAYBPM:135.000000;
#NOTES:
00000000
00000000
00000000
00000000
,
00000000
00000000
00000000
00000000
,
00000000
00000000
00000000
00000000
,
00000000
00000000
00000000
00000000
,
00000000
00000000
00000000
00000000
,
00010000
00001000
00010000
00001000
,
00010000
00100000
00010000
10000000
,
00010000
01000000
00010000
00001000
,
00000010
00001000
00000001
00001000
,
00010000
00001000
00010000
00001000
,
00010000
00001000
00010000
00001000
,
00010000
00000100
00000010
00000001
,
00000100
00000001
00000010
00000100
,
00001000
00000100
00010000
01000000
,
10000000
00010000
00100000
00010000
,
01000000
00010000
00001000
00000100
,
00001000
00000010
00001000
00000100
,
00011000
01000000
01100000
10000000
,
00010000
10010000
01000000
01100000
,
10000000
00010000
10000000
00000000
00010000
10000000
00010000
00000000
,
10000000
00000000
10000000
00000000
00010000
10000000
00010000
00000000
,
01000000
00010000
01000000
00000000
00001000
00010000
00001000
00000000
,
00000100
00000000
00000100
00000000
00000001
00001000
00000001
00000000
,
00000001
00001000
00000010
00000100
,
00010000
00001000
00100000
01000000
,
01000000
01100000
00100000
10010000
,
01000000
01000000
00100000
00100000
,
00010000
00010000
00001000
00000100
,
00000010
00000010
00000001
00001000
,
00001001
00000100
00000110
00000001
,
00001000
00001000
00000001
00000001
,
00000001
00001000
00000010
00000100
,
00010000
00001000
00100000
01000000
,
10000000
10010000
00100000
01100000
,
01000000
01000000
00100000
00100000
,
00010000
00010000
00001000
00000100
,
00000010
00000010
00000001
00001000
,
00001001
00000010
00000110
00000001
,
00001000
00001000
00000001
00000001
,
00001000
00000010
00000100
00000001
,
00001000
00000100
00010000
00001000
,
00100000
00010000
10000000
01000000
,
00100000
00010000
00100000
00010000
,
00100000
00001000
00010000
00001000
,
00000010
00000100
00001000
00000001
,
00001000
00001001
00000010
00000110
,
00010000
00001000
00010000
00001000
,
00100000
00010000
10000000
01000000
,
00100000
01000000
10000000
00010000
,
00100000
00010000
01000000
00001000
,
00010000
00001000
00010000
00001000
,
00100000
00001000
01000000
00010000
,
10000000
10010000
00100000
01100000
,
10000000
01000000
00100000
00010000
,
01100000
00000000
00000000
00000000
;

//---------------dance-double - ----------------
#NOTEDATA:;
#CHARTNAME:;
#STEPSTYPE:dance-double;
#DESCRIPTION:;
#CHARTSTYLE:;
#DIFFICULTY:Medium;
#METER:5;
#RADARVALUES:0.388912,0.433975,0.572605,0.000000,0.000000,271.000000,214.000000,57.000000,0.000000,0.000000,0.000000,0.000000,0.000000,0.000000,0.388912,0.433975,0.572605,0.000000,0.000000,271.000000,214.000000,57.000000,0.000000,0.000000,0.000000,0.000000,0.000000,0.000000;
#CREDIT:;
#DISPLAYBPM:135.000000;
#NOTES:
00000000
00000000
00000000
00000000
,
00000000
00000000
00000000
00000000
,
00000000
00000000
00000000
00000000
,
00000000
00000000
00000000
00000000
,
00000000
00000000
00000000
00000000
,
00010000
00001000
00010000
00000010
,
00010000
00001000
01000000
00001000
,
00010000
00001000
00010000
00000100
,
00010000
00001000
00100000
00001000
,
00010000
00001000
00010000
00001000
,
00010000
00000000
00001000
00000000
00010000
00000000
00001000
00001000
,
00010000
01000000
00100000
10010000
,
01000000
00010000
00100000
00000000
00001000
00000000
00011000
00000000
,
00000100
00000100
00000010
00000110
,
00000001
00001000
00000100
00000000
00010000
00000000
00011000
00000000
,
01000000
01000000
00100000
00100000
,
10010000
10010000
00100000
00101000
,
00000100
00001100
00000010
00000011
,
00001010
00011000
00010000
00011000
,
10000000
00010000
10000000
00000000
00010000
10000000
00010000
00000000
,
10000000
00000000
10000000
00000000
00010000
10000000
00010000
00000000
,
01000000
00010000
01000000
00000000
00001000
00010000
00001000
00000000
,
00000100
00000000
00000100
00000000
00000001
00001000
00000001
00000000
,
00000001
00001000
00001010
00001100
,
00010000
01000000
00110000
01010000
,
10000000
00010000
01000000
00000000
00100000
10000000
00010000
00000000
,
01000000
01100000
10000000
10010000
,
00001000
00000000
00000011
00000101
,
00010000
00000000
11000000
10100000
,
01000000
00000000
00001000
00010000
,
00000100
00001000
00010000
00000000
00011000
00000000
00110000
00000000
,
10000000
00000000
00000000
00100000
10000000
00000000
10010000
00000000
,
00010000
00000000
00000000
00100000
00001000
00000000
01001000
00000000
,
00100000
00101000
00010000
00010100
,
00001100
00001010
00000110
00000101
,
00001000
00000000
00000000
00010000
00001000
00000000
00010100
00000000
,
00001000
00000000
00000000
00100000
00001000
00000000
01000000
00000000
,
01010000
00110000
01100000
10010000
,
00100000
00000000
00010000
00000000
10000000
00000000
00010000
00100000
,
00010000
00000000
00000000
00000100
00001000
00000000
00000110
00000000
,
00001000
00000000
00101000
00000000
10000000
00000000
00010000
00010000
,
00100000
00000000
00000000
00001000
00000100
00000010
00000001
00000000
,
00001001
00000000
00000010
00000000
00000110
00000000
00001000
00001000
,
00010000
00000000
00000000
00100000
00010000
00000000
00110000
00000000
,
00101000
00011000
00010100
00011000
,
00100000
00000000
00000000
01000000
01100000
00000000
10000000
00010000
,
01000000
00000000
00000000
00010000
10000000
00000000
10000000
00010000
,
10000000
00000000
00000000
00100000
10000000
00000000
10010000
00000000
,
00100000
00000000
00110000
00000000
00001000
00000000
00010000
00001000
,
00000100
00000000
00000000
00000010
00000100
00000000
00000110
00000000
,
00000001
00000000
00001001
00000000
00000010
00000000
00000100
00000010
,
00001000
00000000
00000000
00100000
00010000
00000000
01100000
00000000
,
10000000
11000000
00100000
00110000
,
10000000
00000000
00000000
01000000
01100000
00000000
10010000
00000000
,
10010000
00000000
00000000
00000000
;

//---------------dance-double - ----------------
#NOTEDATA:;
#CHARTNAME:;
#STEPSTYPE:dance-double;
#DESCRIPTION:;
#CHARTSTYLE:;
#DIFFICULTY:Hard;
#METER:8;
#RADARVALUES:0.556819,0.705209,0.572605,0.000000,0.577628,388.000000,331.000000,57.000000,0.000000,0.000000,0.000000,0.000000,0.000000,0.000000,0.556819,0.705209,0.572605,0.000000,0.577628,388.000000,331.000000,57.000000,0.000000,0.000000,0.000000,0.000000,0.000000,0.000000;
#CREDIT:;
#DISPLAYBPM:135.000000;
#NOTES:
00000000
00000000
00000000
00000000
,
00000000
00000000
00000000
00000000
,
00000000
00000000
00000000
00000000
,
00000000
00000000
00000000
00000000
,
00000000
00000000
00000000
00000000
,
00010000
00000000
00000000
00010000
00001000
00000000
00000000
00001000
00010000
00000000
00000000
00010000
00001000
00000000
00000000
00001000
,
00010000
00000000
00000000
00010000
00001000
00000000
00000000
00001000
00010000
00000000
00000000
00010000
00001000
00000000
00000000
00001000
,
00000100
00000000
00000000
00000100
00000001
00000000
00000000
00000001
00000010
00000000
00000000
00000010
00001000
00000000
00000000
00001000
,
00010000
00000000
00000000
00010000
01000000
00000000
00000000
01000000
10000000
00000000
00000000
10000000
00100000
00000000
00000000
00100000
,
01000000
00000000
00000000
01000000
00001000
00000000
00000000
00001000
00000010
00000000
00000000
00000010
00000100
00000000
00000000
00000100
,
00010000
00000000
00000000
00010000
00001000
00000000
00000000
00001000
00010000
00000000
00000000
00010000
00001000
00000000
00000000
00001000
,
01000000
00000000
00000000
01000000
10000000
00000000
00000000
10000000
00100000
00000000
00000000
00100000
00010000
00000000
00000000
00010000
,
00000010
00000000
00000000
00000010
00000001
00000000
00000000
00000001
00000100
00000000
00000000
00000100
00001000
00000000
00000000
00001000
,
00010000
00000000
00000000
00010000
00000010
00000000
00000000
00000010
00001000
00000000
00000000
00001000
00000100
00000000
00000000
00000100
,
00010000
00000000
00000000
00010000
00001000
00000000
00000000
00001000
00100000
00000000
00000000
00100000
00010000
00000000
00000000
00010000
,
10000000
00000000
00000000
10000000
01000000
00000000
00000000
01000000
00100000
00000000
00000000
00100000
00010000
00000000
00000000
00010000
,
00000010
00000000
00000000
00000010
00000100
00000000
00000000
00000100
00001000
00000000
00000000
00001000
00000001
00000000
00000000
00000001
,
00001000
00000000
00000000
00001000
00000100
00000000
00000000
00000100
00010000
00000000
00000000
00010000
01000000
00000000
00000000
01000000
,
10000000
00000000
00000000
10000000
00010000
00000000
00000000
00010000
01000000
00000000
00000000
00000000
10010000
00000000
00000000
00000000
,
10100000
10010000
01010000
00000000
10010000
10010000
11000000
00000000
,
01010000
01010000
00110000
00000000
00011000
00001100
00000110
00000000
,
00001001
00000101
00000011
00000000
00000110
00000110
00001001
00000000
,
00000011
00001001
00000101
00000000
00000110
00001010
00001100
00000000
,
00001010
00011000
01010000
10010000
,
00101000
00011000
00010100
00001001
,
00000010
00001000
00000001
00000000
00000100
00000010
00001000
00000000
,
00000010
00000110
00000001
00001001
,
00000011
00000101
00001100
00001010
,
00110000
01010000
11000000
10100000
,
01000000
00010000
10000000
00000000
00100000
10000000
01000000
00000000
,
10000000
10010000
00100000
10010000
,
01010000
00000000
00011000
00000000
00000010
00010000
00001000
00000000
,
00001010
00000000
00001100
00000000
00100000
00001000
00010000
00000000
,
00000010
00001000
00000001
00000000
00000100
00000010
00001000
00000000
,
00000011
00000100
00001100
00000010
,
00000110
00000000
00001010
00000000
00000010
00010000
00001000
00000000
,
01100000
00000000
01010000
00000000
01000000
00001000
00010000
00000000
,
00000010
00010000
01000000
00000000
00100000
00001000
00000100
00000000
,
00000110
00000000
00000000
00000000
00000000
00000000
00000000
00000000
00001001
00000000
00000000
00000000
00000001
00000000
00000000
00000001
,
00000100
00000000
00000000
00000100
00000001
00000000
00000000
00000001
00001000
00000000
00000000
00001000
00000010
00000000
00000000
00000010
,
00010000
00000000
00000000
00010000
00000100
00000000
00000000
00000100
00010000
00000000
00000000
00010000
00001000
00000000
00000000
00001000
,
00100000
00000000
00000000
00100000
01000000
00000000
00000000
01000000
10000000
00000000
00000000
10000000
00010000
00000000
00000000
00010000
,
00100000
00000000
00000000
00100000
00001000
00000000
00000000
00001000
00000100
00000000
00000000
00000100
00000001
00000000
00000000
00000001
,
00000010
00000000
00000000
00000010
00000100
00000000
00000000
00000100
00010000
00000000
00000000
00010000
00001000
00000000
00000000
00001000
,
01000000
00000000
00000000
01000000
00001000
00000000
00000000
00001000
00100000
00000000
00000000
00100000
00010000
00000000
00000000
00010000
,
10000000
00000000
00000000
10000000
01000000
00000000
00000000
01000000
00100000
00000000
00000000
00100000
00010000
00000000
00000000
00010000
,
01000000
00000000
00000000
01000000
00001000
00000000
00000000
00001000
00010000
00000000
00000000
00010000
00000010
00000000
00000000
00000010
,
00000100
00000000
00000000
00000100
00000001
00000000
00000000
00000001
00001000
00000000
00000000
00001000
00000010
00000000
00000000
00000010
,
00010000
00000000
00000000
00010000
00000100
00000000
00000000
00000100
00010000
00000000
00000000
00010000
00001000
00000000
00000000
00001000
,
00100000
00000000
00000000
00100000
00010000
00000000
00000000
00010000
10000000
00000000
00000000
10000000
01000000
00000000
00000000
01000000
,
00100000
00000000
00000000
00100000
00001000
00000000
00000000
00001000
00010000
00000000
00000000
00010000
00000100
00000000
00000000
00000100
,
00001000
00000000
00000000
00001000
00000001
00000000
00000000
00000001
00001000
00000000
00000000
00001000
00000001
00000000
00000000
00000001
,
00000010
00000000
00000000
00000010
00000001
00000000
00000000
00000001
00000100
00000000
00000000
00000100
00000001
00000000
00000000
00000001
,
00001000
00000000
00000000
00001000
00000010
00000000
00000000
00000010
00010000
00000000
00000000
00010000
00001000
00000000
00000000
00001000
,
00010000
00000000
00000000
00000000
;

//---------------dance-couple - ----------------
#NOTEDATA:;
#CHARTNAME:;
#STEPSTYPE:dance-couple;
#DESCRIPTION:;
#CHARTSTYLE:;
#DIFFICULTY:Challenge;
#METER:8;
#RADARVALUES:0.344424,0.650962,0.281280,0.000000,0.281280,240.000000,212.000000,28.000000,0.000000,0.000000,0.000000,0.000000,0.000000,0.000000,0.344424,0.678085,0.281280,0.000000,0.281280,240.000000,212.000000,28.000000,0.000000,0.000000,0.000000,0.000000,0.000000,0.000000;
#CREDIT:;
#DISPLAYBPM:135.000000;
#NOTES:
00000000
00000000
00000000
00000000
,
00000000
00000000
00000000
00000000
,
00000000
00000000
00000000
00000000
,
00000000
00000000
00000000
00000000
,
00000000
00000000
00000000
00000000
,
10001000
01000100
00100010
00010001
,
10001000
01000100
00100010
00010001
,
10001000
01000100
00100010
00010001
,
10001000
01000100
00100010
00010001
,
10001000
01000100
00100010
00010001
,
00010001
00000000
00000000
00000000
00010001
00000000
00000000
00000000
01000100
00000000
00000000
00000000
00000000
00000000
00000000
00010000
,
10000001
00000000
00000000
10000000
00010000
00000000
00000000
00010000
01000001
00000000
00000000
01000000
00100000
00000000
00000000
00100000
,
10000001
00000000
00000000
10000000
00100000
00000000
00000000
00100000
01000001
00000000
00000000
01000000
00010000
00000000
00000000
00010000
,
01000001
00000000
00000000
01000000
00100000
00000000
00000000
00100000
10000001
00000000
00000000
10000000
00010000
00000000
00000000
00010000
,
10000001
00000000
00000000
10000000
01000000
00000000
00000000
01000000
00100001
00000000
00000000
00100000
00010000
00000000
00000000
00000001
,
10001000
00000000
00000000
00001000
00000001
00000000
00000000
00000001
10000100
00000000
00000000
00000100
00000010
00000000
00000000
00000010
,
10001000
00000000
00000000
00001000
00000010
00000000
00000000
00000010
10000100
00000000
00000000
00000100
00000001
00000000
00000000
00000001
,
10000100
00000000
00000000
00000100
00000010
00000000
00000000
00000010
10001000
00000000
00000000
00001000
00000001
00000000
00000000
00000001
,
10001000
00000000
00000000
00001000
00000100
00000000
00000000
00000100
10000010
00000000
00000000
00000010
00000001
00000000
00000000
00000000
,
00110000
00110000
10010001
00000000
10100000
10100000
01100001
00000000
,
01010000
01010000
00110001
00000000
01100000
01100000
11000001
00000000
,
00000011
00000011
10001001
00000000
00001010
00001010
10000110
00000000
,
00000101
00000101
10000011
00000000
00000110
00000110
10001100
00000000
,
11000000
00000000
01010000
00000000
00010000
01000000
10000000
00000000
,
11000000
00000000
01010000
00000000
10000000
01000000
00010000
00000000
,
00001100
00000000
00000101
00000000
00000001
00000100
00001000
00000000
,
00001100
00000000
00000101
00000000
00001000
00000100
00000001
00000000
,
11000000
00000000
01010000
00000000
10000000
01000000
00010000
00000000
,
01000000
00100000
10000000
00000000
00100000
00010000
01000000
00000000
,
00001100
00000000
00000101
00000000
00001000
00000100
00000001
00000000
,
00000100
00000010
00001000
00000000
00000010
00000001
00000100
00000000
,
01100000
00000000
10010000
00000000
00010000
01000000
00100000
00000000
,
10010000
00000000
01100000
00000000
01000000
00010000
10000000
00000000
,
00000110
00000000
00001001
00000000
00000001
00000100
00000010
00000000
,
00001001
00000000
00000110
00000000
00000100
00000001
00001000
00000000
,
01000000
10000000
00100000
00000000
00100000
10000000
01000000
00000000
,
00110000
10100000
10010000
00010000
,
00000100
00001000
00000010
00000000
00000010
00001000
00000100
00000000
,
00000011
00000000
00000000
00000000
00001010
00000000
00000000
00000000
00001001
00000000
00000000
00000000
00000001
00000000
00000000
00010000
,
10000000
00000000
00000000
10000000
01000001
00000000
00000000
01000000
00100000
00000000
00000000
00100000
00010001
00000000
00000000
00010000
,
00100000
00000000
00000000
00100000
00010001
00000000
00000000
00010000
01000000
00000000
00000000
01000000
00100001
00000000
00000000
00100000
,
10000000
00000000
00000000
10000000
00100001
00000000
00000000
00100000
01000000
00000000
00000000
01000000
00010001
00000000
00000000
00010000
,
00100000
00000000
00000000
00100000
01000001
00000000
00000000
01000000
10000000
00000000
00000000
10000000
00010000
00000000
00000000
00000001
,
00000010
00000000
00000000
00000010
10000001
00000000
00000000
00000001
00001000
00000000
00000000
00001000
10000100
00000000
00000000
00000100
,
00000010
00000000
00000000
00000010
10000001
00000000
00000000
00000001
00001000
00000000
00000000
00001000
10000010
00000000
00000000
00000010
,
00000100
00000000
00000000
00000100
10000001
00000000
00000000
00000001
00001000
00000000
00000000
00001000
10000010
00000000
00000000
00000010
,
00001000
00000000
00000000
00001000
10000001
00000000
00000000
00000001
00000100
00000000
00000000
00000100
00000001
00000000
00000000
00010001
,
01000100
00000000
00000000
01000100
00100010
00000000
00000000
00100010
10001000
00000000
00000000
10001000
00010001
00000000
00000000
00010001
,
01000100
00000000
00000000
01000100
00010001
00000000
00000000
00010001
10001000
00000000
00000000
10001000
00100010
00000000
00000000
00100010
,
10001000
00000000
00000000
10001000
01000100
00000000
00000000
01000100
00100010
00000000
00000000
00100010
00010001
00000000
00000000
00010001
,
10001000
00000000
00000000
10001000
01000100
00000000
00000000
01000100
10001000
00000000
00000000
10001000
01000100
00000000
00000000
01000100
,
10001000
00000000
00000000
10001000
00100010
00000000
00000000
00100010
10001000
00000000
00000000
10001000
00010001
00000000
00000000
00010001
,
01000100
00000000
00000000
00000000
00010001
00000000
00000000
00000000
10011001
00000000
00000000
00010001
01000100
00000000
00000000
01000100
,
00100010
00000000
00000000
00000000
10011001
00000000
00000000
00000000
00010001
00000000
00000000
00010001
10001000
00000000
00000000
00000000
,
10011001
00000000
00000000
00000000
;

//---------------dance-solo - ----------------
#NOTEDATA:;
#CHARTNAME:;
#STEPSTYPE:dance-solo;
#DESCRIPTION:;
#CHARTSTYLE:;
#DIFFICULTY:Easy;
#METER:4;
#RADARVALUES:0.298501,0.352604,0.150686,0.000000,0.000000,208.000000,193.000000,15.000000,0.000000,0.000000,0.000000,0.000000,0.000000,0.000000,0.298501,0.352604,0.150686,0.000000,0.000000,208.000000,193.000000,15.000000,0.000000,0.000000,0.000000,0.000000,0.000000,0.000000;
#CREDIT:;
#DISPLAYBPM:135.000000;
#NOTES:
000000
000000
000000
000000
,
000000
000000
000000
000000
,
000000
000000
000000
000000
,
000000
000000
000000
000000
,
000000
000000
000000
000000
,
100000
000100
010000
000100
,
010000
000010
000100
000001
,
001000
000001
001000
000001
,
001000
000010
001000
000010
,
010000
000100
010000
000100
,
100000
000100
100000
000100
,
100000
000010
010000
000001
,
000010
000001
000100
000010
,
100000
000100
001000
000001
,
100000
010000
100000
000100
,
001000
000010
010000
000100
,
100000
100001
000001
100001
,
000100
001000
000001
100000
,
000010
001000
010000
100001
,
100000
000001
001000
000000
000100
001000
000001
000000
,
010000
010000
000010
010010
,
000010
001000
000001
000000
010000
000100
100000
000000
,
001000
000100
000001
100000
,
000100
000000
001000
100001
,
100000
000000
000001
001100
,
010000
000000
001000
001000
,
000010
000000
001000
001000
,
100000
000000
000010
010000
,
000001
000000
010000
000010
,
100000
000001
100000
000001
,
001000
000100
001000
000100
,
100000
000000
000001
100001
,
001000
000000
000100
001100
,
010000
000010
010000
000010
,
001000
000100
001000
000100
,
100000
000010
010000
000001
,
010000
000001
100000
000010
,
100000
100001
000001
100001
,
001000
000100
001000
100001
,
001000
000001
100000
000100
,
100000
000100
010000
000100
,
001000
000001
100000
000010
,
000100
000001
000010
000001
,
010000
001000
100000
000010
,
001000
000001
010000
000010
,
001000
001000
000100
001000
,
000001
100000
000100
100001
,
001000
000010
010000
000001
,
100000
000100
001000
000010
,
010000
001000
100000
000001
,
001000
000100
001000
000100
,
010000
000001
100000
000010
,
001000
100001
000100
100001
,
100000
001000
000100
000001
,
100001
000000
000000
000000
;

//---------------dance-solo - ----------------
#NOTEDATA:;
#CHARTNAME:;
#STEPSTYPE:dance-solo;
#DESCRIPTION:;
#CHARTSTYLE:;
#DIFFICULTY:Medium;
#METER:5;
#RADARVALUES:0.363081,0.406851,0.231051,0.000000,0.000000,253.000000,230.000000,23.000000,0.000000,0.000000,0.000000,0.000000,0.000000,0.000000,0.363081,0.406851,0.231051,0.000000,0.000000,253.000000,230.000000,23.000000,0.000000,0.000000,0.000000,0.000000,0.000000,0.000000;
#CREDIT:;
#DISPLAYBPM:135.000000;
#NOTES:
000000
000000
000000
000000
,
000000
000000
000000
000000
,
000000
000000
000000
000000
,
000000
000000
000000
000000
,
000000
000000
000000
000000
,
100000
010000
100000
010000
,
100000
000100
010000
000100
,
010000
000100
010000
000010
,
000100
000010
000100
000010
,
000100
000001
000010
000001
,
000010
000001
000010
000001
,
100000
000000
000100
010000
000100
000000
001000
000000
,
000001
100000
000100
001000
,
000010
000000
010000
000001
010000
000000
000100
000000
,
100000
000010
001000
000001
,
010000
000000
000100
100000
000100
000000
001000
000000
,
000001
010000
000010
100000
,
001000
100001
000100
001100
,
010000
010000
000010
001100
,
100000
010000
100000
000000
000100
010000
000100
000000
,
010000
000010
010000
000000
000010
000100
000010
000000
,
000001
000010
000001
000000
000100
000010
000100
000000
,
000010
010000
000010
000000
100000
000000
100001
000000
,
000010
000000
010000
000000
000100
000010
000001
000000
,
010000
000000
000010
000000
000100
010000
100000
000000
,
001000
100001
000100
100001
,
001000
000100
001000
000100
,
010000
000000
000100
000000
100000
000100
000001
000000
,
000010
000000
000100
000000
000001
000100
100000
000000
,
000100
001100
100000
100001
,
010000
000100
100000
000010
,
001100
000000
100001
000000
000001
001000
000100
000000
,
100001
000000
001100
000000
001000
000001
100000
000000
,
000100
100000
001000
000000
001000
100000
000100
000000
,
001001
101000
001001
000000
,
000001
000000
001000
000000
000100
001000
000001
000000
,
100000
000000
000100
000000
001000
000100
100000
000000
,
001000
100000
000100
000000
000100
100000
001000
000000
,
000101
000000
100100
000000
000101
000000
100000
000001
,
100000
000000
000100
001000
000001
000000
100000
000000
,
001000
000010
100000
000100
,
010000
000000
000001
000100
000010
000000
100000
000000
,
001000
100000
000010
010000
,
000100
000000
100000
010000
100000
000000
000001
000000
,
001000
000010
100000
000001
,
001000
000000
000010
000100
000010
000000
100000
000000
,
000100
001000
000010
010000
,
000001
000000
100000
000010
100000
000000
001000
000000
,
001000
000000
000001
000000
010000
001000
000001
000000
,
001000
000000
000100
001000
000001
000000
010010
000000
,
100000
000000
001000
000000
100000
001000
000001
000001
,
010000
000000
000100
001000
000001
000000
100001
000000
,
000100
010100
001000
001010
,
001000
000000
000001
010000
000100
000000
100010
000000
,
100000
000000
000000
000000
;

//---------------dance-solo - ----------------
#NOTEDATA:;
#CHARTNAME:;
#STEPSTYPE:dance-solo;
#DESCRIPTION:;
#CHARTSTYLE:;
#DIFFICULTY:Hard;
#METER:7;
#RADARVALUES:0.492240,0.461098,0.431965,0.000000,0.416897,343.000000,300.000000,43.000000,0.000000,0.000000,0.000000,0.000000,0.000000,0.000000,0.492240,0.461098,0.431965,0.000000,0.416897,343.000000,300.000000,43.000000,0.000000,0.000000,0.000000,0.000000,0.000000,0.000000;
#CREDIT:;
#DISPLAYBPM:135.000000;
#NOTES:
000000
000000
000000
000000
,
000000
000000
000000
000000
,
000000
000000
000000
000000
,
000000
000000
000000
000000
,
000000
000000
000000
000000
,
100000
001000
000100
000001
,
100000
001000
000100
000001
,
100000
001000
000100
000001
,
100000
001000
000100
000001
,
100000
001000
000100
000001
,
100000
000000
000000
000000
000100
000000
000000
000000
001000
000000
000000
000000
000001
000000
000000
000001
,
100000
000000
000000
100000
000001
000000
000000
000001
001000
000000
000000
001000
000100
000000
000000
000100
,
010000
000000
000000
010000
000100
000000
000000
000100
001000
000000
000000
001000
000001
000000
000000
000001
,
000100
000000
000000
000100
000010
000000
000000
000010
100000
000000
000000
100000
000001
000000
000000
000001
,
100000
000000
000000
100000
001000
000000
000000
001000
000100
000000
000000
000100
000001
000000
000000
000001
,
000100
000000
000000
000100
001000
000000
000000
001000
010000
000000
000000
010000
000010
000000
000000
000010
,
001000
000000
000000
001000
000100
000000
000000
000100
100000
000000
000000
100000
000001
000000
000000
000001
,
000100
000000
000000
000100
001000
000000
000000
001000
100000
000000
000000
100000
000001
000000
000000
000001
,
000100
000000
000000
000100
001000
000000
000000
001000
010000
000000
000000
000000
100001
000000
000000
000000
,
000100
000010
000001
000000
000100
010000
100000
000000
,
000011
000011
000101
000000
100000
000000
100001
000000
,
000001
000010
000100
000000
100000
010000
000100
000000
,
110000
110000
100100
000000
000001
000000
100001
000000
,
110000
010100
000001
100000
,
000011
000110
100000
000001
,
100000
001000
000001
000000
000001
001000
100000
000000
,
000100
001100
100000
100001
,
000110
010100
100001
001000
,
010100
000110
001100
100000
,
000001
001000
100000
000000
100000
001000
000001
000000
,
000110
010100
000110
010100
,
001100
000000
100001
000000
000010
010000
000100
000000
,
100001
000000
001100
000000
001000
000010
010000
000000
,
000100
010000
001000
000000
001000
000010
000100
000000
,
001010
011000
001010
011000
,
000101
000000
101000
000000
000100
001000
000001
000000
,
101000
000000
000101
000000
001000
000100
100000
000000
,
001000
100000
000100
000000
000100
100000
001000
000000
,
000110
000000
000000
000000
010100
000000
000000
000000
100001
000000
000000
000000
000100
000000
000000
000100
,
100000
000000
000000
100000
000001
000000
000000
000001
001000
000000
000000
001000
000100
000000
000000
000100
,
010000
000000
000000
010000
000001
000000
000000
000001
100000
000000
000000
100000
000010
000000
000000
000010
,
001000
000000
000000
001000
000100
000000
000000
000100
010000
000000
000000
010000
000010
000000
000000
000010
,
100000
000000
000000
100000
001000
000000
000000
001000
000100
000000
000000
000100
000001
000000
000000
000001
,
010000
000000
000000
010000
000010
000000
000000
000010
001000
000000
000000
001000
000100
000000
000000
000100
,
100000
000000
000000
100000
000100
000000
000000
000100
001000
000000
000000
001000
000001
000000
000000
000001
,
010000
000000
000000
010000
000100
000000
000000
000100
100000
000000
000000
100000
000100
000000
000000
000100
,
001000
000000
000000
001000
000001
000000
000000
000001
000100
000000
000000
000100
000001
000000
000000
000001
,
000010
000000
000000
000010
000001
000000
000000
000001
100000
000000
000000
100000
000100
000000
000000
000100
,
001000
000000
000000
001000
000010
000000
000000
000010
010000
000000
000000
010000
000001
000000
000000
000001
,
100000
000000
000000
100000
000100
000000
000000
000100
001000
000000
000000
001000
000010
000000
000000
000010
,
010000
000000
000000
010000
000100
000000
000000
000100
010000
000000
000000
010000
000100
000000
000100
000000
,
001000
000000
000000
001000
000010
000000
000000
000010
001000
000000
000000
001000
000010
000000
000000
000010
,
001000
000000
100001
000000
000100
000000
001100
000100
,
100000
000001
001000
100001
,
001000
000000
000000
000000
;

//---------------dance-single - ----------------
#NOTEDATA:;
#CHARTNAME:;
#STEPSTYPE:dance-single;
#DESCRIPTION:;
#CHARTSTYLE:;
#DIFFICULTY:Challenge;
#METER:14;
#RADARVALUES:0.673062,0.790221,0.391783,0.110503,0.678085,469.000000,430.000000,39.000000,11.000000,0.000000,0.000000,0.000000,0.000000,0.000000,0.673062,0.790221,0.391783,0.110503,0.678085,469.000000,430.000000,39.000000,11.000000,0.000000,0.000000,0.000000,0.000000,0.000000;
#CREDIT:;
#DISPLAYBPM:135.000000;
#NOTES:
// measure 0
0000
0000
0000
0000
,  // measure 1
0000
0000
0000
0000
,  // measure 2
0000
0000
0000
0000
,  // measure 3
0000
0000
0000
0000
,  // measure 4
0000
0000
0000
0000
,  // measure 5
1000
0000
0000
1000
0100
0000
0000
0100
0010
0000
0000
0010
0001
0000
0000
0001
,  // measure 6
1000
0100
1000
0100
0010
0001
0010
0001
1000
0100
0010
0001
1000
0100
0010
0001
,  // measure 7
0100
0000
0000
0100
0001
0000
0000
0001
1000
0000
0000
1000
0010
0000
0000
0010
,  // measure 8
1000
0000
0000
1000
0100
0000
0000
0100
0010
0000
0000
0010
0001
0000
0000
0001
,  // measure 9
0100
1000
0100
0001
0010
1000
0010
0001
,  // measure 10
1000
0010
0100
0010
1000
0010
0100
0010
1000
0100
0010
0100
1000
0100
0010
0100
,  // measure 11
1000
0000
0000
1000
0001
0000
0000
0001
0100
0000
0000
0100
0010
0000
0001
0000
,  // measure 12
0100
0000
0010
0000
0100
0010
0000
2000
0000
0000
0000
3001
1000
0000
0001
0000
,  // measure 13
0100
0000
0000
0100
0001
0000
0000
0001
0010
0000
0000
0010
0001
0000
0010
0000
,  // measure 14
0100
0000
1000
0000
0001
0010
0000
0200
0000
0000
0000
0310
0100
0000
0010
0000
,  // measure 15
1000
0000
0000
1000
0010
0000
0000
0010
0100
0000
0000
0100
0001
0000
0010
0000
,  // measure 16
0100
0000
1000
0000
0001
0100
0000
0002
0000
0000
0000
0013
0100
0000
1000
0000
,  // measure 17
1010
0000
0000
0000
0110
0000
0000
0000
0101
0000
0000
0000
0001
0100
0010
0000
,  // measure 18
1010
0011
0110
1001
,  // measure 19
1100
0110
0011
0000
1010
1001
0101
0000
,  // measure 20
0110
0000
0011
0000
1001
0000
1000
0100
0010
0000
0011
0000
1001
0000
0101
0000
,  // measure 21
0011
0110
1100
0000
0101
1001
1010
0000
,  // measure 22
1001
0000
1100
0000
0110
0000
0010
0001
1000
0000
1010
0000
1001
0000
0000
0000
,  // measure 23
1000
0100
1000
0000
0001
0000
0100
0000
0010
1000
0010
0000
0100
0000
0001
0000
,  // measure 24
1000
0100
1000
0000
0010
0000
0100
0000
0001
0010
0001
0000
0100
0000
0010
0000
,  // measure 25
1000
0010
1000
0000
0100
0000
0010
0000
0001
0010
0001
0000
0100
0000
0010
0000
,  // measure 26
1000
0000
0001
0100
0000
0001
0100
0000
0010
0000
1000
0010
0000
1000
0010
0000
,  // measure 27
0100
0001
0100
0000
0010
0000
1000
0000
0100
1000
0100
0000
0010
0000
0001
0000
,  // measure 28
1000
0001
1000
0000
0001
0000
0010
0000
0100
1000
0100
0000
0010
0000
0001
0000
,  // measure 29
1000
0010
1000
0000
0001
0000
0100
0000
0010
1000
0010
0000
0100
0000
0001
0000
,  // measure 30
1000
0000
0100
1000
0000
0010
0100
0000
0001
0000
0010
0001
0000
0100
0010
0000
,  // measure 31
1000
0010
1000
0000
0001
0000
0010
0000
1000
0100
1000
0000
0010
0000
0100
0000
,  // measure 32
0001
0010
0001
0000
0100
0000
0010
0000
0001
0100
0001
0000
1000
0000
0100
0000
,  // measure 33
0010
0001
0010
0000
0100
0000
0010
0000
1000
0100
1000
0000
0010
0000
0100
0000
,  // measure 34
0001
0000
1000
0001
0000
0010
0001
0000
0100
0000
0010
1000
0000
0100
1000
0000
,  // measure 35
0100
1000
0100
0000
0010
0000
0100
0000
0001
0010
0001
0000
0100
0000
0010
0000
,  // measure 36
1000
0001
1000
0000
0001
0000
0100
0000
0001
1000
0001
0000
0010
0000
1000
0000
,  // measure 37
0100
1000
0100
0000
0010
0000
0100
0000
0001
0010
0001
0000
0100
0000
0010
0000
,  // measure 38
1010
0000
0000
1000
0001
0000
0000
0001
0100
0000
0000
0100
1000
0000
0001
0000
,  // measure 39
0101
0000
0000
0100
1000
0000
0000
1000
0010
0000
0000
0010
0100
0000
0001
0000
,  // measure 40
1000
0000
0010
0000
0100
0001
0000
0020
0000
0000
0000
0130
0010
0000
1000
0000
,  // measure 41
1100
0000
0000
0100
0010
0000
0000
0010
0001
0000
0000
0001
0100
0000
1000
0000
,  // measure 42
0100
0000
0001
0000
1000
0010
0000
0200
0000
0000
0000
0310
0100
0000
1000
0000
,  // measure 43
1001
0000
0000
0001
0010
0000
0000
0010
1000
0000
0000
1000
0010
0000
0001
0000
,  // measure 44
0010
0000
1000
0000
0001
0010
0000
2000
0000
0000
0000
3010
1000
0000
0100
0000
,  // measure 45
0110
0000
0000
0010
1000
0000
0000
1000
0001
0000
0000
0001
1000
0000
0000
1000
,  // measure 46
0100
0000
0000
0100
0010
0000
0000
0010
0100
0000
0000
0100
0010
0000
0000
0010
,  // measure 47
0001
0000
0000
0100
0010
0000
0000
1000
0001
0000
0000
0010
0100
0000
0001
0000
,  // measure 48
1000
0000
0010
0000
0001
1000
0000
0021
0000
0000
0000
0130
0010
0000
1000
0000
,  // measure 49
0001
0000
0000
1000
0010
0000
0000
0100
0001
0000
0000
1000
0100
0000
0010
0000
,  // measure 50
0001
0000
0100
0000
1000
0100
0000
1002
0000
0000
0000
0013
0001
0000
0010
0000
,  // measure 51
1000
0000
0000
0100
0010
0000
0000
0001
1000
0000
0000
0010
0100
0000
0010
0000
,  // measure 52
1000
0000
0001
0000
0010
0100
0000
0201
0000
0000
0000
1300
0100
0000
0010
0000
,  // measure 53
0001
0000
0000
0001
0010
0000
0000
0010
1000
0000
0000
1000
0100
0000
0001
0000
,  // measure 54
2002
3003
0000
0000
;
