#TITLE:IN THE HEAT OF THE NIGHT;
#SUBTITLE:;
#ARTIST:E-ROTIC;
#TITLETRANSLIT:;
#SUBTITLETRANSLIT:;
#ARTISTTRANSLIT:;
#GENRE:;
#CREDIT:;
#BANNER:IN THE HEAT OF THE NIGHT.png;
#BACKGROUND:IN THE HEAT OF THE NIGHT-bg.png;
#LYRICSPATH:;
#CDTITLE:;
#MUSIC:IN THE HEAT OF THE NIGHT.ogg;
#OFFSET:0.000000;
#SAMPLESTART:43.021000;
#SAMPLELENGTH:15.000000;
#SELECTABLE:YES;
#DISPLAYBPM:136.000000;
#BPMS:0.000000=135.979004
;
#STOPS:
;
#BGCHANGES:0.000=IN THE HEAT OF THE NIGHT.avi=1.000=0=0=0=StretchNoLoop====,
99999=-nosongbg-=1.000=0=0=0 // don't automatically add -songbackground-
;
#KEYSOUNDS:;
#ATTACKS:;

//---------------dance-single - ----------------
#NOTES:
     dance-single:
     :
     Beginner:
     2:
     0.138974,0.183338,0.085522,0.138974,0.000000,91.000000,83.000000,8.000000,13.000000,0.000000,0.000000,0.138974,0.183338,0.085522,0.138974,0.000000,91.000000,83.000000,8.000000,13.000000,0.000000,0.000000:
0000
0000
0000
0000
,
0000
0000
0000
0000
,
0000
0000
0000
0000
,
0000
0000
0000
0000
,
0000
0000
0000
0000
,
0100
0000
1000
1000
,
1000
0000
0000
0000
,
0010
0000
0001
0001
,
0001
0000
0000
0000
,
2000
3000
0000
0000
,
0100
0000
0100
0000
,
0020
0030
0000
0000
,
0001
0000
0001
0000
,
2000
3000
0000
0000
,
0010
0000
0010
0000
,
0200
0300
0000
0000
,
0020
0030
0000
0000
,
2002
3003
0000
0000
,
0100
0000
0100
0000
,
0220
0330
0000
0000
,
1000
0000
1000
0000
,
2002
3003
0000
0000
,
0010
0000
0010
0000
,
0220
0330
0000
0000
,
1001
0000
0000
0000
,
0001
0000
0100
0100
,
0100
0000
0000
0000
,
1000
0000
0100
0100
,
0100
0000
0000
0000
,
0010
0000
0001
0001
,
0001
0000
0000
0000
,
0010
0000
1000
1000
,
1000
0000
0000
0000
,
1001
0000
0100
0100
,
0100
0000
0000
0000
,
0100
0000
0010
0010
,
0010
0000
0000
0000
,
0001
0000
1000
1000
,
1000
0000
0000
0000
,
1000
0000
0001
0001
,
0001
0000
0000
0000
,
1001
0000
0100
0100
,
0100
0000
0010
0000
,
0100
0000
0001
0001
,
0001
0000
1000
0000
,
0001
0000
0010
0010
,
0010
0000
0100
0000
,
0010
0000
1000
1000
,
1000
0000
0001
0000
,
1001
0000
0000
0000
;

//---------------dance-single - ----------------
#NOTES:
     dance-single:
     :
     Easy:
     5:
     0.221441,0.314294,0.096212,0.000000,0.000000,145.000000,136.000000,9.000000,0.000000,0.000000,0.000000,0.221441,0.314294,0.096212,0.000000,0.000000,145.000000,136.000000,9.000000,0.000000,0.000000,0.000000:
0000
0000
0000
0000
,
0000
0000
0000
0000
,
0000
0000
0000
0000
,
0000
0000
0000
0000
,
0000
0000
0000
0000
,
0001
0000
0001
0000
,
0100
0001
1000
0000
,
0010
0000
0010
0000
,
1000
0010
0100
0001
,
0010
0000
0000
0000
,
0100
0000
0100
1001
,
1000
0001
0000
1000
,
0100
0000
0100
1001
,
0010
0100
0000
0001
,
1000
0000
1000
0001
,
0000
0000
0000
0000
,
0100
0000
0000
0000
,
1000
0000
0000
0000
,
0010
0000
0100
0110
,
0001
1000
0000
0010
,
0100
0000
0100
1001
,
0001
1000
0000
0100
,
1000
0000
0010
0100
,
0001
0000
0001
0000
,
1000
0000
0000
0001
,
1001
0000
0000
0100
,
0001
0100
1000
0100
,
0001
0100
1000
0100
,
0001
1000
0100
0001
,
1000
0000
1000
0001
,
0100
0001
1000
0001
,
0100
0001
0010
0001
,
1000
0010
0100
0001
,
1001
0000
0100
0010
,
1000
0100
0001
0100
,
1000
0100
0001
1000
,
0010
0100
0001
1000
,
0001
0001
0001
1001
,
0100
0100
0100
1001
,
0010
0010
0010
1001
,
0100
0000
1000
1000
,
0001
0000
0000
0100
,
0010
1000
0100
1000
,
0001
0100
0001
0010
,
0100
0010
0100
0010
,
0001
0000
0001
1000
,
0010
0000
0010
0100
,
0001
0100
0010
1000
,
0001
0001
1000
1000
,
0001
0000
0000
0000
;

//---------------dance-single - ----------------
#NOTES:
     dance-single:
     :
     Medium:
     8:
     0.293219,0.339617,0.235186,0.000000,0.000000,192.000000,170.000000,22.000000,0.000000,0.000000,0.000000,0.293219,0.339617,0.235186,0.000000,0.000000,192.000000,170.000000,22.000000,0.000000,0.000000,0.000000:
0000
0000
0000
0000
,
0000
0000
0000
0000
,
0000
0000
0000
0000
,
0000
0000
0000
0000
,
0000
0000
0000
0000
,
0001
0000
0001
1001
,
0100
0001
0100
1000
,
0001
0101
1000
1100
,
0001
0000
0001
1000
,
0101
0000
0000
0010
,
1000
0000
1000
0001
,
1100
0101
0000
0001
,
0010
0000
0010
0100
,
1100
0011
0000
1000
,
0001
0000
0001
0000
,
0100
0000
0000
0000
,
0100
0010
1000
0001
0100
0100
0100
0000
,
0011
0000
0000
0000
1000
0000
0001
0001
,
0100
0000
0000
0000
0100
0100
0010
0000
,
0110
0000
0000
0000
1000
0001
0001
0000
,
1000
0010
0100
0001
,
1000
0000
1000
1010
,
0100
0000
0100
0101
,
1000
0010
0100
0001
1000
0000
0001
0000
,
1001
0001
0001
0001
,
0100
0000
0000
0001
1000
0000
1000
0000
,
0010
0100
0001
0001
,
1000
0010
0100
0001
,
1000
1000
0010
0000
0100
0100
0001
0000
,
1000
0000
0000
0010
0100
0010
0100
0010
,
1000
0000
0000
0001
0100
0001
0100
0001
,
0010
0000
0000
0100
0010
0100
0010
0100
,
1000
0000
0000
0001
1000
0001
1000
0001
,
0100
0000
0000
1001
,
0000
0101
0000
1100
,
0001
0001
0001
0001
,
0100
0000
0000
0000
0010
0001
1000
0000
,
0001
0000
0101
1100
,
0010
0000
0011
1010
,
0100
0100
0100
0100
,
0001
0000
0001
0000
,
0100
0100
0001
1000
,
0010
0010
1000
0001
,
0100
1001
0010
0110
,
1000
0000
1000
0000
0010
0100
0010
0000
,
1000
0001
0100
0010
,
1000
0010
0100
0001
,
0100
0001
0010
1000
,
0010
0000
0000
0000
0001
0100
0010
1000
;

//---------------dance-single - ----------------
#NOTES:
     dance-single:
     :
     Hard:
     11:
     0.419975,0.445250,0.117593,0.000000,0.016035,275.000000,264.000000,11.000000,0.000000,0.000000,0.000000,0.419975,0.445250,0.117593,0.000000,0.016035,275.000000,264.000000,11.000000,0.000000,0.000000,0.000000:
0000
0000
0000
0000
,
0000
0000
0000
0000
,
0000
0000
0000
0000
,
0000
0000
0000
0000
,
0000
0000
0000
0000
,
0000
0000
0000
0000
1000
1000
1000
0010
,
0100
0000
0100
0000
0001
0100
0010
1000
,
0001
0010
0100
1000
,
0001
0000
0001
1000
,
0010
0000
0000
0000
0000
0000
0010
0100
,
0001
0100
1000
0100
0010
0000
1000
0000
,
0001
0000
0100
0000
0000
0000
0001
1000
,
0010
0100
0001
1000
0100
0000
0010
0000
,
0001
1000
0000
0001
,
1001
0000
0101
0000
,
1100
0000
0000
0000
,
0001
0100
0010
0000
1000
0000
1001
0000
,
0100
0000
0010
0000
1000
0001
0100
0000
,
0010
0000
1010
0000
1000
1000
0001
0000
,
0011
0101
0000
0100
,
0001
0000
0101
1100
,
0010
0000
0100
0000
0000
0000
0001
1000
,
0010
0100
0001
1000
0010
0100
0001
1000
,
0000
0000
0001
0001
,
1001
0000
0000
0100
,
0100
0010
1000
0001
0100
0010
0100
0010
,
1000
0001
0100
0010
1000
0100
1000
0100
,
0010
0001
0010
0100
0010
0001
0010
0100
,
1000
0010
1000
0100
1000
0010
1000
0100
,
0010
0001
0100
0010
1000
0010
0100
0001
,
0010
0100
1000
0001
0100
0010
1000
0001
,
1000
0010
0100
0001
1000
0010
0100
0001
,
1000
0010
0100
0001
1000
0000
1001
0000
,
0100
0010
1000
0010
0100
0001
1000
0001
,
0010
0100
0010
0001
1000
0010
1000
0100
,
0010
0001
1000
0010
0100
0001
1000
0100
,
0010
0001
1000
0010
0100
0001
1000
0100
,
1000
0010
0100
0001
1000
0010
0100
0001
,
0010
0100
0010
0001
1000
0010
1000
0100
,
0010
0001
1000
0010
0100
0001
1000
0100
,
0010
0001
1000
0010
0100
0001
1000
0010
,
0100
0010
1000
0001
0100
0010
0100
0010
,
1000
0001
0100
0010
1000
0100
1000
0100
,
0010
0001
0010
0100
0010
0001
0010
0100
,
1000
0010
1000
0100
1000
0010
1000
0100
,
0010
0000
0000
0010
1000
0001
0100
0010
,
1000
0000
0000
0000
0000
0000
0001
1000
0001
0100
0000
0000
0000
0010
0000
0000
,
1000
0001
0100
0010
1000
0001
0100
0010
,
1000
0000
1000
0010
1000
0000
0001
0010
,
0100
0000
0000
0000
;

//---------------dance-double - ----------------
#NOTES:
     dance-double:
     :
     Easy:
     4:
     0.204642,0.235720,0.000000,0.000000,0.000000,134.000000,134.000000,0.000000,0.000000,0.000000,0.000000,0.204642,0.235720,0.000000,0.000000,0.000000,134.000000,134.000000,0.000000,0.000000,0.000000,0.000000:
00000000
00000000
00000000
00000000
,
00000000
00000000
00000000
00000000
,
00000000
00000000
00000000
00000000
,
00000000
00000000
00000000
00000000
,
00000000
00000000
00000000
00000000
,
00010000
00000000
00000010
00000000
,
00001000
00000000
00100000
00000000
,
10000000
00000000
10000000
00000000
,
00010000
00000000
00001000
00000000
,
00000100
00000000
00000000
00000100
,
00000001
00000100
00001000
00000100
,
00010000
00010000
00010000
00001000
,
01000000
01000000
01000000
00100000
,
10000000
10000000
10000000
00010000
,
01000000
00000000
01000000
00000000
,
00010000
00000000
00000000
00000000
,
00001000
00000000
00000000
00000000
,
00000001
00000000
00000000
00000001
,
00000100
00000010
00001000
00000001
,
00000100
00000000
00010000
00010000
,
00001000
00100000
00001000
01000000
,
00100000
00000000
00100000
10000000
,
00010000
01000000
10000000
01000000
,
00010000
00100000
10000000
00100000
,
01000000
00000000
00000000
00000000
,
00000010
00000000
00000000
00010000
,
00001000
00000000
00000000
01000000
,
10000000
00100000
01000000
00001000
,
00010000
00000010
00000100
00000001
,
00001000
00000000
00001000
00001000
,
00000100
00000000
00000100
00000100
,
00010000
00010000
00001000
00001000
,
00100000
00001000
01000000
00010000
,
00100000
00000000
00000000
00001000
,
00010000
00000000
00000000
00000100
,
00000001
00000010
00000100
00010000
,
00001000
00100000
01000000
10000000
,
00100000
00000000
01000000
01000000
,
00001000
00000000
00100000
00100000
,
00010000
00001000
00010000
00000010
,
00000100
00000001
00001000
00000010
,
00000100
00000000
00000000
00001000
,
00010000
00000000
00000000
00000010
,
00010000
00000100
00001000
00100000
,
00010000
10000000
00010000
10000000
,
01000000
00000000
00001000
00001000
,
00010000
00000000
00000010
00000010
,
00001000
00000100
00001000
00000001
,
00000100
00000010
00001000
00000001
,
00001000
00000000
00000000
00000000
;

//---------------dance-double - ----------------
#NOTES:
     dance-double:
     :
     Medium:
     5:
     0.308491,0.339617,0.160354,0.000000,0.000000,202.000000,187.000000,15.000000,0.000000,0.000000,0.000000,0.308491,0.339617,0.160354,0.000000,0.000000,202.000000,187.000000,15.000000,0.000000,0.000000,0.000000:
00000000
00000000
00000000
00000000
,
00000000
00000000
00000000
00000000
,
00000000
00000000
00000000
00000000
,
00000000
00000000
00000000
00000000
,
00000000
00000000
00000000
00000000
,
01000000
00010000
10000000
00100000
,
01000000
00001000
00100000
00001000
,
00010000
00000010
00001000
00000001
,
00000100
00000100
00000100
00001001
,
00000101
00000000
00000000
00000000
00001000
00000100
00001000
00000000
,
00010000
00000000
00001000
00000000
01000000
00100000
01000000
00000000
,
11000000
01010000
00000000
00100000
,
00001000
00010000
00000010
00001000
,
00000110
00001001
00000000
00000100
,
00000010
00000000
00000000
00000000
00000000
00000000
00001000
00000100
,
00010000
00000000
00000000
00000000
00010000
00001000
00000000
00010000
,
01000000
00000000
10000000
00010000
,
10100000
00000000
00000000
00000000
00010000
00100000
00010000
00000000
,
00001000
00000000
00010000
00000000
00000100
00000010
00000100
00000000
,
00000011
00001010
00000000
00000100
,
00010000
00001000
00100000
00010000
,
11000000
00000000
01010000
00000000
00000000
00000000
00100000
01000000
,
00100000
10000000
00100000
01000000
,
00001000
00000000
00010000
00000000
00000010
00000000
00010000
00001000
,
01000000
00000000
10000000
10010000
,
01000000
00000000
00000000
00000000
10000000
00010000
01000000
00100000
,
10000000
00000000
00010000
00010000
,
00001000
00010000
00001000
00010000
,
00000010
00000000
00000100
00000100
,
00000001
00000000
00000100
00000000
00000001
00001000
00000001
00001000
,
00000010
00000000
00010000
00000000
00001000
00010000
00001000
00000000
,
01000000
01000000
00010000
10000000
,
00100000
00000000
00100000
00000000
10000000
00010000
01000000
00100000
,
10000000
00000000
00010000
00000000
00100000
00001000
00100000
00001000
,
00010000
00010000
00010000
00010000
,
00000010
00000000
00010000
00000000
00000100
00000100
00001000
00000000
,
00000010
00001000
00000001
00000100
,
00000001
00000000
00000001
00000000
00000100
00000010
00001000
00000100
,
00010000
00000000
00010000
00000000
00010000
00001000
00100000
00000000
,
00010000
01000000
00100000
10000000
,
00010000
01000000
00100000
10010000
,
01100000
01000000
01000000
00010000
,
00001000
00000000
00010000
00001000
00001000
00000000
00001000
00000000
,
00000001
00000100
00001000
00000100
,
00010000
00000010
00001000
00011000
,
01000000
00000000
00000000
00000000
01000000
00010000
10000000
00100000
,
01000000
00000000
00000000
00000000
10000000
00010000
01000000
00001000
,
00010000
00000000
00000000
00000000
00010000
00001000
00010000
00000100
,
00001000
00000000
00000000
00000000
00000001
00000000
00001000
00000001
;

//---------------dance-double - ----------------
#NOTES:
     dance-double:
     :
     Hard:
     7:
     0.372632,0.442978,0.085522,0.000000,0.021381,244.000000,236.000000,8.000000,0.000000,0.000000,0.000000,0.372632,0.442978,0.085522,0.000000,0.021381,244.000000,236.000000,8.000000,0.000000,0.000000,0.000000:
00000000
00000000
00000000
00000000
,
00000000
00000000
00000000
00000000
,
00000000
00000000
00000000
00000000
,
00000000
00000000
00000000
00000000
,
00000000
00000000
00000000
00000000
,
10000000
00000000
10000000
00000000
00100000
01000000
00100000
01000000
,
00010000
00000000
00010000
00000000
01000000
00001000
01000000
00001000
,
00010000
00000000
00000010
00000000
00001000
00000100
00001000
00000100
,
00010000
00000000
00000000
00000000
00000100
00000100
00000100
00000100
,
00001000
00000000
00001000
00000000
00001000
00000010
00000100
00000000
,
00000001
00000000
00001000
00000000
00000010
00000000
00000100
00000010
,
00000000
00001000
00000000
00000000
00000100
00000000
00000100
00000000
,
00000010
00001000
00000000
00000100
00000000
00000000
00010000
00001000
,
00000000
00100000
00000000
00000000
00000000
00000000
10000000
00010000
,
01000000
00000000
00100000
00000000
10000000
00010000
00000000
01000000
,
00001000
00000000
00000000
00000000
00000000
00010000
00000000
00001000
,
00000000
00000000
00000000
00001001
,
00000100
00000000
00000000
00000000
00000001
00000000
00000001
00001000
,
00000010
00000000
00000010
00000010
00010000
00001000
01000000
00001000
,
00000000
00100000
00000000
00000000
10000000
00000000
00010000
00000000
,
01000000
00000000
01000000
00100000
10000000
00000000
10000000
00010000
,
00000000
00001000
00000000
00000000
00000000
00000000
00000100
00000010
,
00001000
00000100
00000000
00000001
00000000
00000000
00000100
00000010
,
00000000
00000000
00000000
01010000
,
00000000
00000000
00000000
00000000
00000000
00000000
00010000
10000000
00010000
00000000
00000000
00000000
01000000
00000000
00100000
00000000
,
10000000
00000000
10000000
00000000
00100000
01000000
00001000
01000000
,
00010000
00000000
00010000
00100000
00001000
00000000
00001000
00000000
,
00010000
00000000
00000010
00000000
00000100
00000001
00001000
00000010
,
00000100
00000000
00000100
00000001
00001000
00000000
00001001
00000000
,
00000100
00000000
00000100
00000010
00001000
00000100
00010000
00001000
,
01000000
00000000
01000000
00100000
01000000
00001000
00010000
00000010
,
00001000
00000000
00000000
00000001
00000000
00000000
00000100
00000000
00000010
00000000
00001000
00000000
00000001
00000000
00000100
00000000
,
00000010
00000010
00000010
00001001
,
00000001
00000000
00000001
00000000
00000010
00000100
00010000
00000100
,
00001000
00000000
00001000
00000010
00010000
00000000
00010000
00000000
,
00001000
00000000
00100000
00000000
01000000
10000000
00010000
00100000
,
01000000
00000000
01000000
10000000
00010000
00000000
10010000
00000000
,
01000000
00000000
01000000
00100000
00010000
01000000
00001000
00010000
,
00000100
00000000
00000100
00000010
00000100
00010000
00001000
00100000
,
00010000
00000000
00000000
10000000
00000000
00000000
01000000
00000000
00100000
00000000
00010000
00000000
10000000
00000000
01000000
00000000
,
00100000
00100000
00100000
10010000
,
10000000
00010000
10000000
00010000
00100000
01000000
00100000
01000000
,
10000000
00100000
10000000
00100000
01000000
00001000
01000000
00001000
,
00010000
00000000
00010010
00000000
00001000
00000100
00001000
00000100
,
00010000
00000000
00010000
00000000
00000100
00010000
00000100
00010000
,
00000100
00001000
00000010
00000100
00000001
00001000
00000001
00001000
,
00000100
00000010
00000100
00000010
00000001
00000100
00000010
00000010
,
00010000
00000000
00000000
00001000
00000000
00000000
01000000
00000000
00100000
00000000
10000000
00000000
00010000
00000000
01000000
00000000
,
00100000
00100000
00100000
10010000
;

//---------------dance-couple - ----------------
#NOTES:
     dance-couple:
     :
     Medium:
     3:
     0.207697,0.444114,0.074832,0.000000,0.000000,136.000000,129.000000,7.000000,0.000000,0.000000,0.000000,0.207697,0.444114,0.074832,0.000000,0.000000,136.000000,129.000000,7.000000,0.000000,0.000000,0.000000:
00000000
00000000
00000000
00000000
,
00000000
00000000
00000000
00000000
,
00000000
00000000
00000000
00000000
,
00000000
00000000
00000000
00000000
,
00000000
00000000
00000000
00000000
,
00000001
00000000
00000001
00000000
,
00000100
00000001
00001000
00000000
,
10000000
00000000
10000000
00000000
,
01000000
10000000
00010000
00000000
,
00000010
00000000
00000000
01000000
,
00000100
00000000
00000100
01001001
,
00000001
00001000
00000000
01000001
,
00000100
00000000
00000100
01001001
,
00000010
00000100
00000000
00010001
,
10001000
00000000
10001000
00010001
,
00000000
00000000
00000000
00000000
,
01000100
00000000
00000000
00000000
,
00100000
00000000
00000000
00000100
,
01000000
00000000
01000000
10010100
,
10000000
00010000
00000000
10000100
,
01000000
00000000
01000000
10010100
,
00100000
01000000
00000000
00010001
,
00011000
00000000
00100100
01000010
,
10000001
00000000
10000001
00000000
,
00011000
00000000
00000000
10000001
,
10011001
00000000
00000000
01000100
,
00000010
00000001
00000010
00000100
00000010
00000001
10000010
00000100
,
00001000
00000010
00001000
00000100
00001000
00000010
00001000
00000100
,
00100000
10000000
00100000
01000000
00100000
10000000
00100001
01000000
,
00010000
00100000
00010000
01000000
00010000
00100000
00010000
01000000
,
00000001
00001000
10000000
00010000
,
00100010
00000000
00000000
01000100
00100010
01000100
00100010
01000100
,
10000001
00000000
00000000
00011000
10000001
00011000
10000001
00011000
,
01000100
00000000
00000000
10011001
,
01000000
01010000
00000100
00001100
,
00100010
10000001
00011000
00100010
01000100
10000001
00011000
01000100
,
00100010
10000001
00011000
00100010
01000100
10000001
00011000
01000100
,
00011000
00001000
00001100
00000101
,
00010000
00000000
01010000
11000000
,
00000010
00000010
01000000
01000000
,
00100010
10000001
00011000
00100010
01000100
10000001
00011000
00100010
,
00000100
00000000
00000100
00000000
00000001
00000000
00001000
00000010
,
01000000
00000000
01000000
00000000
10000000
00000000
00010000
00100000
,
00001000
00000010
00001000
00000100
00001000
00000010
00001000
00000100
,
00010000
00100000
00010000
01000000
00010000
00100000
00010000
01000000
,
00011000
10000001
01000100
00100010
,
00011000
00100010
01000100
10000001
,
00000100
00000001
01000000
10000000
,
00100010
00000000
00000000
00000000
00010001
01000100
00100010
10001000
;

//---------------dance-solo - ----------------
#NOTES:
     dance-solo:
     :
     Easy:
     3:
     0.204642,0.235720,0.000000,0.000000,0.000000,134.000000,134.000000,0.000000,0.000000,0.000000,0.000000,0.204642,0.235720,0.000000,0.000000,0.000000,134.000000,134.000000,0.000000,0.000000,0.000000,0.000000:
000000
000000
000000
000000
,
000000
000000
000000
000000
,
000000
000000
000000
000000
,
000000
000000
000000
000000
,
000000
000000
000000
000000
,
001000
000000
000100
000000
,
100000
000000
000010
000000
,
001000
000000
001000
000000
,
010000
000000
010000
000000
,
000100
000000
000000
100000
,
000001
001000
000100
100000
,
000010
000010
000010
001000
,
000100
000100
000100
100000
,
000001
000001
000001
010000
,
001000
000000
001000
000000
,
000100
000000
000000
000000
,
000010
000000
000000
000000
,
100000
000000
100000
000000
,
000100
001000
000001
100000
,
000010
000000
001000
001000
,
000100
100000
000001
100000
,
001000
000000
001000
000010
,
001000
000010
001000
000001
,
100000
001000
010000
001000
,
100000
000000
000000
000000
,
000100
000000
000000
001000
,
000001
000000
000000
100000
,
000010
001000
000010
100000
,
000001
001000
000100
100000
,
000010
000000
000010
000010
,
001000
000000
001000
001000
,
000001
000001
100000
100000
,
000100
001000
000100
001000
,
000001
000000
100000
000000
,
000010
000000
000000
001000
,
000001
100000
000100
001000
,
000010
000010
001000
000100
,
100000
000000
010000
010000
,
000001
000000
000010
000010
,
001000
000001
100000
000100
,
001000
000010
001000
000010
,
010000
000000
000000
000001
,
100000
000000
000000
000100
,
001000
000001
010000
000001
,
010000
001000
010000
001000
,
100000
000000
000001
000001
,
010000
000000
000100
000100
,
001000
000001
100000
000100
,
001000
000100
100000
000001
,
001000
000000
000000
000000
;

//---------------dance-solo - ----------------
#NOTES:
     dance-solo:
     :
     Medium:
     6:
     0.311545,0.339617,0.171044,0.000000,0.000000,204.000000,188.000000,16.000000,0.000000,0.000000,0.000000,0.311545,0.339617,0.171044,0.000000,0.000000,204.000000,188.000000,16.000000,0.000000,0.000000,0.000000:
000000
000000
000000
000000
,
000000
000000
000000
000000
,
000000
000000
000000
000000
,
000000
000000
000000
000000
,
000000
000000
000000
000000
,
100000
000010
001000
000010
,
100000
000100
001000
000010
,
010000
010000
001000
100000
,
000001
000001
000101
000110
,
010100
000000
000000
000000
100000
001000
100000
000000
,
000010
000000
001000
000000
000001
000100
000001
000000
,
000110
010100
000000
001100
,
000001
100000
000100
001000
,
100010
010001
000000
001000
,
000100
000000
000000
000000
000000
000000
100000
000010
,
001000
000000
000000
000000
000001
010000
000000
001000
,
100000
000000
000001
001000
,
001010
000000
000000
000000
000001
000010
000001
000000
,
100000
000000
000100
000000
001000
000010
001000
000000
,
001010
011000
000000
000100
,
100000
000010
001000
000001
,
000011
000000
010001
000000
000000
000000
100000
010000
,
100000
000100
001000
000010
,
001000
000000
000001
000000
100000
000000
000100
001000
,
000010
000000
100000
100010
,
000001
000000
000000
000000
001000
000100
010000
000001
,
010000
000000
000100
000100
,
100000
000001
100000
000001
,
001000
000000
000010
000010
,
100000
000000
001000
000000
010000
001000
010000
001000
,
000100
000000
000001
000000
100000
010000
100000
000000
,
000010
000010
001000
000001
,
100000
000000
100000
000000
000100
001000
000010
100000
,
000001
000000
010000
000000
000100
100000
000100
100000
,
000001
000001
001000
001000
,
000010
000000
100000
000000
000001
000001
010000
000000
,
000100
001000
000010
010000
,
001000
000000
001000
000000
000001
010000
000010
100000
,
000100
000100
000100
000000
000100
001000
000001
000000
,
100000
001000
000100
000001
,
010000
001000
010000
100001
,
000100
001000
000010
001000
,
000001
000000
100000
000010
000010
000000
001000
000000
,
000100
100000
001000
010000
,
000001
001000
000010
001100
,
010000
000000
000000
000000
100000
000100
001000
000001
,
010000
000000
000000
000000
000100
100000
000001
010000
,
001000
000000
000000
000000
100000
000010
100000
000100
,
001000
000000
000000
000000
000001
000000
010000
001000
;

//---------------dance-solo - ----------------
#NOTES:
     dance-solo:
     :
     Hard:
     7:
     0.375687,0.442978,0.096212,0.000000,0.021381,246.000000,237.000000,9.000000,0.000000,0.000000,0.000000,0.375687,0.442978,0.096212,0.000000,0.021381,246.000000,237.000000,9.000000,0.000000,0.000000,0.000000:
000000
000000
000000
000000
,
000000
000000
000000
000000
,
000000
000000
000000
000000
,
000000
000000
000000
000000
,
000000
000000
000000
000000
,
001000
000000
001000
000000
000010
100000
000010
100000
,
000001
000000
000001
000000
010000
001000
010000
001000
,
100000
000000
000001
000000
001000
000010
001000
000010
,
000100
000000
000000
000000
100000
100000
100000
100000
,
000010
000000
000010
000000
000010
001000
000001
000000
,
010000
000010
100000
000000
000000
000000
000100
001000
,
000000
000001
000000
000000
010000
000000
010000
000000
,
000100
100000
000000
001000
000000
000000
000001
100000
,
000000
000100
000000
000000
000000
000000
010000
001000
,
100000
000000
000001
000000
100000
000010
000000
001000
,
000001
000000
000000
000000
,
010000
000100
000000
100001
,
001000
000000
000000
000000
000010
000000
000010
001000
,
000100
000000
000100
100000
001000
100000
000010
100000
,
000001
001000
000000
000100
,
010000
000000
000010
100000
000001
000000
000001
001000
,
000000
000100
000000
000000
000000
000000
010000
000100
,
100000
000010
000000
001000
000000
000000
000001
000100
,
000000
000011
000000
110000
,
000000
000000
000000
000000
000000
000000
000100
001000
000001
000000
000000
000000
100000
000000
000100
000000
,
010000
000000
010000
000000
000001
001000
000010
001000
,
000100
000000
000100
010000
000001
000000
000001
000000
,
001000
000000
000010
000000
001000
000100
100000
000001
,
010000
000000
010000
000100
100000
000000
100010
000000
,
001000
000000
001000
000010
100000
000001
010000
000100
,
001000
000000
001000
000001
001000
000100
100000
000010
,
001000
000000
000000
000001
000000
000000
010000
000000
000100
000000
010000
000000
000001
000000
100000
000000
,
001000
000100
000100
100001
,
001000
000000
001000
000000
000010
001000
000001
001000
,
000100
000000
000100
100000
001000
000000
001000
000000
,
010000
000000
000100
000000
100000
000010
001000
000001
,
010000
000000
010000
000100
100000
000000
100001
000000
,
001000
000000
001000
000010
100000
000010
010000
000001
,
000100
000000
000100
001000
000100
000010
010000
000001
,
100000
000000
000000
000010
000000
000000
001000
000000
000100
000000
100000
000000
010000
000000
001000
000000
,
000100
000100
000100
100001
,
100000
000010
100000
000010
001000
000100
001000
000100
,
100000
001000
100000
001000
000100
000001
000100
000001
,
010000
000000
011000
000000
000010
000001
000010
000001
,
100000
000000
100000
000000
000010
001000
000010
001000
,
000010
100000
000100
001000
000001
010000
000001
010000
,
001000
000100
001000
000100
000001
100000
000010
000010
,
001000
000000
000000
000100
000000
000000
100000
000000
001000
000000
010000
000000
000001
000000
001000
000000
,
000100
001000
000010
010001
;

//---------------dance-single - ----------------
#NOTES:
     dance-single:
     :
     Challenge:
     14:
     0.624617,0.681505,0.106903,0.235186,0.571930,409.000000,399.000000,10.000000,22.000000,0.000000,0.000000,0.624617,0.681505,0.106903,0.235186,0.571930,409.000000,399.000000,10.000000,22.000000,0.000000,0.000000:
// measure 0
0000
0000
0000
0000
,  // measure 1
0000
0000
0000
0000
,  // measure 2
0000
0000
0000
0000
,  // measure 3
0000
0000
0000
0000
,  // measure 4
0000
0000
0000
0000
,  // measure 5
0000
0000
0000
0000
0000
0000
1000
0100
1000
0000
0010
0000
1000
0000
0100
0000
,  // measure 6
0010
0000
0000
0000
0000
0000
0010
0001
0010
0000
0000
0001
0000
0000
0010
0000
,  // measure 7
0001
1000
0001
0100
0001
1000
0001
0010
,  // measure 8
0001
0100
0001
0100
0001
0100
0001
0100
0010
1000
0010
1000
0010
1000
0010
1000
,  // measure 9
0002
0000
0000
0000
1000
0000
0000
0000
1000
0000
0000
0000
1003
0001
1000
0000
,  // measure 10
0001
0010
0100
2000
0000
3010
1000
0001
,  // measure 11
0020
0000
0000
0000
0100
0000
0000
0000
0100
0000
0000
0000
0130
1000
0100
0000
,  // measure 12
1000
0000
0010
0000
0100
0000
0002
0000
0000
0000
0013
0000
0100
0001
0100
0000
,  // measure 13
2000
0000
0100
0000
0010
0000
3100
0010
,  // measure 14
0100
0001
0000
0011
0000
1100
0000
0210
,  // measure 15
0000
0000
0301
0000
1100
0000
1010
0200
,  // measure 16
0000
1000
0000
0000
0010
0000
0310
1000
,  // measure 17
0001
1000
0001
0000
1000
0001
1000
0000
0001
0000
0010
0000
0100
0000
1000
0000
,  // measure 18
0010
1000
0010
0000
1000
0000
0001
1000
0001
0000
1000
0000
0010
0000
0100
0000
,  // measure 19
0001
0010
0001
0000
1000
0000
0001
0000
0100
0010
0100
0000
0010
0000
1000
0000
,  // measure 20
0100
1000
0100
0000
0001
0000
1000
0010
1000
0000
0100
0000
0010
0000
0001
0000
,  // measure 21
1000
0001
1000
0000
0010
0000
0100
0000
0001
1000
0001
0000
0010
0000
0100
0000
,  // measure 22
1000
0010
1000
0000
0200
0000
0010
0000
0300
0000
0001
0000
1000
0000
0010
0000
,  // measure 23
0100
0010
0100
0010
0100
0010
0100
0010
0100
0010
0100
0010
0100
0010
1000
0001
,  // measure 24
0010
0000
0000
0000
0000
0000
0010
0100
0010
0000
1000
0000
0001
0000
0100
0000
,  // measure 25
0001
1000
0001
0000
1000
0000
0100
1000
0100
1000
0010
1000
0010
1000
0100
1000
,  // measure 26
0010
0000
0000
0000
0000
0000
0100
0001
0100
0000
0001
0000
1000
0000
0010
0000
,  // measure 27
0100
0000
0001
0000
0010
0000
0001
0100
0001
1000
0001
0100
0001
0010
0100
1000
,  // measure 28
0010
0000
0000
0000
0000
0000
0010
1000
0010
0000
0100
0000
0001
0000
1000
0000
,  // measure 29
0000
0000
2200
0000
3300
0000
1000
0010
1000
0100
1000
0010
1000
0001
1000
0100
,  // measure 30
1000
0000
0000
0000
0000
0000
0010
0100
0010
0000
1000
0000
0010
0000
0100
0000
,  // measure 31
0000
0000
0202
0000
0303
0000
0001
0010
0001
0100
0001
1000
0001
0010
0100
1000
,  // measure 32
0010
0000
0000
0000
0000
0000
0100
0010
0100
0000
1000
0000
0001
0000
1000
0000
,  // measure 33
0010
1000
0010
0000
1000
0000
0001
0000
1000
0100
1000
0000
0010
0000
0100
0000
,  // measure 34
0001
0010
0001
0000
0100
0000
0010
1000
0010
0000
1000
0010
0000
0100
0001
0000
,  // measure 35
0000
0000
0022
0000
0033
0000
0001
0010
0001
0100
0001
0010
0001
0100
0010
1000
,  // measure 36
0100
0000
0000
0000
0000
0000
0100
1000
0100
0000
1000
0000
0010
0000
0100
0000
,  // measure 37
0000
0000
2020
0000
3030
0000
1000
0010
0100
0010
1000
0010
0100
0010
1000
0010
,  // measure 38
0100
0000
0000
0000
0000
0000
0010
0001
0010
0000
0001
0010
0000
0001
0010
0000
,  // measure 39
0000
0000
0220
0000
0330
0000
1000
0100
0010
0001
0010
0100
1000
0001
0100
0001
,  // measure 40
0010
0000
0000
0000
0000
0000
0010
0001
0010
0000
0001
0000
1000
0000
0010
0000
,  // measure 41
0100
0000
0001
1000
0001
0000
0010
0000
0100
0000
1000
0001
1000
0000
0100
0000
,  // measure 42
0010
0001
0010
0000
0001
0000
0010
0100
0010
0000
0100
1000
0000
1000
0001
0000
,  // measure 43
0200
0000
0001
0000
0301
0000
1000
0001
1000
0000
0100
0000
0010
0000
0001
0000
,  // measure 44
0100
0000
0010
1000
0010
0000
0100
1000
0100
0000
0010
0000
0100
0000
0001
0000
,  // measure 45
1000
0000
0010
1000
0010
0000
0100
0000
0001
0000
1000
0100
1000
0000
0010
0000
,  // measure 46
0200
0000
0000
0000
1300
0000
0010
0100
0010
0000
1000
0001
0000
1000
0001
0000
,  // measure 47
0010
0001
0100
0010
1000
0100
1000
0001
,  // measure 48
1000
0100
1000
0100
1000
0100
1000
0100
1000
0100
1000
0100
1000
0100
1000
0200
,  // measure 49
2000
0000
0000
0000
,  // measure 50
0000
0000
0000
0000
,  // measure 51
3300
0000
0000
0000
;
