#VERSION:0.83;
#TITLE:IF YOU WERE HERE;
#SUBTITLE:;
#ARTIST:JENNIFER;
#TITLETRANSLIT:;
#SUBTITLETRANSLIT:;
#ARTISTTRANSLIT:;
#GENRE:;
#ORIGIN:;
#CREDIT:;
#BANNER:IF YOU WERE HERE.png;
#BACKGROUND:IF YOU WERE HERE-bg.png;
#PREVIEWVID:;
#JACKET:IF YOU WERE HERE-jacket.png;
#CDIMAGE:;
#DISCIMAGE:;
#LYRICSPATH:;
#CDTITLE:;
#MUSIC:IF YOU WERE HERE.ogg;
#OFFSET:0.000000;
#SAMPLESTART:54.410000;
#SAMPLELENGTH:15.000000;
#SELECTABLE:YES;
#DISPLAYBPM:146.000000;
#BPMS:0.000=144.800,
4.000=145.802,
36.000=136.778,
38.000=153.754,
39.000=146.253,
40.000=145.636,
191.000=139.398,
192.000=145.725;
#STOPS:;
#DELAYS:;
#WARPS:;
#TIMESIGNATURES:0.000=4=4;
#TICKCOUNTS:0.000=4;
#COMBOS:0.000=1;
#SPEEDS:0.000=1.000=0.000=0;
#SCROLLS:0.000=1.000;
#FAKES:;
#LABELS:0.000=Song Start;
#BGCHANGES:;
#KEYSOUNDS:;
#ATTACKS:
;

//---------------dance-single - ----------------
#NOTEDATA:;
#CHARTNAME:;
#STEPSTYPE:dance-single;
#DESCRIPTION:;
#CHARTSTYLE:;
#DIFFICULTY:Beginner;
#METER:2;
#RADARVALUES:0.130693,0.201863,0.019888,0.039776,0.000000,92.000000,90.000000,2.000000,4.000000,0.000000,0.000000,0.000000,0.000000,0.000000,0.130693,0.201863,0.019888,0.039776,0.000000,92.000000,90.000000,2.000000,4.000000,0.000000,0.000000,0.000000,0.000000,0.000000;
#CREDIT:;
#DISPLAYBPM:146.000000;
#NOTES:
0000
0000
0000
0000
,
0000
0000
0000
0000
,
0000
0000
0000
0000
,
0000
0000
0000
0000
,
0000
0000
0000
0000
,
0000
0000
0000
0000
,
0000
0000
0000
0000
,
1000
0000
0000
0000
,
0001
0000
0000
0000
,
0010
0010
0000
0000
,
1000
1000
0000
0000
,
0100
0100
0000
0000
,
0001
0001
0001
0000
,
0010
0010
0000
0000
,
0001
0001
0000
0000
,
0100
0100
0000
0000
,
1000
1000
1000
0000
,
0100
0000
0100
0000
,
0001
0000
1000
0000
,
0010
0000
0000
0000
,
0100
0000
0000
0000
,
0100
0000
0100
0000
,
0001
0000
1000
0000
,
0010
0000
0000
0000
,
0100
0000
0000
0000
,
0001
0000
0100
0000
,
0001
0000
0000
0000
,
1000
0000
0100
0000
,
1000
0000
0000
0000
,
0001
0000
0100
0000
,
0001
0000
0000
0000
,
1000
0000
0100
0000
,
1000
0000
1000
0000
,
1001
0000
0000
0000
,
0010
0000
0100
0000
,
0001
0000
0100
0000
,
1000
0000
0000
0000
,
1001
0000
0000
0000
,
0010
0000
0100
0000
,
0001
0000
0100
0000
,
1000
0000
0000
0000
,
0001
0000
0000
0000
,
1000
0000
0000
0000
,
0010
0000
0000
0000
,
0100
0000
0000
0000
,
0002
0003
0000
0000
,
2000
3000
0000
0000
,
0020
0030
0000
0000
,
0200
0300
0000
0000
,
0001
0001
0001
0000
,
0100
0100
0100
0000
,
1000
1000
1000
0000
,
0001
0000
1000
0000
,
0001
0001
0001
0000
,
0010
0010
0010
0000
,
1000
1000
1000
0000
,
0001
0000
1000
0000
,
0100
0000
0100
0000
,
0100
0000
0000
0000
,
0000
0000
0000
0000
;

//---------------dance-single - ----------------
#NOTEDATA:;
#CHARTNAME:;
#STEPSTYPE:dance-single;
#DESCRIPTION:;
#CHARTSTYLE:;
#DIFFICULTY:Easy;
#METER:6;
#RADARVALUES:0.306844,0.432565,0.367929,0.119328,0.000000,216.000000,179.000000,37.000000,12.000000,0.000000,0.000000,0.000000,0.000000,0.000000,0.306844,0.432565,0.367929,0.119328,0.000000,216.000000,179.000000,37.000000,12.000000,0.000000,0.000000,0.000000,0.000000,0.000000;
#CREDIT:;
#DISPLAYBPM:146.000000;
#NOTES:
0000
0000
0000
0000
,
0000
0000
0000
0000
,
0000
0000
0000
0000
,
0000
0000
0000
0000
,
0000
0000
0000
0000
,
0000
0000
0000
0000
,
0000
0000
0000
0000
,
0010
1000
0001
0100
,
1000
2000
0000
3000
,
0010
1000
0001
0101
,
0010
0100
1000
1100
,
0010
0100
0010
1001
,
0100
0100
0001
0001
,
0010
0001
1000
1100
,
0010
0100
0001
0101
,
0010
0100
0010
1001
,
0200
0300
1000
1000
,
0110
0000
0110
0000
,
1001
0000
1001
0000
,
0001
0010
1000
0100
,
1000
0010
0001
0100
,
1000
1000
0001
0001
,
0110
0000
1000
0001
0000
0000
0000
0000
,
1000
0001
0100
1000
,
0010
0001
1000
1001
,
0010
0010
1001
0110
,
0001
1000
0100
0001
,
0010
1000
0001
1001
,
0010
0001
0010
1000
,
0010
0010
0001
1001
,
1000
0001
0100
1001
,
0010
1000
0100
0001
,
0010
0220
0330
0110
,
1001
0000
0100
0000
,
1000
0010
1000
0010
,
0001
0110
0001
0100
,
2000
0010
3001
1001
,
0100
1001
0100
1001
,
0100
1001
0100
1001
,
0100
1000
0010
0001
,
1000
0100
0001
0100
,
2000
0000
0000
3000
,
0200
0000
0000
0300
,
2000
0000
0000
3000
,
0010
0010
0010
0000
,
0002
0000
0000
0003
,
0200
0000
0000
0300
,
0002
0000
0000
0003
,
0010
0010
0110
0000
,
1000
0000
0110
0000
0001
0100
1000
0000
,
0100
0000
1001
0000
1000
0100
0001
0000
,
0100
0000
0110
0000
0100
1000
0010
0000
,
0001
0000
1001
0000
0010
1000
0100
0000
,
1001
0110
1001
0010
,
1001
0000
0010
0000
1000
0100
0001
0000
,
1001
0000
0010
0000
0001
0100
1000
0000
,
0100
0010
1000
0001
,
0020
0000
0130
0100
,
1001
0000
0000
0000
,
0000
0000
0000
0000
;

//---------------dance-single - ----------------
#NOTEDATA:;
#CHARTNAME:;
#STEPSTYPE:dance-single;
#DESCRIPTION:;
#CHARTSTYLE:;
#DIFFICULTY:Medium;
#METER:7;
#RADARVALUES:0.343779,0.432565,0.248600,0.188936,0.000000,242.000000,217.000000,25.000000,19.000000,0.000000,0.000000,0.000000,0.000000,0.000000,0.343779,0.432565,0.248600,0.188936,0.000000,242.000000,217.000000,25.000000,19.000000,0.000000,0.000000,0.000000,0.000000,0.000000;
#CREDIT:;
#DISPLAYBPM:146.000000;
#NOTES:
0000
0000
0000
0000
,
0000
0000
0000
0000
,
0000
0000
0000
0000
,
0000
0000
0000
0000
,
0000
0000
0000
0000
,
0000
0000
0000
0000
,
0000
0000
0000
0000
,
0010
1000
0100
0000
0010
0001
0100
0000
,
1000
0000
1000
0000
0001
1000
0100
0000
,
0001
0000
0001
0000
0001
0100
1000
0000
,
0001
0000
0001
0000
1000
0100
0001
0000
,
0010
0000
0010
0000
1000
0001
0100
0000
,
0010
0000
0010
0000
0001
1000
0100
0000
,
2000
0000
3001
0000
1000
0010
0001
0000
,
2000
0000
3001
0000
1000
0100
0001
0000
,
0200
0000
0310
0000
0001
0100
1000
0000
,
0200
0000
0310
0000
1000
0001
1000
0000
,
0110
1000
0110
0001
,
1001
0000
1001
0000
,
0001
0000
0010
0000
1000
0100
0001
0000
,
1000
0000
0010
0000
0001
1000
0100
0000
,
1000
1000
0001
0001
,
0110
0000
1000
0001
0000
0000
0000
0000
,
1000
0001
0100
1000
,
0010
0001
1000
1001
,
0010
0010
1001
0110
,
0002
0000
1003
0000
0100
0100
0100
0000
,
0010
1000
0001
1001
,
0020
0031
0020
1030
,
0010
0010
0001
1001
,
2000
0000
3001
0000
0100
0100
0100
0000
,
0010
0000
1000
0000
0100
0000
0001
0100
,
0010
0220
0330
0110
,
1001
0000
0100
0000
,
1000
0010
1000
0010
,
0001
0110
0001
0100
,
1000
0000
0020
0000
0100
0100
0130
0000
,
1001
0000
0100
0000
,
1000
0010
1000
0010
,
0001
0110
0001
0100
,
1000
0000
0200
0000
0010
0010
0310
0000
,
2000
0000
0100
3001
,
0200
0000
1000
0310
,
2000
0000
0010
3001
,
0010
1000
0001
0000
0100
0000
0000
0000
,
0002
0000
0100
1003
,
0200
0000
0001
0310
,
0002
0000
1000
0103
,
1000
1000
1000
0000
1001
0000
0000
0000
,
1000
0000
0110
0000
0001
0100
1000
0000
,
0100
0000
0001
0000
1000
0010
0001
0000
,
0100
0000
0110
0000
0100
1000
0010
0000
,
0001
0000
1001
0000
0010
1000
0100
0000
,
1001
0000
0110
0000
1000
0010
0001
0000
,
1001
0000
0010
0000
1000
0100
0001
0000
,
1001
0000
0010
0000
0001
0100
1000
0000
,
0100
0000
0010
0000
1000
0001
1000
0000
,
0010
0010
0000
0000
0020
0000
0130
0000
,
1001
0000
0000
0000
,
0000
0000
0000
0000
;

//---------------dance-single - ----------------
#NOTEDATA:;
#CHARTNAME:;
#STEPSTYPE:dance-single;
#DESCRIPTION:;
#CHARTSTYLE:;
#DIFFICULTY:Hard;
#METER:10;
#RADARVALUES:0.400602,0.461402,0.159104,0.218768,0.059664,282.000000,266.000000,16.000000,22.000000,0.000000,0.000000,0.000000,0.000000,0.000000,0.400602,0.461402,0.159104,0.218768,0.059664,282.000000,266.000000,16.000000,22.000000,0.000000,0.000000,0.000000,0.000000,0.000000;
#CREDIT:;
#DISPLAYBPM:146.000000;
#NOTES:
0000
0000
0000
0000
,
0000
0000
0000
0000
,
0000
0000
0000
0000
,
0000
0000
0000
0000
,
0000
0000
0000
0000
,
0000
0000
0000
0000
,
0000
0000
0000
0000
,
0100
1000
0010
0000
0010
1000
0100
0000
,
0001
0100
0001
0010
0001
1000
0100
0000
,
0010
0000
1000
0000
0100
0000
1000
0000
0000
0001
0000
0000
0100
0000
0000
0000
,
0001
0000
1000
0000
0001
0000
0010
0000
0000
0100
0000
0000
1000
0000
0000
0000
,
0010
0000
0100
0000
0010
0000
0100
0000
0000
0001
0000
0000
1000
0000
0000
0000
,
0001
1000
0001
0010
0100
0100
0100
0000
,
0010
0000
0001
0000
0100
0000
0002
0000
0000
1000
0000
0000
0103
0000
0000
0000
,
1000
0000
1000
0000
1000
0000
0010
0000
0000
0100
0000
0000
0000
0000
0000
0000
,
0010
0000
0100
0000
0010
0000
0200
0000
0000
1000
0000
0000
0301
0000
0000
0000
,
1000
0001
1000
0010
0100
0000
0000
0000
,
0010
1000
0110
0001
,
1001
0100
1001
0010
,
0001
1000
0020
0000
1030
0100
0001
0000
,
1000
0001
0020
0000
0031
1000
0100
0000
,
1000
0000
1000
0000
0001
0000
0001
1000
,
0110
0000
1000
0001
0000
0000
0000
0000
,
1000
0100
0001
0000
0100
1000
0010
0000
,
0001
0000
0001
0000
1000
0001
1001
0000
,
0010
0010
0010
0000
1001
0000
0110
0000
,
0001
0100
1000
1000
0100
0001
0010
0100
,
0020
0031
1000
1001
,
0020
1030
0110
0001
,
0100
0100
0100
0000
0001
1000
0100
0010
,
0002
0000
1003
0000
0100
0100
0100
0000
,
0010
1000
0001
0000
0100
1000
0001
0000
,
0010
1000
0110
0000
0001
1000
0110
0000
,
1001
0000
0100
0000
,
1000
0001
0200
0000
0301
1000
0100
0000
,
1000
0100
1001
0000
0001
0100
1001
0000
,
0200
0000
0310
0000
0100
0100
0100
0000
,
1001
0000
0100
0000
,
0001
1000
0200
0000
1300
0000
0100
0000
,
0010
1000
0100
0000
0200
0000
1300
0000
,
0010
0000
1000
0100
0010
0100
0010
0000
,
0002
0010
0200
0303
,
2000
0010
0200
3300
,
0002
0100
0020
0033
,
0001
1000
0100
0000
1000
0010
0100
0000
,
0002
0010
0100
0013
,
2000
0100
0010
3100
,
0002
0100
0010
0103
,
0001
1000
0001
0100
0010
0000
0000
0000
,
0100
0000
0001
0000
0010
0000
0001
0000
0000
1000
0000
0000
0010
0000
0000
0000
,
1000
0000
0001
0000
1000
0000
0100
0000
0000
0010
0000
0000
0001
0000
0000
0000
,
0100
0000
0010
0000
0100
0000
0010
0000
0000
1000
0000
0000
0001
0000
0000
0000
,
1000
1000
1000
0100
0010
0000
0000
0000
,
0100
0000
1000
0000
0010
0000
2000
0000
0000
0001
0000
0000
3010
0000
0000
0000
,
0001
0000
0001
0000
0001
0000
0100
0000
0000
0010
0000
0000
0000
0000
0000
0000
,
0100
0000
0010
0000
0100
0000
0020
0000
0000
0001
0000
0000
1030
0000
0000
0000
,
0001
1000
0001
0100
0010
0000
0000
0000
,
0010
1000
0001
0000
0100
0010
0100
0010
,
1001
0000
0000
0000
,
0000
0000
0000
0000
;

//---------------dance-single - ----------------
#NOTEDATA:;
#CHARTNAME:;
#STEPSTYPE:dance-single;
#DESCRIPTION:;
#CHARTSTYLE:;
#DIFFICULTY:Challenge;
#METER:6;
#RADARVALUES:0.267068,0.374889,0.318208,0.079552,0.000000,188.000000,156.000000,32.000000,8.000000,104.000000,0.000000,0.000000,0.000000,0.000000,0.267068,0.374889,0.318208,0.079552,0.000000,188.000000,156.000000,32.000000,8.000000,104.000000,0.000000,0.000000,0.000000,0.000000;
#CREDIT:;
#DISPLAYBPM:146.000000;
#NOTES:
0000
0000
0000
0000
,
0000
0000
0000
0000
,
0000
0000
0000
0000
,
0000
0000
0000
0000
,
0000
0000
0000
0000
,
0000
0000
0000
0000
,
0000
0000
0000
0000
,
0010
1000
0001
0100
,
1000
1000
0000
0000
,
0010
MMMM
0001
0101
,
0010
0100
1000
1100
,
0010
MMMM
0010
1001
,
0100
0100
0001
0001
,
0010
MMMM
1000
1100
,
0010
0100
0001
0101
,
0010
MMMM
0010
1001
,
0200
0300
1000
1000
,
0110
0000
0110
0000
,
1001
MMMM
1001
0000
,
0001
0010
1000
0100
,
1000
0010
0001
0100
,
1000
1000
0001
0001
,
0110
0000
1000
0001
MMMM
0000
0000
0000
,
1000
0001
0100
1000
,
0010
0001
1000
1001
,
0010
MMMM
1001
0110
,
0001
1000
0100
0001
,
0010
MMMM
0001
1001
,
0010
MMMM
0010
1000
,
0010
MMMM
0001
1001
,
1000
0001
0100
1001
,
0010
MMMM
0100
MMMM
,
0010
0110
MMMM
0110
,
1001
0000
0100
0000
,
1000
0010
1000
0010
,
0001
0110
0001
0100
,
1000
MMMM
0001
1001
,
0100
MMMM
0100
1001
,
0100
MMMM
0100
1001
,
0100
1000
0010
0001
,
1000
0100
0001
MMMM
,
2000
0000
0000
3000
,
0200
0000
0000
0300
,
2000
0000
0000
3000
,
0010
MMMM
0010
0000
,
0002
0000
0000
0003
,
0200
0000
0000
0300
,
0002
0000
0000
0003
,
0010
MMMM
0110
0000
,
1000
0000
MMMM
0000
0001
0100
1000
0000
,
0100
0000
1001
0000
1000
0100
0001
0000
,
0100
0000
MMMM
0000
0100
1000
0010
0000
,
0001
0000
1001
0000
0010
1000
0100
0000
,
1001
MMMM
1001
0010
,
1001
0000
MMMM
0000
1000
0100
0001
0000
,
1001
0000
MMMM
0000
0001
0100
1000
0000
,
0100
MMMM
1000
0001
,
0020
0000
0130
MMMM
,
1001
0000
0000
0000
,
0000
0000
0000
0000
;

//---------------dance-double - ----------------
#NOTEDATA:;
#CHARTNAME:;
#STEPSTYPE:dance-double;
#DESCRIPTION:;
#CHARTSTYLE:;
#DIFFICULTY:Easy;
#METER:9;
#RADARVALUES:0.319629,0.403727,0.318208,0.149160,0.000000,225.000000,193.000000,32.000000,15.000000,0.000000,0.000000,0.000000,0.000000,0.000000,0.319629,0.403727,0.318208,0.149160,0.000000,225.000000,193.000000,32.000000,15.000000,0.000000,0.000000,0.000000,0.000000,0.000000;
#CREDIT:;
#DISPLAYBPM:146.000000;
#NOTES:
00000000
00000000
00000000
00000000
,
00000000
00000000
00000000
00000000
,
00000000
00000000
00000000
00000000
,
00000000
00000000
00000000
00000000
,
00000000
00000000
00000000
00000000
,
00000000
00000000
00000000
00000000
,
00000000
00000000
00000000
00000000
,
00010000
00001000
00000100
00010000
,
01000000
00000000
00000000
00000000
00001000
00000100
00000001
00000000
,
00000100
00000100
00010000
00001000
,
00100000
00000000
00100000
00000000
10000000
01000000
00010000
00000000
,
00001000
00000000
00001000
00000000
00010000
00001000
00000100
00000000
,
00010000
10000000
01000000
00000000
,
00100000
00100000
00002000
00013000
,
00000100
00000000
00000100
00000000
00000001
00000100
00001000
00000000
,
00010000
00000000
00010000
00000000
00001000
00010000
01000000
00000000
,
00001000
00010000
00001000
00000000
,
00022000
00033000
00011000
00000000
,
00110000
00000000
10010000
00000000
,
02020000
03030000
00011000
00000000
,
00001100
00000000
00001001
00000000
,
00002020
00003030
00011000
00000000
,
01001000
00000000
00010100
00000000
,
00010000
01000000
00100000
00001000
,
00000100
00000001
00000010
00001000
,
01001000
00010100
01001000
00010100
,
00200000
00001000
00310000
00000000
,
01000000
00000000
00000100
00000000
,
00100000
00000000
00000010
00000000
,
00101000
00010010
00101000
00010010
,
00000100
00000001
00001000
01000000
,
10000000
00100000
00010000
00001000
,
00100000
00100000
00010000
00001000
,
00011000
01000000
10000000
00100000
,
10000000
01000000
00010000
00000000
00001000
00000000
00000100
00000000
,
00001000
01000000
10000000
00100000
,
10000000
00000000
01000000
00000000
00100000
00001000
00000100
00000000
,
00011000
00000100
00000001
00000010
,
00000001
00000100
00001000
00000000
00010000
00000000
01000000
00000000
,
00010000
00000100
00000001
00000010
,
00000001
00000000
00000100
00000000
00000010
00010000
01000000
00000000
,
00200000
00000000
00301000
00001000
,
00020000
00000000
00030010
00000010
,
00002000
00000000
00003001
00000001
,
00000100
00001000
00010000
00000000
,
00000200
00000000
00010300
00010000
,
00002000
00000000
00103000
00100000
,
00020000
00000000
10030000
10000000
,
00100000
01000000
10010000
00000000
,
00100000
00000000
00100000
00000000
10010000
01000000
00010000
00000000
,
00100000
00000000
00100000
00000000
00011000
00001000
00000100
00000000
,
00000010
00000000
00000010
00000000
00001001
00000100
00001000
00000000
,
00100000
00000000
00100000
00000000
10010000
01000000
00010000
00000000
,
00100000
00000000
00100000
00000000
00011000
00001000
00000100
00000000
,
00000010
00000000
00000010
00000000
00001001
00000100
00010000
00000000
,
01000000
00000000
01000000
00000000
10010000
00100000
00001000
00000000
,
00000100
00000000
00000100
00000000
00001001
00000010
00010000
00000000
,
00200000
00000000
00001000
00301000
,
00011000
00000000
00000000
00000000
,
00000000
00000000
00000000
00000000
;

//---------------dance-double - ----------------
#NOTEDATA:;
#CHARTNAME:;
#STEPSTYPE:dance-double;
#DESCRIPTION:;
#CHARTSTYLE:;
#DIFFICULTY:Medium;
#METER:10;
#RADARVALUES:0.343779,0.432565,0.099440,0.159104,0.000000,242.000000,232.000000,10.000000,16.000000,0.000000,0.000000,0.000000,0.000000,0.000000,0.343779,0.432565,0.099440,0.159104,0.000000,242.000000,232.000000,10.000000,16.000000,0.000000,0.000000,0.000000,0.000000,0.000000;
#CREDIT:;
#DISPLAYBPM:146.000000;
#NOTES:
00000000
00000000
00000000
00000000
,
00000000
00000000
00000000
00000000
,
00000000
00000000
00000000
00000000
,
00000000
00000000
00000000
00000000
,
00000000
00000000
00000000
00000000
,
00000000
00000000
00000000
00000000
,
00000000
00000000
00000000
00000000
,
00100000
00010000
00100000
00000000
00000010
00001000
00000010
00000000
,
00010000
00000000
00010000
00000000
00001000
00000010
00000001
00000000
,
00000100
00000000
00000100
00000000
00010000
00001000
00010000
00000000
,
00100000
00000000
00100000
00000000
00010000
00100000
10000000
00000000
,
00001000
00000000
00001000
00000000
00010000
01000000
10000000
00000000
,
00010000
00000000
10000000
00000000
00010000
01000000
00010000
00000000
,
00100000
00000000
00100000
00000000
00001000
00010000
00001000
00000000
,
00000100
00000000
00000100
00000000
00001000
00000010
00000001
00000000
,
00010000
00000000
00010000
00000000
00001000
00000100
00000001
00000000
,
00001000
00000000
00000100
00000000
00010000
00001000
00010000
00000000
,
01001000
00010000
00010100
00001000
,
00100000
10000000
10010000
01000000
,
00001000
00000100
00000001
00000110
,
00001000
00010000
01000000
10010000
,
00100000
10000000
00100000
00000000
00010000
00000000
00010000
00000000
,
00000010
00001000
00000010
00000000
00001000
00000000
00001000
00000000
,
00000001
00000000
00000001
00000000
00001000
00000001
00001000
00000000
,
00000002
00002003
00003001
00001001
,
00000010
00000000
00000010
00000000
00010000
00001000
00000100
00001000
,
00010000
01000000
00010000
00001000
00000100
00001000
00010000
00000000
,
00001000
00001000
00000200
00000301
,
00001000
00000000
00000020
00000000
00000100
00000100
00000130
00000000
,
00001000
00001000
01000000
10000000
,
01000000
01000000
01000000
00000000
00010000
00010000
00010000
00000000
,
10000000
10000000
00010000
00010000
,
00000100
00000100
00000001
00000001
,
00000010
00010000
01000000
10000000
,
00001000
00000100
00000001
00010000
,
01000000
10000000
00001000
00000100
,
00000001
00010000
00001000
00000000
,
00100000
00002000
00003100
00000001
,
00020000
01030000
10000000
00002000
,
00003100
00000001
00020000
01030000
,
10000000
00002000
00013000
00011000
,
00000020
00000000
00001030
00100000
,
02000000
00000000
03010000
00000100
,
00000020
00000000
00010030
00100000
,
10000000
00010000
10010000
00000000
,
00002000
00000000
00003001
00001000
,
00020000
00000000
10030000
00010000
,
00002000
00000000
00003001
00001000
,
00010000
00001000
00011000
00000000
,
00100000
00000000
00100000
00000000
10000000
01000000
00010000
01000000
,
00001000
00000000
00001000
00000000
00010000
00000100
00001000
00000010
,
00000100
00000000
00000100
00000000
00000001
00001000
00000100
00010000
,
00001000
00000000
00001000
00000000
01000000
00010000
10000000
00100000
,
01000000
00000000
01000000
00000000
10000000
00010000
01000000
00001000
,
00010000
00000000
00010000
00000000
00000100
00001000
00000001
00000010
,
00000100
00000000
00000100
00000000
00001000
00000001
00001000
01000000
,
00010000
10000000
00010000
01000000
,
00200000
00000000
00000000
00000000
10300000
01000000
00010000
00000000
,
00011000
00000000
00000000
00000000
,
00000000
00000000
00000000
00000000
;

//---------------dance-double - ----------------
#NOTEDATA:;
#CHARTNAME:;
#STEPSTYPE:dance-double;
#DESCRIPTION:;
#CHARTSTYLE:;
#DIFFICULTY:Hard;
#METER:10;
#RADARVALUES:0.447481,0.461402,0.328152,0.198880,0.019888,315.000000,282.000000,33.000000,20.000000,0.000000,0.000000,0.000000,0.000000,0.000000,0.447481,0.461402,0.328152,0.198880,0.019888,315.000000,282.000000,33.000000,20.000000,0.000000,0.000000,0.000000,0.000000,0.000000;
#CREDIT:;
#DISPLAYBPM:146.000000;
#NOTES:
00000000
00000000
00000000
00000000
,
00000000
00000000
00000000
00000000
,
00000000
00000000
00000000
00000000
,
00000000
00000000
00000000
00000000
,
00000000
00000000
00000000
00000000
,
00000000
00000000
00000000
00000000
,
00000000
00000000
00000000
00000000
,
00001000
01000000
00010000
10000000
01000000
01000000
01000000
00000000
,
00010000
00100000
00010000
00100000
00000000
00000000
00000000
00000000
00000000
00000000
00000000
00000000
00000000
00000000
00000000
00000000
,
00001001
00000000
00000100
00000010
00000000
00001000
00000100
00000000
,
00011000
00000000
00100000
01000000
00000000
10000000
00010000
00000000
,
00011000
00000000
00000100
00000010
00000000
00000001
00000100
00000000
,
00000010
00001000
00000100
00010000
00000000
00011000
00011000
00000000
,
01100000
00000000
10000000
00020000
00000000
00130000
01000000
00000000
,
00011000
00000000
00000010
00000200
00000000
00000301
00001000
00000000
,
00011000
00000000
01000000
00200000
00000000
10300000
01000000
00000000
,
00100000
00010000
01000000
00001000
00000000
00011000
00011000
00000000
,
00110000
00000000
11000000
00000000
00100000
00002000
00000000
00000000
,
00013000
00000100
00000010
00000001
00000000
00001000
00000100
00000000
,
00010000
00001000
00100000
00010000
00000000
10000000
01000000
00000000
,
00100000
00010000
01000000
00100000
00000000
00000000
00000000
00000000
,
10010000
00000000
00101000
00000000
00010000
00000200
00000000
00000000
,
00000310
00000001
00000100
00000010
00000000
00010000
00000100
00000000
,
00001000
00000010
00010000
00001000
00000000
00100000
00010000
00000000
,
10000000
01000000
00100000
00010000
00000000
01000000
00001000
00010000
,
00000200
00000000
00000310
00000000
00000001
00000100
00000000
00000010
,
00001000
00000100
00010000
00001000
00000000
00001000
00100000
00010000
,
02000000
00000000
03010000
00000000
10000000
01000000
00000000
00000000
,
00100000
00001000
00010000
00000100
00000000
00000010
00000001
00000100
,
00000020
00000000
00001030
00000000
00000100
00010000
00000000
00000000
,
00001000
00100000
00010000
01000000
00000000
00001000
00010000
00000100
,
00002000
00003001
00000200
00000310
,
00001100
00011000
00001010
00000101
,
00001000
00000000
00000100
00010000
00000000
00010000
00001000
00000000
,
00100000
00010000
01000000
00100000
00000000
10000000
01000000
00000000
,
00100000
00001000
00010000
00000100
00000000
00001000
00000010
00000000
,
00010000
00001000
01000000
00010000
00000000
00000000
11000000
00000000
,
00100000
00000000
00010000
01000000
00000000
00001000
00010000
00000000
,
00000100
00000010
00000001
00001000
00000000
00000100
00010000
00000000
,
00001000
00100000
00010000
10000000
00000000
01000000
00100000
00000000
,
00001000
00010000
00000010
00000100
00000000
00000000
00001001
00000000
,
00002100
00000000
00000010
00000000
00013000
00001000
00000100
00000000
,
00020100
00000000
00000010
00000000
00031000
00010000
00100000
00000000
,
02100000
00000000
00001000
00000000
03010000
01000000
10000000
00000000
,
01100000
10010000
00101000
00000000
,
01020000
00000000
10000000
00000000
00130000
00010000
00001000
00000000
,
00001200
00000000
00010000
00000000
00001300
00000100
00000010
00000000
,
00000012
00000000
00000100
00000000
00001003
00000001
00000100
00000000
,
00000101
00001010
00011000
00000000
,
00000010
00000100
00000010
00000100
00010000
00010000
00010000
00000000
,
00001000
00100000
00001000
01000000
00010000
00010000
00010000
00000000
,
10000000
01000000
00100000
00010000
01000000
01000000
01000000
00000000
,
00001000
00010000
00001000
00010000
00000100
00000010
00000001
00000000
,
00000100
00000010
00001000
00000200
00010000
00010000
00010300
00000000
,
00001000
00100000
01000000
20000000
00010000
00010000
30010000
00000000
,
01000000
00001000
00010000
00000200
00001000
00001000
00001300
00000000
,
00000001
00000100
00000001
00000100
00000010
00010000
00001000
00000000
,
00100000
00010000
00100000
00010000
00000000
00000000
00000000
00000000
00000020
00000000
00001000
00000000
00001030
00000000
00000000
00000000
,
00011000
00000000
00000000
00000000
,
00000000
00000000
00000000
00000000
;

//---------------dance-double - ----------------
#NOTEDATA:;
#CHARTNAME:;
#STEPSTYPE:dance-double;
#DESCRIPTION:;
#CHARTSTYLE:;
#DIFFICULTY:Challenge;
#METER:9;
#RADARVALUES:0.292638,0.374889,0.318208,0.149160,0.000000,206.000000,174.000000,32.000000,15.000000,192.000000,0.000000,0.000000,0.000000,0.000000,0.292638,0.374889,0.318208,0.149160,0.000000,206.000000,174.000000,32.000000,15.000000,192.000000,0.000000,0.000000,0.000000,0.000000;
#CREDIT:;
#DISPLAYBPM:146.000000;
#NOTES:
00000000
00000000
00000000
00000000
,
00000000
00000000
00000000
00000000
,
00000000
00000000
00000000
00000000
,
00000000
00000000
00000000
00000000
,
00000000
00000000
00000000
00000000
,
00000000
00000000
00000000
00000000
,
00000000
00000000
00000000
00000000
,
00010000
00001000
00000100
00010000
,
01000000
00000000
00000000
00000000
00001000
00000100
00000001
00000000
,
00000100
MMMMMMMM
00010000
00001000
,
00100000
00000000
00100000
00000000
10000000
01000000
00010000
00000000
,
00001000
00000000
MMMMMMMM
00000000
00010000
00001000
00000100
00000000
,
00010000
10000000
01000000
00000000
,
00100000
MMMMMMMM
00002000
00013000
,
00000100
00000000
00000100
00000000
00000001
00000100
00001000
00000000
,
00010000
00000000
MMMMMMMM
00000000
00001000
00010000
01000000
00000000
,
00001000
00010000
00001000
00000000
,
00022000
00033000
00011000
00000000
,
00110000
MMMMMMMM
10010000
00000000
,
02020000
03030000
00011000
00000000
,
00001100
MMMMMMMM
00001001
00000000
,
00002020
00003030
00011000
00000000
,
01001000
MMMMMMMM
00010100
00000000
,
00010000
01000000
00100000
00001000
,
00000100
00000001
00000010
00001000
,
01001000
00010100
01001000
00010100
,
00200000
00001000
00310000
00000000
,
01000000
MMMMMMMM
00000100
00000000
,
00100000
MMMMMMMM
00000010
00000000
,
00101000
00010010
00101000
00010010
,
00000100
00000001
00001000
01000000
,
10000000
MMMMMMMM
00010000
MMMMMMMM
,
00100000
MMMMMMMM
00010000
00001000
,
00011000
MMMMMMMM
10000000
00100000
,
10000000
01000000
00010000
00000000
00001000
00000000
00000100
00000000
,
00001000
01000000
10000000
00100000
,
10000000
00000000
01000000
00000000
00100000
00001000
00000100
00000000
,
00011000
MMMMMMMM
00000001
00000010
,
00000001
00000100
00001000
00000000
00010000
00000000
01000000
00000000
,
00010000
00000100
00000001
00000010
,
MMMMMMMM
00000000
00000100
00000000
00000010
00010000
01000000
00000000
,
00200000
00000000
00301000
00001000
,
00020000
00000000
00030010
MMMMMMMM
,
00002000
00000000
00003001
00000001
,
00000100
00001000
00010000
00000000
,
00000200
00000000
00010300
00010000
,
00002000
00000000
00103000
MMMMMMMM
,
00020000
00000000
10030000
10000000
,
00100000
01000000
10010000
00000000
,
00100000
00000000
MMMMMMMM
00000000
10010000
01000000
00010000
00000000
,
00100000
00000000
00100000
00000000
00011000
00001000
00000100
00000000
,
00000010
00000000
MMMMMMMM
00000000
00001001
00000100
00001000
00000000
,
00100000
00000000
00100000
00000000
10010000
01000000
00010000
00000000
,
00100000
00000000
MMMMMMMM
00000000
00011000
00001000
00000100
00000000
,
00000010
00000000
MMMMMMMM
00000000
00001001
00000100
00010000
00000000
,
01000000
00000000
MMMMMMMM
00000000
10010000
00100000
00001000
00000000
,
00000100
00000000
MMMMMMMM
00000000
00001001
00000010
00010000
00000000
,
00200000
00000000
00301000
MMMMMMMM
,
00011000
00000000
00000000
00000000
,
00000000
00000000
00000000
00000000
;

//---------------dance-single - Edit----------------
#NOTEDATA:;
#CHARTNAME:;
#STEPSTYPE:dance-single;
#DESCRIPTION:Edit;
#CHARTSTYLE:;
#DIFFICULTY:Edit;
#METER:16;
#RADARVALUES:0.849503,0.984706,0.407705,0.377873,0.989429,598.000000,557.000000,41.000000,38.000000,0.000000,0.000000,0.000000,0.000000,0.000000,0.849503,0.984706,0.407705,0.377873,0.989429,598.000000,557.000000,41.000000,38.000000,0.000000,0.000000,0.000000,0.000000,0.000000;
#CREDIT:;
#DISPLAYBPM:146.000000;
#NOTES:
// measure 0
0000
0000
0000
0000
,  // measure 1
0000
0000
0000
0000
,  // measure 2
0000
0000
0000
0000
,  // measure 3
0000
0000
0000
0000
,  // measure 4
0000
0000
0000
0000
,  // measure 5
0000
0000
0000
0000
,  // measure 6
0000
0000
0000
0000
,  // measure 7
0000
0000
0000
0000
,  // measure 8
0000
0000
0000
0000
,  // measure 9
1001
0000
1001
0000
1001
0000
0001
0100
0000
0100
0010
0001
1000
0010
0100
0001
,  // measure 10
1000
0000
1100
0000
1100
0000
0100
1000
0000
1000
0010
0100
0001
1000
0100
0010
,  // measure 11
0001
0000
0011
0000
0011
0000
0001
0010
0000
0010
0100
1000
0010
0100
0001
1000
,  // measure 12
0100
0000
0010
0000
1000
0000
0200
2000
0000
0000
0000
0000
3300
0000
0000
0000
,  // measure 13
1001
0000
1001
0000
1001
0000
1000
0100
0000
0100
0010
0001
1000
0010
0100
0001
,  // measure 14
1000
0000
1010
0000
1010
0000
1000
0100
0000
0010
0001
0100
0010
1000
0001
0010
,  // measure 15
0100
0000
0110
0000
0110
0000
0010
0001
0000
0001
1000
0010
0100
0001
1000
0100
,  // measure 16
0010
0000
0001
0000
0100
0000
0002
2000
0000
0000
0000
0000
3003
0000
0001
0000
,  // measure 17
2000
0000
0010
0000
0100
0001
0000
0001
,  // measure 18
3100
0010
1000
0100
0010
0000
0011
0000
0001
0000
0100
0001
1000
0100
0010
0001
,  // measure 19
0200
0302
2003
3200
0320
2030
3002
0203
,  // measure 20
0320
0000
2030
0000
3200
0000
0320
0000
0000
0000
0100
0000
0130
0000
1000
0001
,  // measure 21
0100
0000
0010
1000
0100
0000
0010
1000
0100
0010
0001
0010
0100
0000
0010
0001
,  // measure 22
1000
0001
0100
0001
1000
0000
0010
0100
0001
0000
1000
0100
0010
0001
0010
0100
,  // measure 23
1000
1010
1000
1100
0100
0110
0010
0011
,  // measure 24
0001
0000
0101
0000
0100
0000
0110
0000
0010
0000
1000
0010
0100
0000
0100
0001
,  // measure 25
0010
0000
0001
1000
0010
0000
1000
0001
0010
0000
0110
0000
0100
0001
1000
0100
,  // measure 26
0010
0000
0010
0001
0100
0000
0010
0100
1000
0000
1100
0000
0010
1000
0100
0010
,  // measure 27
0001
0100
0010
0000
1000
0100
0010
0000
1000
0010
0100
0000
0100
0001
1000
0010
,  // measure 28
0100
0000
0010
0001
1000
0001
0100
0010
1000
0000
0100
1000
0010
0000
0100
0001
,  // measure 29
0010
0001
1000
0000
0010
0100
0001
0000
0100
0010
1000
0100
0010
0000
1000
0100
,  // measure 30
0010
0001
0100
0001
1000
0100
0010
0001
1000
0000
0100
0001
1000
0100
0010
0001
,  // measure 31
0100
0101
0001
1001
1000
1010
0010
0110
,  // measure 32
0200
0000
0001
0000
0302
0000
0010
0000
0023
0000
1000
0000
1030
0100
0010
0001
,  // measure 33
2000
3001
0010
0100
1000
0000
0020
0130
1000
0100
0010
0000
0002
0013
0100
1000
,  // measure 34
0010
0000
0200
1300
0010
0100
0001
0000
1000
0001
0100
0000
0001
1000
0100
0000
,  // measure 35
0010
0000
1000
0010
0100
0000
0001
0000
1000
0000
0010
0100
1000
0000
0010
0001
,  // measure 36
0100
0000
0000
0001
0000
0000
0010
0000
0000
0000
0000
0000
0100
0000
0000
0000
0000
0000
1000
0000
0000
0100
0000
0000
0010
0000
0000
0000
0000
0000
0001
0000
0010
0000
0001
0000
0010
0000
0000
0000
0000
0000
1000
0000
0100
0000
1000
0000
,  // measure 37
0200
0310
1000
0001
0100
0000
0020
0130
0001
1000
0100
0000
0002
0013
0100
1000
,  // measure 38
0010
0000
2000
3100
0010
0001
1000
0000
0010
0100
0001
0000
0100
0010
1000
0000
,  // measure 39
0010
1000
0100
0010
0001
0000
0011
0000
0001
0010
0100
1000
0010
0000
1010
0000
,  // measure 40
1000
0100
0001
0100
0010
0000
0110
0000
0010
0100
0001
1000
0100
0000
0101
0000
,  // measure 41
0012
0100
0103
0000
0201
1000
1300
0000
,  // measure 42
2100
0010
3010
0000
1020
0001
0031
0000
,  // measure 43
0001
0010
1000
0100
0001
0100
1000
0010
,  // measure 44
0001
0000
0100
0000
1000
0000
0010
0100
0000
0000
0110
0000
0110
0000
0000
0000
,  // measure 45
2010
0100
3100
0000
1200
0001
0301
0000
,  // measure 46
0102
0010
0013
0000
0021
1000
1030
0000
,  // measure 47
1000
0010
0001
0100
1000
0100
0001
0010
,  // measure 48
1000
0000
0100
0000
0001
0000
0010
0200
0000
0310
0100
0100
0100
0001
0010
1000
,  // measure 49
0100
0001
0100
0001
1000
0001
0100
0001
0000
0001
0100
0001
0010
0001
1000
0001
,  // measure 50
0100
0010
0100
0010
1000
0010
0001
0010
0000
0010
0001
0010
0100
0010
1000
0010
,  // measure 51
0100
1000
0010
1000
0100
1000
0001
1000
0000
1000
0010
1000
0100
1000
0001
1000
,  // measure 52
0010
0100
0001
0100
0010
0100
1000
0100
0000
0100
0010
0100
0001
0100
0010
0100
,  // measure 53
1000
0010
0001
0010
1000
0010
0001
0010
0000
0010
1000
0010
0001
0010
1000
0010
,  // measure 54
0001
0100
1000
0100
0001
0100
1000
0100
0000
0100
0001
0100
1000
0100
0001
0100
,  // measure 55
1000
0010
0100
0010
1000
0010
0100
0010
0000
0010
0100
0010
1000
0010
0100
0010
,  // measure 56
0001
0100
0010
0100
0001
0010
0100
0010
0001
0100
0010
0100
0001
0010
0100
0010
,  // measure 57
0001
0000
0010
0000
0001
0000
0010
0000
0000
0001
0000
0000
0100
0000
0000
0010
0000
0000
0100
0000
0000
0010
0000
0000
1000
0000
0000
0100
0000
0000
1000
0000
0000
0100
0000
0000
0010
0000
0000
0001
0000
0000
1000
0000
0000
0010
0000
0000
,  // measure 58
0200
0300
0000
0000
;
